osu file format v14

[General]
AudioFilename: audio 1.100x (pitch raised).mp3
AudioLeadIn: 0
PreviewTime: 32531
Countdown: 0
SampleSet: Soft
StackLeniency: 0.7
Mode: 3
LetterboxInBreaks: 0
SpecialStyle: 0
WidescreenStoryboard: 0

[Editor]
DistanceSpacing: 0.8
BeatDivisor: 6
GridSize: 32
TimelineZoom: 2.2

[Metadata]
Title:Time to Say Goodbye
TitleUnicode:Time to Say Goodbye
Artist:Jeff Williams feat. Casey Lee Williams
ArtistUnicode:Jeff Williams feat. Casey Lee Williams
Creator:Halogen-
Version:Farewell 1.1x (275bpm)
Source:RWBY Volume 2
Tags:Anime English TTSG op female vocals Original Soundtrack OST Stamina opening
BeatmapID:2701199
BeatmapSetID:1302447

[Difficulty]
HPDrainRate:8.5
CircleSize:4
OverallDifficulty:8.5
ApproachRate:5
SliderMultiplier:1.4
SliderTickRate:1

[Events]
//Background and Video events
0,0,"background.png",0,0
//Break Periods
//Storyboard Layer 0 (Background)
//Storyboard Layer 1 (Fail)
//Storyboard Layer 2 (Pass)
//Storyboard Layer 3 (Foreground)
//Storyboard Layer 4 (Overlay)
//Storyboard Sound Samples

[TimingPoints]
203,272.727272727273,4,2,0,100,1,0
203,-80,4,2,0,100,0,0
8249,287.08134,4,2,0,100,1,0
8249,-75.999999924,4,2,0,100,0,0
9684,237.15415,4,2,0,100,1,0
9684,-92.0000000766667,4,2,0,100,0,0
12886,227.272727272727,4,2,0,100,1,0
12886,-96,4,2,0,100,0,0
14477,218.181818181818,4,2,0,100,1,0
14477,-100,4,2,0,100,0,0
17313,218.181818181818,4,2,0,100,1,0
17313,-100,4,2,0,100,0,0
108077,258.509263636364,4,2,0,100,1,0
108077,-84.3999998734,4,2,0,100,0,0
109110,237.15415,4,2,0,100,1,0
109110,-92.0000000766667,4,2,0,100,0,0
110060,242.424242727273,4,2,0,100,1,0
110060,-89.9999998875,4,2,0,100,0,0
111756,232.108317272727,4,2,0,100,1,0
111756,-93.9999999765,4,2,0,100,0,0
111989,235.109718181818,4,2,0,100,1,0
111989,-92.7999998762667,4,2,0,100,0,0
112929,237.15415,4,2,0,100,1,0
112929,-92.0000000766667,4,2,0,100,0,0
113403,240.288346363636,4,2,0,100,1,0
113403,-90.79999986834,4,2,0,100,0,0
113883,235.109718181818,4,2,0,100,1,0
113883,-92.7999998762667,4,2,0,100,0,0
115764,234.100663636364,4,2,0,100,1,0
115764,-93.1999998602,4,2,0,100,0,0
116700,241.351569090909,4,2,0,100,1,0
116700,-90.3999998854933,4,2,0,100,0,0
117666,240.288346363636,4,2,0,100,1,0
117666,-90.79999986834,4,2,0,100,0,0
118628,239.23445,4,2,0,100,1,0
118628,-91.1999999088,4,2,0,100,0,0
119106,238.189758181818,4,2,0,100,1,0
119106,-91.5999998687067,4,2,0,100,0,0
119344,235.109718181818,4,2,0,100,1,0
119344,-92.7999998762667,4,2,0,100,0,0
119580,232.108317272727,4,2,0,100,1,0
119580,-93.9999999765,4,2,0,100,0,0
120276,242.424242727273,4,2,0,100,1,0
120276,-89.9999998875,4,2,0,100,0,0
120518,237.15415,4,2,0,100,1,0
120518,-92.0000000766667,4,2,0,100,0,0
120992,235.109718181818,4,2,0,100,1,0
120992,-92.7999998762667,4,2,0,100,0,0
123343,238.710960909091,4,2,0,100,1,0
123343,-91.3999999626783,4,2,0,100,0,0
134801,239.23445,4,2,0,100,1,0
134801,-91.1999999088,4,2,0,100,0,0
135280,247.933884545455,4,2,0,100,1,0
135280,-87.999999912,4,2,0,100,0,0
135776,257.28988,4,2,0,100,1,0
135776,-84.7999999773867,4,2,0,100,0,0
138863,272.727272727273,4,2,0,100,1,0
138863,-80,4,2,0,100,0,0
139409,279.72028,4,2,0,100,1,0
139409,-77.999999922,4,2,0,100,0,0
139969,303.030302727273,4,2,0,100,1,0
139969,-72.000000072,4,2,0,100,0,0
140574,330.578512727273,4,2,0,100,1,0
140574,-65.999999934,4,2,0,100,0,0
141235,340.909090909091,4,2,0,100,1,0
141235,-64,4,2,0,100,0,0
141917,272.727272727273,4,2,0,100,1,0
141917,-80,4,2,0,100,0,0
142462,340.909090909091,4,2,0,100,1,0
142462,-64,4,2,0,100,0,0
143144,303.030302727273,4,2,0,100,1,0
143144,-72.000000072,4,2,0,100,0,0
143750,498.132004545455,4,2,0,100,1,0
143750,-43.800000038325,4,2,0,100,0,0
145494,218.181818181818,4,2,0,100,1,0
145494,-100,4,2,0,100,0,0
147349,218.181818181818,4,2,0,100,1,0
147349,-100,4,2,0,100,0,0

[HitObjects]
448,192,1157,5,0,0:0:0:0:
64,192,1293,1,0,0:0:0:0:
192,192,1293,1,0,0:0:0:0:
448,192,1328,1,0,0:0:0:0:
320,192,1362,1,0,0:0:0:0:
192,192,1396,1,0,0:0:0:0:
64,192,1430,1,0,0:0:0:0:
320,192,1703,128,0,1975:0:0:0:0:
64,192,1839,128,0,1975:0:0:0:0:
192,192,1975,1,0,0:0:0:0:
64,192,2248,128,0,2521:0:0:0:0:
192,192,2384,128,0,2521:0:0:0:0:
320,192,2521,1,0,0:0:0:0:
320,192,2793,128,0,3066:0:0:0:0:
192,192,2930,128,0,3066:0:0:0:0:
448,192,3066,1,0,0:0:0:0:
64,192,3339,128,0,3612:0:0:0:0:
192,192,3475,128,0,3612:0:0:0:0:
320,192,3612,1,0,0:0:0:0:
448,192,3884,128,0,4157:0:0:0:0:
192,192,4021,128,0,4157:0:0:0:0:
320,192,4157,1,0,0:0:0:0:
320,192,4430,128,0,4703:0:0:0:0:
64,192,4498,128,0,4703:0:0:0:0:
448,192,4703,128,0,4975:0:0:0:0:
320,192,4975,128,0,5248:0:0:0:0:
192,192,5248,128,0,5521:0:0:0:0:
448,192,5521,128,0,5793:0:0:0:0:
192,192,5793,128,0,6612:0:0:0:0:
320,192,5793,128,0,7021:0:0:0:0:
64,192,6203,128,0,7021:0:0:0:0:
448,192,7021,128,0,7566:0:0:0:0:
64,192,7157,128,0,8966:0:0:0:0:
192,192,7566,128,0,8966:0:0:0:0:
320,192,7975,128,0,8966:0:0:0:0:
448,192,8248,128,0,8966:0:0:0:0:
448,192,9253,128,0,9684:0:0:0:0:
64,192,9684,128,0,9921:0:0:0:0:
320,192,9802,128,0,9921:0:0:0:0:
448,192,9802,1,0,0:0:0:0:
192,192,9921,1,0,0:0:0:0:
320,192,10158,128,0,10395:0:0:0:0:
64,192,10276,128,0,10395:0:0:0:0:
192,192,10276,1,0,0:0:0:0:
448,192,10395,1,0,0:0:0:0:
192,192,10632,128,0,10869:0:0:0:0:
448,192,10751,128,0,10869:0:0:0:0:
64,192,10751,1,0,0:0:0:0:
320,192,10869,1,0,0:0:0:0:
320,192,11106,128,0,11344:0:0:0:0:
64,192,11225,1,0,0:0:0:0:
192,192,11225,1,0,0:0:0:0:
448,192,11344,128,0,11581:0:0:0:0:
64,192,11581,128,0,11818:0:0:0:0:
192,192,11699,128,0,11818:0:0:0:0:
448,192,11699,1,0,0:0:0:0:
320,192,11818,1,0,0:0:0:0:
320,192,12055,128,0,12292:0:0:0:0:
448,192,12114,1,0,0:0:0:0:
64,192,12174,128,0,12292:0:0:0:0:
192,192,12174,1,0,0:0:0:0:
448,192,12292,1,0,0:0:0:0:
192,192,12529,128,0,12767:0:0:0:0:
64,192,12648,1,0,0:0:0:0:
320,192,12648,1,0,0:0:0:0:
448,192,12767,128,0,12999:0:0:0:0:
320,192,12999,128,0,13226:0:0:0:0:
64,192,13113,1,0,0:0:0:0:
448,192,13113,1,0,0:0:0:0:
192,192,13226,128,0,13454:0:0:0:0:
64,192,13454,128,0,13681:0:0:0:0:
320,192,13567,1,0,0:0:0:0:
448,192,13567,1,0,0:0:0:0:
192,192,13681,128,0,14022:0:0:0:0:
64,192,13795,1,0,0:0:0:0:
64,192,13908,1,0,0:0:0:0:
320,192,14022,1,0,0:0:0:0:
448,192,14022,1,0,0:0:0:0:
64,192,14135,1,0,0:0:0:0:
192,192,14249,1,0,0:0:0:0:
192,192,14363,1,0,0:0:0:0:
320,192,14476,1,0,0:0:0:0:
448,192,14476,1,0,0:0:0:0:
192,192,14586,1,0,0:0:0:0:
320,192,14695,1,0,0:0:0:0:
320,192,14804,1,0,0:0:0:0:
64,192,14913,1,0,0:0:0:0:
192,192,14913,1,0,0:0:0:0:
320,192,15022,1,0,0:0:0:0:
448,192,15131,1,0,0:0:0:0:
448,192,15240,1,0,0:0:0:0:
64,192,15349,1,0,0:0:0:0:
192,192,15349,1,0,0:0:0:0:
448,192,15458,1,0,0:0:0:0:
64,192,15567,1,0,0:0:0:0:
320,192,15567,1,0,0:0:0:0:
64,192,15676,1,0,0:0:0:0:
192,192,15786,1,0,0:0:0:0:
320,192,15786,1,0,0:0:0:0:
64,192,15895,1,0,0:0:0:0:
192,192,16004,1,0,0:0:0:0:
448,192,16004,1,0,0:0:0:0:
448,192,16113,1,0,0:0:0:0:
192,192,16222,1,0,0:0:0:0:
320,192,16222,1,0,0:0:0:0:
448,192,16331,1,0,0:0:0:0:
64,192,16440,1,0,0:0:0:0:
192,192,16440,1,0,0:0:0:0:
64,192,16549,1,0,0:0:0:0:
320,192,16549,1,0,0:0:0:0:
192,192,16658,1,0,0:0:0:0:
320,192,16658,1,0,0:0:0:0:
64,192,16767,1,0,0:0:0:0:
448,192,16767,1,0,0:0:0:0:
192,192,16876,1,0,0:0:0:0:
448,192,16876,1,0,0:0:0:0:
320,192,16986,1,0,0:0:0:0:
448,192,16986,1,0,0:0:0:0:
64,192,17095,1,0,0:0:0:0:
192,192,17095,1,0,0:0:0:0:
64,192,17204,1,0,0:0:0:0:
320,192,17204,1,0,0:0:0:0:
448,192,17204,1,0,0:0:0:0:
64,192,17422,1,0,0:0:0:0:
192,192,17476,1,0,0:0:0:0:
320,192,17531,1,0,0:0:0:0:
448,192,17531,1,0,0:0:0:0:
192,192,17585,1,0,0:0:0:0:
64,192,17640,1,0,0:0:0:0:
320,192,17694,1,0,0:0:0:0:
192,192,17749,1,0,0:0:0:0:
448,192,17749,1,0,0:0:0:0:
320,192,17803,1,0,0:0:0:0:
64,192,17858,1,0,0:0:0:0:
192,192,17913,1,0,0:0:0:0:
320,192,17967,1,0,0:0:0:0:
448,192,17967,1,0,0:0:0:0:
64,192,18022,1,0,0:0:0:0:
192,192,18076,1,0,0:0:0:0:
320,192,18131,1,0,0:0:0:0:
64,192,18185,1,0,0:0:0:0:
448,192,18185,1,0,0:0:0:0:
192,192,18240,1,0,0:0:0:0:
320,192,18294,1,0,0:0:0:0:
192,192,18349,1,0,0:0:0:0:
64,192,18403,1,0,0:0:0:0:
448,192,18403,1,0,0:0:0:0:
320,192,18458,1,0,0:0:0:0:
192,192,18513,1,0,0:0:0:0:
320,192,18567,1,0,0:0:0:0:
64,192,18622,1,0,0:0:0:0:
448,192,18622,1,0,0:0:0:0:
320,192,18676,1,0,0:0:0:0:
192,192,18731,1,0,0:0:0:0:
64,192,18785,1,0,0:0:0:0:
320,192,18840,1,0,0:0:0:0:
448,192,18840,1,0,0:0:0:0:
192,192,18894,1,0,0:0:0:0:
64,192,18949,1,0,0:0:0:0:
320,192,18949,1,0,0:0:0:0:
192,192,19003,1,0,0:0:0:0:
448,192,19058,1,0,0:0:0:0:
64,192,19113,1,0,0:0:0:0:
192,192,19167,1,0,0:0:0:0:
320,192,19222,1,0,0:0:0:0:
64,192,19276,1,0,0:0:0:0:
192,192,19276,1,0,0:0:0:0:
448,192,19331,1,0,0:0:0:0:
320,192,19385,1,0,0:0:0:0:
192,192,19440,1,0,0:0:0:0:
64,192,19494,1,0,0:0:0:0:
320,192,19494,1,0,0:0:0:0:
192,192,19549,1,0,0:0:0:0:
448,192,19603,1,0,0:0:0:0:
320,192,19658,1,0,0:0:0:0:
64,192,19712,1,0,0:0:0:0:
192,192,19712,1,0,0:0:0:0:
320,192,19767,1,0,0:0:0:0:
448,192,19822,1,0,0:0:0:0:
192,192,19876,1,0,0:0:0:0:
64,192,19931,1,0,0:0:0:0:
448,192,19931,1,0,0:0:0:0:
320,192,19985,1,0,0:0:0:0:
192,192,20040,1,0,0:0:0:0:
320,192,20094,1,0,0:0:0:0:
64,192,20149,1,0,0:0:0:0:
448,192,20149,1,0,0:0:0:0:
192,192,20203,1,0,0:0:0:0:
320,192,20258,1,0,0:0:0:0:
192,192,20312,1,0,0:0:0:0:
64,192,20367,1,0,0:0:0:0:
448,192,20367,1,0,0:0:0:0:
192,192,20422,1,0,0:0:0:0:
320,192,20476,1,0,0:0:0:0:
448,192,20531,1,0,0:0:0:0:
64,192,20585,1,0,0:0:0:0:
192,192,20585,1,0,0:0:0:0:
320,192,20640,1,0,0:0:0:0:
192,192,20694,1,0,0:0:0:0:
448,192,20694,1,0,0:0:0:0:
320,192,20749,1,0,0:0:0:0:
64,192,20803,1,0,0:0:0:0:
448,192,20858,1,0,0:0:0:0:
320,192,20912,1,0,0:0:0:0:
192,192,20967,1,0,0:0:0:0:
320,192,21022,1,0,0:0:0:0:
448,192,21022,1,0,0:0:0:0:
64,192,21076,1,0,0:0:0:0:
192,192,21131,1,0,0:0:0:0:
448,192,21185,1,0,0:0:0:0:
64,192,21240,1,0,0:0:0:0:
320,192,21240,1,0,0:0:0:0:
448,192,21294,1,0,0:0:0:0:
192,192,21349,1,0,0:0:0:0:
64,192,21403,1,0,0:0:0:0:
320,192,21458,1,0,0:0:0:0:
448,192,21458,1,0,0:0:0:0:
64,192,21512,1,0,0:0:0:0:
192,192,21567,1,0,0:0:0:0:
448,192,21622,1,0,0:0:0:0:
192,192,21676,1,0,0:0:0:0:
320,192,21676,1,0,0:0:0:0:
64,192,21731,1,0,0:0:0:0:
448,192,21785,1,0,0:0:0:0:
64,192,21840,1,0,0:0:0:0:
192,192,21894,1,0,0:0:0:0:
320,192,21894,1,0,0:0:0:0:
448,192,21949,1,0,0:0:0:0:
64,192,22003,1,0,0:0:0:0:
448,192,22058,1,0,0:0:0:0:
192,192,22112,1,0,0:0:0:0:
320,192,22112,1,0,0:0:0:0:
64,192,22167,1,0,0:0:0:0:
448,192,22222,1,0,0:0:0:0:
192,192,22276,1,0,0:0:0:0:
320,192,22331,1,0,0:0:0:0:
448,192,22331,1,0,0:0:0:0:
64,192,22385,1,0,0:0:0:0:
192,192,22440,1,0,0:0:0:0:
320,192,22440,1,0,0:0:0:0:
448,192,22494,1,0,0:0:0:0:
64,192,22549,1,0,0:0:0:0:
192,192,22603,1,0,0:0:0:0:
320,192,22658,1,0,0:0:0:0:
448,192,22712,1,0,0:0:0:0:
64,192,22767,1,0,0:0:0:0:
192,192,22767,1,0,0:0:0:0:
448,192,22822,1,0,0:0:0:0:
320,192,22876,1,0,0:0:0:0:
64,192,22931,1,0,0:0:0:0:
192,192,22985,1,0,0:0:0:0:
448,192,22985,1,0,0:0:0:0:
64,192,23040,1,0,0:0:0:0:
320,192,23094,1,0,0:0:0:0:
448,192,23149,1,0,0:0:0:0:
64,192,23203,1,0,0:0:0:0:
192,192,23203,1,0,0:0:0:0:
448,192,23258,1,0,0:0:0:0:
320,192,23312,1,0,0:0:0:0:
64,192,23367,1,0,0:0:0:0:
192,192,23422,1,0,0:0:0:0:
320,192,23422,1,0,0:0:0:0:
448,192,23476,1,0,0:0:0:0:
64,192,23531,1,0,0:0:0:0:
448,192,23585,1,0,0:0:0:0:
192,192,23640,1,0,0:0:0:0:
320,192,23640,1,0,0:0:0:0:
64,192,23694,1,0,0:0:0:0:
448,192,23749,1,0,0:0:0:0:
64,192,23803,1,0,0:0:0:0:
192,192,23858,1,0,0:0:0:0:
320,192,23858,1,0,0:0:0:0:
64,192,23912,1,0,0:0:0:0:
448,192,23967,1,0,0:0:0:0:
320,192,24022,1,0,0:0:0:0:
64,192,24076,1,0,0:0:0:0:
192,192,24076,1,0,0:0:0:0:
448,192,24131,1,0,0:0:0:0:
64,192,24185,1,0,0:0:0:0:
192,192,24185,1,0,0:0:0:0:
320,192,24185,1,0,0:0:0:0:
64,192,24403,1,0,0:0:0:0:
448,192,24458,1,0,0:0:0:0:
192,192,24512,1,0,0:0:0:0:
320,192,24512,1,0,0:0:0:0:
64,192,24567,1,0,0:0:0:0:
192,192,24622,1,0,0:0:0:0:
64,192,24676,1,0,0:0:0:0:
320,192,24731,1,0,0:0:0:0:
448,192,24731,1,0,0:0:0:0:
64,192,24785,1,0,0:0:0:0:
192,192,24840,1,0,0:0:0:0:
448,192,24894,1,0,0:0:0:0:
192,192,24949,1,0,0:0:0:0:
320,192,24949,1,0,0:0:0:0:
64,192,25003,1,0,0:0:0:0:
320,192,25058,1,0,0:0:0:0:
448,192,25112,1,0,0:0:0:0:
64,192,25167,1,0,0:0:0:0:
192,192,25167,1,0,0:0:0:0:
320,192,25222,1,0,0:0:0:0:
448,192,25276,1,0,0:0:0:0:
320,192,25331,1,0,0:0:0:0:
64,192,25385,1,0,0:0:0:0:
192,192,25385,1,0,0:0:0:0:
448,192,25440,1,0,0:0:0:0:
320,192,25494,1,0,0:0:0:0:
448,192,25549,1,0,0:0:0:0:
64,192,25603,1,0,0:0:0:0:
192,192,25603,1,0,0:0:0:0:
320,192,25658,1,0,0:0:0:0:
448,192,25712,1,0,0:0:0:0:
64,192,25767,1,0,0:0:0:0:
192,192,25822,1,0,0:0:0:0:
320,192,25822,1,0,0:0:0:0:
64,192,25876,1,0,0:0:0:0:
320,192,25931,1,0,0:0:0:0:
448,192,25931,1,0,0:0:0:0:
192,192,25985,1,0,0:0:0:0:
448,192,26040,1,0,0:0:0:0:
320,192,26094,1,0,0:0:0:0:
448,192,26149,1,0,0:0:0:0:
320,192,26203,1,0,0:0:0:0:
64,192,26258,1,0,0:0:0:0:
448,192,26258,1,0,0:0:0:0:
192,192,26312,1,0,0:0:0:0:
320,192,26367,1,0,0:0:0:0:
448,192,26422,1,0,0:0:0:0:
64,192,26476,1,0,0:0:0:0:
192,192,26476,1,0,0:0:0:0:
448,192,26531,1,0,0:0:0:0:
320,192,26585,1,0,0:0:0:0:
192,192,26640,1,0,0:0:0:0:
64,192,26694,1,0,0:0:0:0:
448,192,26694,1,0,0:0:0:0:
320,192,26749,1,0,0:0:0:0:
192,192,26803,1,0,0:0:0:0:
64,192,26858,1,0,0:0:0:0:
320,192,26912,1,0,0:0:0:0:
448,192,26912,1,0,0:0:0:0:
192,192,26967,1,0,0:0:0:0:
64,192,27022,1,0,0:0:0:0:
192,192,27076,1,0,0:0:0:0:
320,192,27131,1,0,0:0:0:0:
448,192,27131,1,0,0:0:0:0:
64,192,27185,1,0,0:0:0:0:
192,192,27240,1,0,0:0:0:0:
64,192,27294,1,0,0:0:0:0:
320,192,27349,1,0,0:0:0:0:
448,192,27349,1,0,0:0:0:0:
192,192,27403,1,0,0:0:0:0:
64,192,27458,1,0,0:0:0:0:
192,192,27512,1,0,0:0:0:0:
64,192,27567,1,0,0:0:0:0:
448,192,27567,1,0,0:0:0:0:
320,192,27622,1,0,0:0:0:0:
192,192,27676,1,0,0:0:0:0:
448,192,27676,1,0,0:0:0:0:
320,192,27731,1,0,0:0:0:0:
64,192,27785,1,0,0:0:0:0:
192,192,27785,1,0,0:0:0:0:
320,192,27840,1,0,0:0:0:0:
448,192,27894,1,0,0:0:0:0:
320,192,27949,1,0,0:0:0:0:
64,192,28003,1,0,0:0:0:0:
192,192,28003,1,0,0:0:0:0:
448,192,28058,1,0,0:0:0:0:
320,192,28112,1,0,0:0:0:0:
448,192,28167,1,0,0:0:0:0:
64,192,28222,1,0,0:0:0:0:
320,192,28222,1,0,0:0:0:0:
192,192,28276,1,0,0:0:0:0:
448,192,28331,1,0,0:0:0:0:
192,192,28385,1,0,0:0:0:0:
64,192,28440,1,0,0:0:0:0:
320,192,28440,1,0,0:0:0:0:
448,192,28494,1,0,0:0:0:0:
192,192,28549,1,0,0:0:0:0:
448,192,28603,1,0,0:0:0:0:
192,192,28658,1,0,0:0:0:0:
320,192,28658,1,0,0:0:0:0:
64,192,28712,1,0,0:0:0:0:
448,192,28767,1,0,0:0:0:0:
64,192,28822,1,0,0:0:0:0:
192,192,28876,1,0,0:0:0:0:
320,192,28876,1,0,0:0:0:0:
448,192,28931,1,0,0:0:0:0:
192,192,28985,1,0,0:0:0:0:
320,192,29040,1,0,0:0:0:0:
64,192,29094,1,0,0:0:0:0:
448,192,29094,1,0,0:0:0:0:
192,192,29149,1,0,0:0:0:0:
320,192,29203,1,0,0:0:0:0:
192,192,29258,1,0,0:0:0:0:
64,192,29312,1,0,0:0:0:0:
448,192,29312,1,0,0:0:0:0:
320,192,29367,1,0,0:0:0:0:
192,192,29422,1,0,0:0:0:0:
448,192,29422,1,0,0:0:0:0:
320,192,29476,1,0,0:0:0:0:
448,192,29531,1,0,0:0:0:0:
64,192,29585,1,0,0:0:0:0:
192,192,29640,1,0,0:0:0:0:
320,192,29694,1,0,0:0:0:0:
192,192,29749,1,0,0:0:0:0:
448,192,29749,1,0,0:0:0:0:
64,192,29803,1,0,0:0:0:0:
320,192,29858,1,0,0:0:0:0:
64,192,29912,1,0,0:0:0:0:
192,192,29967,1,0,0:0:0:0:
448,192,29967,1,0,0:0:0:0:
320,192,30022,1,0,0:0:0:0:
64,192,30076,1,0,0:0:0:0:
320,192,30131,1,0,0:0:0:0:
192,192,30185,1,0,0:0:0:0:
448,192,30185,1,0,0:0:0:0:
64,192,30240,1,0,0:0:0:0:
320,192,30294,1,0,0:0:0:0:
192,192,30349,1,0,0:0:0:0:
320,192,30403,1,0,0:0:0:0:
448,192,30403,1,0,0:0:0:0:
64,192,30458,1,0,0:0:0:0:
192,192,30512,1,0,0:0:0:0:
64,192,30567,1,0,0:0:0:0:
320,192,30622,1,0,0:0:0:0:
448,192,30622,1,0,0:0:0:0:
192,192,30676,1,0,0:0:0:0:
64,192,30731,1,0,0:0:0:0:
192,192,30785,1,0,0:0:0:0:
320,192,30840,1,0,0:0:0:0:
448,192,30840,1,0,0:0:0:0:
64,192,30894,1,0,0:0:0:0:
192,192,30949,1,0,0:0:0:0:
64,192,31003,1,0,0:0:0:0:
192,192,31058,1,0,0:0:0:0:
448,192,31058,1,0,0:0:0:0:
320,192,31112,1,0,0:0:0:0:
64,192,31167,1,0,0:0:0:0:
448,192,31167,1,0,0:0:0:0:
192,192,31222,1,0,0:0:0:0:
64,192,31276,1,0,0:0:0:0:
320,192,31276,1,0,0:0:0:0:
448,192,31276,1,0,0:0:0:0:
64,192,31385,1,0,0:0:0:0:
192,192,31385,1,0,0:0:0:0:
192,192,31494,1,0,0:0:0:0:
320,192,31494,1,0,0:0:0:0:
64,192,31603,1,0,0:0:0:0:
320,192,31603,1,0,0:0:0:0:
448,192,31603,1,0,0:0:0:0:
64,192,31712,1,0,0:0:0:0:
192,192,31712,1,0,0:0:0:0:
192,192,31822,1,0,0:0:0:0:
320,192,31822,1,0,0:0:0:0:
64,192,31931,1,0,0:0:0:0:
320,192,31931,1,0,0:0:0:0:
448,192,31931,1,0,0:0:0:0:
192,192,32040,1,0,0:0:0:0:
320,192,32040,1,0,0:0:0:0:
64,192,32149,1,0,0:0:0:0:
320,192,32149,1,0,0:0:0:0:
448,192,32149,1,0,0:0:0:0:
64,192,32258,1,0,0:0:0:0:
192,192,32258,1,0,0:0:0:0:
320,192,32258,1,0,0:0:0:0:
64,192,32367,1,0,0:0:0:0:
192,192,32367,1,0,0:0:0:0:
448,192,32367,1,0,0:0:0:0:
64,192,32476,1,0,0:0:0:0:
320,192,32476,1,0,0:0:0:0:
448,192,32476,1,0,0:0:0:0:
192,192,32585,1,0,0:0:0:0:
320,192,32585,1,0,0:0:0:0:
448,192,32585,1,0,0:0:0:0:
64,192,32694,1,0,0:0:0:0:
192,192,32694,1,0,0:0:0:0:
64,192,32912,1,0,0:0:0:0:
192,192,32912,1,0,0:0:0:0:
320,192,32912,1,0,0:0:0:0:
448,192,32912,1,0,0:0:0:0:
64,192,33131,1,0,0:0:0:0:
192,192,33131,1,0,0:0:0:0:
320,192,33185,1,0,0:0:0:0:
64,192,33240,1,0,0:0:0:0:
448,192,33240,1,0,0:0:0:0:
192,192,33294,1,0,0:0:0:0:
64,192,33349,1,0,0:0:0:0:
320,192,33349,1,0,0:0:0:0:
192,192,33403,1,0,0:0:0:0:
64,192,33458,1,0,0:0:0:0:
320,192,33458,1,0,0:0:0:0:
448,192,33512,1,0,0:0:0:0:
64,192,33567,1,0,0:0:0:0:
320,192,33567,1,0,0:0:0:0:
192,192,33622,1,0,0:0:0:0:
320,192,33676,1,0,0:0:0:0:
448,192,33676,1,0,0:0:0:0:
64,192,33731,1,0,0:0:0:0:
192,192,33785,1,0,0:0:0:0:
448,192,33785,1,0,0:0:0:0:
320,192,33840,1,0,0:0:0:0:
192,192,33894,1,0,0:0:0:0:
448,192,33894,1,0,0:0:0:0:
64,192,33949,1,0,0:0:0:0:
192,192,34003,1,0,0:0:0:0:
448,192,34003,1,0,0:0:0:0:
320,192,34058,1,0,0:0:0:0:
64,192,34112,1,0,0:0:0:0:
192,192,34112,1,0,0:0:0:0:
448,192,34167,1,0,0:0:0:0:
192,192,34222,1,0,0:0:0:0:
320,192,34222,1,0,0:0:0:0:
64,192,34276,1,0,0:0:0:0:
192,192,34331,1,0,0:0:0:0:
320,192,34331,1,0,0:0:0:0:
448,192,34385,1,0,0:0:0:0:
192,192,34440,1,0,0:0:0:0:
320,192,34440,1,0,0:0:0:0:
64,192,34494,1,0,0:0:0:0:
320,192,34549,1,0,0:0:0:0:
448,192,34549,1,0,0:0:0:0:
192,192,34603,1,0,0:0:0:0:
64,192,34658,1,0,0:0:0:0:
320,192,34658,1,0,0:0:0:0:
192,192,34712,1,0,0:0:0:0:
448,192,34767,1,0,0:0:0:0:
192,192,34822,1,0,0:0:0:0:
64,192,34876,1,0,0:0:0:0:
320,192,34876,1,0,0:0:0:0:
192,192,34931,1,0,0:0:0:0:
64,192,34985,1,0,0:0:0:0:
448,192,34985,1,0,0:0:0:0:
192,192,35040,1,0,0:0:0:0:
320,192,35094,1,0,0:0:0:0:
448,192,35094,1,0,0:0:0:0:
64,192,35149,1,0,0:0:0:0:
320,192,35203,1,0,0:0:0:0:
448,192,35203,1,0,0:0:0:0:
192,192,35258,1,0,0:0:0:0:
320,192,35312,1,0,0:0:0:0:
448,192,35312,1,0,0:0:0:0:
64,192,35367,1,0,0:0:0:0:
192,192,35422,1,0,0:0:0:0:
320,192,35422,1,0,0:0:0:0:
448,192,35476,1,0,0:0:0:0:
64,192,35531,1,0,0:0:0:0:
192,192,35531,1,0,0:0:0:0:
320,192,35585,1,0,0:0:0:0:
64,192,35640,1,0,0:0:0:0:
192,192,35640,1,0,0:0:0:0:
448,192,35694,1,0,0:0:0:0:
64,192,35749,1,0,0:0:0:0:
192,192,35749,1,0,0:0:0:0:
320,192,35803,1,0,0:0:0:0:
64,192,35858,1,0,0:0:0:0:
448,192,35858,1,0,0:0:0:0:
320,192,35912,1,0,0:0:0:0:
192,192,35967,1,0,0:0:0:0:
448,192,35967,1,0,0:0:0:0:
64,192,36022,1,0,0:0:0:0:
192,192,36076,1,0,0:0:0:0:
448,192,36076,1,0,0:0:0:0:
320,192,36131,1,0,0:0:0:0:
192,192,36185,1,0,0:0:0:0:
448,192,36185,1,0,0:0:0:0:
64,192,36240,1,0,0:0:0:0:
320,192,36294,1,0,0:0:0:0:
448,192,36294,1,0,0:0:0:0:
192,192,36349,1,0,0:0:0:0:
64,192,36403,1,0,0:0:0:0:
448,192,36403,1,0,0:0:0:0:
320,192,36458,1,0,0:0:0:0:
192,192,36512,1,0,0:0:0:0:
448,192,36567,1,0,0:0:0:0:
64,192,36622,1,0,0:0:0:0:
320,192,36622,1,0,0:0:0:0:
192,192,36676,1,0,0:0:0:0:
64,192,36731,1,0,0:0:0:0:
448,192,36731,1,0,0:0:0:0:
320,192,36785,1,0,0:0:0:0:
192,192,36840,1,0,0:0:0:0:
448,192,36840,1,0,0:0:0:0:
64,192,36894,1,0,0:0:0:0:
192,192,36949,1,0,0:0:0:0:
448,192,36949,1,0,0:0:0:0:
320,192,37003,1,0,0:0:0:0:
192,192,37058,1,0,0:0:0:0:
448,192,37058,1,0,0:0:0:0:
64,192,37112,1,0,0:0:0:0:
320,192,37167,1,0,0:0:0:0:
448,192,37167,1,0,0:0:0:0:
192,192,37222,1,0,0:0:0:0:
64,192,37276,1,0,0:0:0:0:
320,192,37276,1,0,0:0:0:0:
192,192,37331,1,0,0:0:0:0:
64,192,37385,1,0,0:0:0:0:
320,192,37385,1,0,0:0:0:0:
448,192,37440,1,0,0:0:0:0:
64,192,37494,1,0,0:0:0:0:
320,192,37494,1,0,0:0:0:0:
192,192,37549,1,0,0:0:0:0:
64,192,37603,1,0,0:0:0:0:
448,192,37603,1,0,0:0:0:0:
320,192,37658,1,0,0:0:0:0:
192,192,37712,1,0,0:0:0:0:
448,192,37712,1,0,0:0:0:0:
64,192,37767,1,0,0:0:0:0:
192,192,37822,1,0,0:0:0:0:
448,192,37822,1,0,0:0:0:0:
320,192,37876,1,0,0:0:0:0:
192,192,37931,1,0,0:0:0:0:
448,192,37931,1,0,0:0:0:0:
64,192,37985,1,0,0:0:0:0:
320,192,38040,1,0,0:0:0:0:
448,192,38040,1,0,0:0:0:0:
192,192,38094,1,0,0:0:0:0:
64,192,38149,1,0,0:0:0:0:
320,192,38149,1,0,0:0:0:0:
448,192,38203,1,0,0:0:0:0:
192,192,38258,1,0,0:0:0:0:
320,192,38312,1,0,0:0:0:0:
64,192,38367,1,0,0:0:0:0:
448,192,38367,1,0,0:0:0:0:
192,192,38422,1,0,0:0:0:0:
64,192,38476,1,0,0:0:0:0:
320,192,38476,1,0,0:0:0:0:
448,192,38531,1,0,0:0:0:0:
64,192,38585,1,0,0:0:0:0:
192,192,38585,1,0,0:0:0:0:
320,192,38640,1,0,0:0:0:0:
64,192,38694,1,0,0:0:0:0:
192,192,38694,1,0,0:0:0:0:
448,192,38749,1,0,0:0:0:0:
64,192,38803,1,0,0:0:0:0:
192,192,38803,1,0,0:0:0:0:
448,192,38858,1,0,0:0:0:0:
192,192,38912,1,0,0:0:0:0:
320,192,38912,1,0,0:0:0:0:
64,192,38967,1,0,0:0:0:0:
192,192,39022,1,0,0:0:0:0:
448,192,39022,1,0,0:0:0:0:
320,192,39076,1,0,0:0:0:0:
192,192,39131,1,0,0:0:0:0:
448,192,39131,1,0,0:0:0:0:
64,192,39185,1,0,0:0:0:0:
192,192,39240,1,0,0:0:0:0:
448,192,39240,1,0,0:0:0:0:
320,192,39294,1,0,0:0:0:0:
64,192,39349,1,0,0:0:0:0:
192,192,39349,1,0,0:0:0:0:
320,192,39403,1,0,0:0:0:0:
448,192,39403,1,0,0:0:0:0:
64,192,39458,1,0,0:0:0:0:
192,192,39458,1,0,0:0:0:0:
320,192,39512,1,0,0:0:0:0:
448,192,39512,1,0,0:0:0:0:
64,192,39567,1,0,0:0:0:0:
192,192,39567,1,0,0:0:0:0:
448,192,39622,1,0,0:0:0:0:
192,192,39676,1,0,0:0:0:0:
320,192,39676,1,0,0:0:0:0:
64,192,39731,1,0,0:0:0:0:
320,192,39785,1,0,0:0:0:0:
448,192,39785,1,0,0:0:0:0:
192,192,39840,1,0,0:0:0:0:
64,192,39894,1,0,0:0:0:0:
320,192,39894,1,0,0:0:0:0:
448,192,39894,1,0,0:0:0:0:
320,192,40112,1,0,0:0:0:0:
448,192,40112,1,0,0:0:0:0:
64,192,40167,1,0,0:0:0:0:
192,192,40222,1,0,0:0:0:0:
320,192,40222,1,0,0:0:0:0:
448,192,40276,1,0,0:0:0:0:
64,192,40331,1,0,0:0:0:0:
320,192,40331,1,0,0:0:0:0:
192,192,40385,1,0,0:0:0:0:
64,192,40440,1,0,0:0:0:0:
320,192,40440,1,0,0:0:0:0:
448,192,40494,1,0,0:0:0:0:
64,192,40549,1,0,0:0:0:0:
320,192,40549,1,0,0:0:0:0:
192,192,40603,1,0,0:0:0:0:
320,192,40658,1,0,0:0:0:0:
448,192,40658,1,0,0:0:0:0:
192,192,40712,1,0,0:0:0:0:
64,192,40767,1,0,0:0:0:0:
448,192,40767,1,0,0:0:0:0:
320,192,40822,1,0,0:0:0:0:
64,192,40876,1,0,0:0:0:0:
448,192,40876,1,0,0:0:0:0:
192,192,40931,1,0,0:0:0:0:
64,192,40985,1,0,0:0:0:0:
448,192,40985,1,0,0:0:0:0:
320,192,41040,1,0,0:0:0:0:
192,192,41094,1,0,0:0:0:0:
448,192,41094,1,0,0:0:0:0:
320,192,41149,1,0,0:0:0:0:
64,192,41203,1,0,0:0:0:0:
192,192,41203,1,0,0:0:0:0:
448,192,41258,1,0,0:0:0:0:
64,192,41312,1,0,0:0:0:0:
192,192,41312,1,0,0:0:0:0:
448,192,41367,1,0,0:0:0:0:
64,192,41422,1,0,0:0:0:0:
192,192,41422,1,0,0:0:0:0:
320,192,41476,1,0,0:0:0:0:
64,192,41531,1,0,0:0:0:0:
448,192,41531,1,0,0:0:0:0:
192,192,41585,1,0,0:0:0:0:
320,192,41640,1,0,0:0:0:0:
448,192,41640,1,0,0:0:0:0:
64,192,41694,1,0,0:0:0:0:
192,192,41749,1,0,0:0:0:0:
320,192,41803,1,0,0:0:0:0:
64,192,41858,1,0,0:0:0:0:
448,192,41858,1,0,0:0:0:0:
192,192,41912,1,0,0:0:0:0:
64,192,41967,1,0,0:0:0:0:
320,192,41967,1,0,0:0:0:0:
192,192,42022,1,0,0:0:0:0:
320,192,42076,1,0,0:0:0:0:
448,192,42076,1,0,0:0:0:0:
64,192,42131,1,0,0:0:0:0:
320,192,42185,1,0,0:0:0:0:
448,192,42185,1,0,0:0:0:0:
192,192,42240,1,0,0:0:0:0:
320,192,42294,1,0,0:0:0:0:
448,192,42294,1,0,0:0:0:0:
64,192,42349,1,0,0:0:0:0:
192,192,42403,1,0,0:0:0:0:
448,192,42403,1,0,0:0:0:0:
320,192,42458,1,0,0:0:0:0:
64,192,42512,1,0,0:0:0:0:
192,192,42512,1,0,0:0:0:0:
448,192,42567,1,0,0:0:0:0:
64,192,42622,1,0,0:0:0:0:
192,192,42622,1,0,0:0:0:0:
320,192,42676,1,0,0:0:0:0:
64,192,42731,1,0,0:0:0:0:
192,192,42731,1,0,0:0:0:0:
448,192,42785,1,0,0:0:0:0:
192,192,42840,1,0,0:0:0:0:
320,192,42840,1,0,0:0:0:0:
448,192,42894,1,0,0:0:0:0:
64,192,42949,1,0,0:0:0:0:
320,192,42949,1,0,0:0:0:0:
192,192,43003,1,0,0:0:0:0:
64,192,43058,1,0,0:0:0:0:
320,192,43058,1,0,0:0:0:0:
448,192,43112,1,0,0:0:0:0:
64,192,43167,1,0,0:0:0:0:
320,192,43167,1,0,0:0:0:0:
192,192,43222,1,0,0:0:0:0:
320,192,43276,1,0,0:0:0:0:
448,192,43276,1,0,0:0:0:0:
192,192,43331,1,0,0:0:0:0:
64,192,43385,1,0,0:0:0:0:
448,192,43385,1,0,0:0:0:0:
192,192,43440,1,0,0:0:0:0:
320,192,43494,1,0,0:0:0:0:
448,192,43549,1,0,0:0:0:0:
64,192,43603,1,0,0:0:0:0:
192,192,43603,1,0,0:0:0:0:
320,192,43658,1,0,0:0:0:0:
192,192,43712,1,0,0:0:0:0:
448,192,43712,1,0,0:0:0:0:
64,192,43767,1,0,0:0:0:0:
320,192,43822,1,0,0:0:0:0:
448,192,43822,1,0,0:0:0:0:
192,192,43876,1,0,0:0:0:0:
320,192,43931,1,0,0:0:0:0:
448,192,43931,1,0,0:0:0:0:
64,192,43985,1,0,0:0:0:0:
320,192,44040,1,0,0:0:0:0:
448,192,44040,1,0,0:0:0:0:
192,192,44094,1,0,0:0:0:0:
64,192,44149,1,0,0:0:0:0:
320,192,44149,1,0,0:0:0:0:
448,192,44203,1,0,0:0:0:0:
64,192,44258,1,0,0:0:0:0:
192,192,44258,1,0,0:0:0:0:
320,192,44312,1,0,0:0:0:0:
64,192,44367,1,0,0:0:0:0:
192,192,44367,1,0,0:0:0:0:
448,192,44422,1,0,0:0:0:0:
64,192,44476,1,0,0:0:0:0:
192,192,44476,1,0,0:0:0:0:
320,192,44531,1,0,0:0:0:0:
192,192,44585,1,0,0:0:0:0:
448,192,44585,1,0,0:0:0:0:
320,192,44640,1,0,0:0:0:0:
64,192,44694,1,0,0:0:0:0:
448,192,44694,1,0,0:0:0:0:
192,192,44749,1,0,0:0:0:0:
64,192,44803,1,0,0:0:0:0:
448,192,44803,1,0,0:0:0:0:
320,192,44858,1,0,0:0:0:0:
64,192,44912,1,0,0:0:0:0:
448,192,44912,1,0,0:0:0:0:
192,192,44967,1,0,0:0:0:0:
320,192,45022,1,0,0:0:0:0:
448,192,45022,1,0,0:0:0:0:
192,192,45076,1,0,0:0:0:0:
64,192,45131,1,0,0:0:0:0:
320,192,45131,1,0,0:0:0:0:
448,192,45185,1,0,0:0:0:0:
192,192,45240,1,0,0:0:0:0:
320,192,45294,1,0,0:0:0:0:
64,192,45349,1,0,0:0:0:0:
448,192,45349,1,0,0:0:0:0:
192,192,45403,1,0,0:0:0:0:
320,192,45458,1,0,0:0:0:0:
448,192,45458,1,0,0:0:0:0:
64,192,45512,1,0,0:0:0:0:
192,192,45567,1,0,0:0:0:0:
448,192,45567,1,0,0:0:0:0:
320,192,45622,1,0,0:0:0:0:
192,192,45676,1,0,0:0:0:0:
448,192,45676,1,0,0:0:0:0:
64,192,45731,1,0,0:0:0:0:
192,192,45785,1,0,0:0:0:0:
448,192,45785,1,0,0:0:0:0:
320,192,45840,1,0,0:0:0:0:
64,192,45894,1,0,0:0:0:0:
192,192,45894,1,0,0:0:0:0:
448,192,45949,1,0,0:0:0:0:
192,192,46003,1,0,0:0:0:0:
320,192,46003,1,0,0:0:0:0:
64,192,46058,1,0,0:0:0:0:
192,192,46112,1,0,0:0:0:0:
320,192,46112,1,0,0:0:0:0:
448,192,46167,1,0,0:0:0:0:
192,192,46222,1,0,0:0:0:0:
320,192,46222,1,0,0:0:0:0:
64,192,46276,1,0,0:0:0:0:
320,192,46331,1,0,0:0:0:0:
448,192,46331,1,0,0:0:0:0:
192,192,46385,1,0,0:0:0:0:
64,192,46440,1,0,0:0:0:0:
448,192,46440,1,0,0:0:0:0:
192,192,46494,1,0,0:0:0:0:
320,192,46549,1,0,0:0:0:0:
448,192,46549,1,0,0:0:0:0:
64,192,46658,1,0,0:0:0:0:
448,192,46658,1,0,0:0:0:0:
64,192,46767,1,0,0:0:0:0:
320,192,46767,1,0,0:0:0:0:
448,192,46876,1,0,0:0:0:0:
320,192,46912,1,0,0:0:0:0:
192,192,46949,1,0,0:0:0:0:
64,192,46985,1,0,0:0:0:0:
320,192,47022,1,0,0:0:0:0:
192,192,47058,1,0,0:0:0:0:
64,192,47094,1,0,0:0:0:0:
448,192,47131,1,0,0:0:0:0:
192,192,47167,1,0,0:0:0:0:
320,192,47203,1,0,0:0:0:0:
448,192,47240,1,0,0:0:0:0:
64,192,47276,1,0,0:0:0:0:
320,192,47312,1,0,0:0:0:0:
192,192,47349,1,0,0:0:0:0:
448,192,47385,1,0,0:0:0:0:
64,192,47422,1,0,0:0:0:0:
192,192,47458,1,0,0:0:0:0:
320,192,47494,1,0,0:0:0:0:
448,192,47531,1,0,0:0:0:0:
64,192,47567,1,0,0:0:0:0:
320,192,47603,1,0,0:0:0:0:
192,192,47640,1,0,0:0:0:0:
320,192,47749,1,0,0:0:0:0:
448,192,47749,1,0,0:0:0:0:
192,192,47785,1,0,0:0:0:0:
64,192,47822,1,0,0:0:0:0:
320,192,47858,1,0,0:0:0:0:
192,192,47894,1,0,0:0:0:0:
448,192,47931,1,0,0:0:0:0:
64,192,47967,1,0,0:0:0:0:
192,192,48003,1,0,0:0:0:0:
320,192,48040,1,0,0:0:0:0:
448,192,48076,1,0,0:0:0:0:
192,192,48112,1,0,0:0:0:0:
64,192,48149,1,0,0:0:0:0:
320,192,48185,1,0,0:0:0:0:
448,192,48222,1,0,0:0:0:0:
64,192,48258,1,0,0:0:0:0:
192,192,48294,1,0,0:0:0:0:
320,192,48331,1,0,0:0:0:0:
64,192,48367,1,0,0:0:0:0:
448,192,48403,1,0,0:0:0:0:
192,192,48440,1,0,0:0:0:0:
320,192,48476,1,0,0:0:0:0:
448,192,48512,1,0,0:0:0:0:
64,192,48622,1,0,0:0:0:0:
192,192,48622,1,0,0:0:0:0:
320,192,48658,1,0,0:0:0:0:
448,192,48694,1,0,0:0:0:0:
192,192,48731,1,0,0:0:0:0:
320,192,48767,1,0,0:0:0:0:
64,192,48803,1,0,0:0:0:0:
192,192,48840,1,0,0:0:0:0:
448,192,48876,1,0,0:0:0:0:
320,192,48912,1,0,0:0:0:0:
192,192,48949,1,0,0:0:0:0:
448,192,48985,1,0,0:0:0:0:
320,192,49022,1,0,0:0:0:0:
192,192,49058,1,0,0:0:0:0:
64,192,49094,1,0,0:0:0:0:
320,192,49131,1,0,0:0:0:0:
192,192,49167,1,0,0:0:0:0:
64,192,49203,1,0,0:0:0:0:
448,192,49240,1,0,0:0:0:0:
192,192,49276,1,0,0:0:0:0:
320,192,49312,1,0,0:0:0:0:
448,192,49349,1,0,0:0:0:0:
64,192,49385,1,0,0:0:0:0:
320,192,49494,1,0,0:0:0:0:
448,192,49494,1,0,0:0:0:0:
64,192,49531,1,0,0:0:0:0:
192,192,49567,1,0,0:0:0:0:
320,192,49603,1,0,0:0:0:0:
64,192,49640,1,0,0:0:0:0:
448,192,49676,1,0,0:0:0:0:
320,192,49712,1,0,0:0:0:0:
192,192,49749,1,0,0:0:0:0:
448,192,49785,1,0,0:0:0:0:
64,192,49822,1,0,0:0:0:0:
192,192,49858,1,0,0:0:0:0:
320,192,49894,1,0,0:0:0:0:
448,192,49931,1,0,0:0:0:0:
192,192,49967,1,0,0:0:0:0:
320,192,50003,1,0,0:0:0:0:
64,192,50040,1,0,0:0:0:0:
448,192,50076,1,0,0:0:0:0:
320,192,50112,1,0,0:0:0:0:
192,192,50149,1,0,0:0:0:0:
448,192,50185,1,0,0:0:0:0:
320,192,50222,1,0,0:0:0:0:
64,192,50258,1,0,0:0:0:0:
320,192,50367,1,0,0:0:0:0:
448,192,50367,1,0,0:0:0:0:
64,192,50403,1,0,0:0:0:0:
192,192,50440,1,0,0:0:0:0:
448,192,50476,1,0,0:0:0:0:
320,192,50512,1,0,0:0:0:0:
192,192,50549,1,0,0:0:0:0:
448,192,50585,1,0,0:0:0:0:
64,192,50622,1,0,0:0:0:0:
192,192,50658,1,0,0:0:0:0:
320,192,50694,1,0,0:0:0:0:
64,192,50731,1,0,0:0:0:0:
448,192,50767,1,0,0:0:0:0:
320,192,50803,1,0,0:0:0:0:
192,192,50840,1,0,0:0:0:0:
64,192,50876,1,0,0:0:0:0:
320,192,50912,1,0,0:0:0:0:
192,192,50949,1,0,0:0:0:0:
448,192,50985,1,0,0:0:0:0:
64,192,51022,1,0,0:0:0:0:
192,192,51058,1,0,0:0:0:0:
320,192,51094,1,0,0:0:0:0:
448,192,51131,1,0,0:0:0:0:
64,192,51240,1,0,0:0:0:0:
320,192,51240,1,0,0:0:0:0:
192,192,51276,1,0,0:0:0:0:
448,192,51312,1,0,0:0:0:0:
64,192,51349,1,0,0:0:0:0:
320,192,51385,1,0,0:0:0:0:
448,192,51422,1,0,0:0:0:0:
192,192,51458,1,0,0:0:0:0:
320,192,51494,1,0,0:0:0:0:
64,192,51531,1,0,0:0:0:0:
192,192,51567,1,0,0:0:0:0:
448,192,51603,1,0,0:0:0:0:
320,192,51640,1,0,0:0:0:0:
64,192,51676,1,0,0:0:0:0:
448,192,51712,1,0,0:0:0:0:
192,192,51749,1,0,0:0:0:0:
320,192,51785,1,0,0:0:0:0:
64,192,51822,1,0,0:0:0:0:
192,192,51858,1,0,0:0:0:0:
320,192,51894,1,0,0:0:0:0:
448,192,51931,1,0,0:0:0:0:
192,192,51967,1,0,0:0:0:0:
64,192,52003,1,0,0:0:0:0:
192,192,52112,1,0,0:0:0:0:
448,192,52112,1,0,0:0:0:0:
64,192,52149,1,0,0:0:0:0:
320,192,52185,1,0,0:0:0:0:
192,192,52222,1,0,0:0:0:0:
448,192,52258,1,0,0:0:0:0:
320,192,52294,1,0,0:0:0:0:
64,192,52331,1,0,0:0:0:0:
192,192,52367,1,0,0:0:0:0:
448,192,52403,1,0,0:0:0:0:
64,192,52440,1,0,0:0:0:0:
320,192,52476,1,0,0:0:0:0:
448,192,52512,1,0,0:0:0:0:
192,192,52549,1,0,0:0:0:0:
320,192,52585,1,0,0:0:0:0:
448,192,52622,1,0,0:0:0:0:
64,192,52658,1,0,0:0:0:0:
192,192,52694,1,0,0:0:0:0:
320,192,52731,1,0,0:0:0:0:
448,192,52767,1,0,0:0:0:0:
64,192,52803,1,0,0:0:0:0:
320,192,52840,1,0,0:0:0:0:
192,192,52876,1,0,0:0:0:0:
448,192,52985,1,0,0:0:0:0:
320,192,53022,1,0,0:0:0:0:
192,192,53058,1,0,0:0:0:0:
448,192,53094,1,0,0:0:0:0:
64,192,53203,1,0,0:0:0:0:
192,192,53203,1,0,0:0:0:0:
320,192,53203,1,0,0:0:0:0:
64,192,53312,1,0,0:0:0:0:
192,192,53312,1,0,0:0:0:0:
448,192,53312,1,0,0:0:0:0:
64,192,53422,1,0,0:0:0:0:
320,192,53422,1,0,0:0:0:0:
448,192,53422,1,0,0:0:0:0:
192,192,53531,1,0,0:0:0:0:
320,192,53531,1,0,0:0:0:0:
448,192,53531,1,0,0:0:0:0:
64,192,53640,1,0,0:0:0:0:
320,192,53640,1,0,0:0:0:0:
448,192,53640,1,0,0:0:0:0:
64,192,53749,1,0,0:0:0:0:
192,192,53749,1,0,0:0:0:0:
448,192,53749,1,0,0:0:0:0:
192,192,53858,1,0,0:0:0:0:
320,192,53858,1,0,0:0:0:0:
448,192,53858,1,0,0:0:0:0:
64,192,53894,1,0,0:0:0:0:
320,192,53931,1,0,0:0:0:0:
192,192,53967,1,0,0:0:0:0:
448,192,54003,1,0,0:0:0:0:
320,192,54040,1,0,0:0:0:0:
64,192,54076,1,0,0:0:0:0:
192,192,54112,1,0,0:0:0:0:
320,192,54149,1,0,0:0:0:0:
448,192,54185,1,0,0:0:0:0:
192,192,54222,1,0,0:0:0:0:
64,192,54258,1,0,0:0:0:0:
320,192,54294,1,0,0:0:0:0:
192,192,54331,1,0,0:0:0:0:
448,192,54367,1,0,0:0:0:0:
320,192,54403,1,0,0:0:0:0:
64,192,54440,1,0,0:0:0:0:
448,192,54476,1,0,0:0:0:0:
192,192,54512,1,0,0:0:0:0:
320,192,54549,1,0,0:0:0:0:
448,192,54585,1,0,0:0:0:0:
64,192,54622,1,0,0:0:0:0:
192,192,54731,1,0,0:0:0:0:
320,192,54731,1,0,0:0:0:0:
448,192,54767,1,0,0:0:0:0:
64,192,54803,1,0,0:0:0:0:
320,192,54840,1,0,0:0:0:0:
192,192,54876,1,0,0:0:0:0:
448,192,54912,1,0,0:0:0:0:
320,192,54949,1,0,0:0:0:0:
192,192,54985,1,0,0:0:0:0:
64,192,55022,1,0,0:0:0:0:
448,192,55058,1,0,0:0:0:0:
192,192,55094,1,0,0:0:0:0:
320,192,55131,1,0,0:0:0:0:
448,192,55167,1,0,0:0:0:0:
64,192,55203,1,0,0:0:0:0:
192,192,55240,1,0,0:0:0:0:
320,192,55276,1,0,0:0:0:0:
64,192,55312,1,0,0:0:0:0:
448,192,55349,1,0,0:0:0:0:
320,192,55385,1,0,0:0:0:0:
192,192,55422,1,0,0:0:0:0:
448,192,55458,1,0,0:0:0:0:
64,192,55494,1,0,0:0:0:0:
192,192,55603,1,0,0:0:0:0:
448,192,55603,1,0,0:0:0:0:
64,192,55640,1,0,0:0:0:0:
320,192,55676,1,0,0:0:0:0:
448,192,55712,1,0,0:0:0:0:
64,192,55749,1,0,0:0:0:0:
192,192,55785,1,0,0:0:0:0:
320,192,55822,1,0,0:0:0:0:
64,192,55858,1,0,0:0:0:0:
448,192,55894,1,0,0:0:0:0:
320,192,55931,1,0,0:0:0:0:
192,192,55967,1,0,0:0:0:0:
448,192,56003,1,0,0:0:0:0:
64,192,56040,1,0,0:0:0:0:
192,192,56076,1,0,0:0:0:0:
320,192,56112,1,0,0:0:0:0:
448,192,56149,1,0,0:0:0:0:
192,192,56185,1,0,0:0:0:0:
320,192,56222,1,0,0:0:0:0:
64,192,56258,1,0,0:0:0:0:
448,192,56294,1,0,0:0:0:0:
320,192,56331,1,0,0:0:0:0:
192,192,56367,1,0,0:0:0:0:
320,192,56476,1,0,0:0:0:0:
448,192,56476,1,0,0:0:0:0:
64,192,56512,1,0,0:0:0:0:
192,192,56549,1,0,0:0:0:0:
448,192,56585,1,0,0:0:0:0:
64,192,56622,1,0,0:0:0:0:
320,192,56658,1,0,0:0:0:0:
192,192,56694,1,0,0:0:0:0:
448,192,56731,1,0,0:0:0:0:
320,192,56767,1,0,0:0:0:0:
192,192,56803,1,0,0:0:0:0:
64,192,56840,1,0,0:0:0:0:
320,192,56876,1,0,0:0:0:0:
448,192,56912,1,0,0:0:0:0:
64,192,57022,1,0,0:0:0:0:
192,192,57022,1,0,0:0:0:0:
320,192,57022,1,0,0:0:0:0:
64,192,57131,1,0,0:0:0:0:
192,192,57131,1,0,0:0:0:0:
448,192,57131,1,0,0:0:0:0:
192,192,57240,1,0,0:0:0:0:
320,192,57240,1,0,0:0:0:0:
448,192,57240,1,0,0:0:0:0:
64,192,57349,1,0,0:0:0:0:
192,192,57349,1,0,0:0:0:0:
320,192,57349,1,0,0:0:0:0:
448,192,57349,1,0,0:0:0:0:
64,192,57567,1,0,0:0:0:0:
192,192,57622,1,0,0:0:0:0:
320,192,57676,1,0,0:0:0:0:
448,192,57731,1,0,0:0:0:0:
192,192,57785,1,0,0:0:0:0:
64,192,57840,1,0,0:0:0:0:
320,192,57894,1,0,0:0:0:0:
448,192,57894,1,0,0:0:0:0:
192,192,57931,1,0,0:0:0:0:
64,192,57967,1,0,0:0:0:0:
320,192,58003,1,0,0:0:0:0:
192,192,58040,1,0,0:0:0:0:
448,192,58076,1,0,0:0:0:0:
320,192,58112,1,0,0:0:0:0:
64,192,58149,1,0,0:0:0:0:
192,192,58185,1,0,0:0:0:0:
448,192,58222,1,0,0:0:0:0:
64,192,58276,1,0,0:0:0:0:
320,192,58331,1,0,0:0:0:0:
448,192,58331,1,0,0:0:0:0:
192,192,58367,1,0,0:0:0:0:
64,192,58403,1,0,0:0:0:0:
320,192,58440,1,0,0:0:0:0:
192,192,58476,1,0,0:0:0:0:
448,192,58512,1,0,0:0:0:0:
320,192,58549,1,0,0:0:0:0:
64,192,58585,1,0,0:0:0:0:
192,192,58622,1,0,0:0:0:0:
448,192,58658,1,0,0:0:0:0:
320,192,58712,1,0,0:0:0:0:
64,192,58767,1,0,0:0:0:0:
192,192,58767,1,0,0:0:0:0:
320,192,58803,1,0,0:0:0:0:
448,192,58840,1,0,0:0:0:0:
192,192,58876,1,0,0:0:0:0:
320,192,58912,1,0,0:0:0:0:
64,192,58949,1,0,0:0:0:0:
192,192,58985,1,0,0:0:0:0:
448,192,59022,1,0,0:0:0:0:
320,192,59058,1,0,0:0:0:0:
64,192,59094,1,0,0:0:0:0:
192,192,59149,1,0,0:0:0:0:
64,192,59203,1,0,0:0:0:0:
448,192,59203,1,0,0:0:0:0:
192,192,59240,1,0,0:0:0:0:
320,192,59276,1,0,0:0:0:0:
448,192,59312,1,0,0:0:0:0:
64,192,59349,1,0,0:0:0:0:
320,192,59385,1,0,0:0:0:0:
192,192,59422,1,0,0:0:0:0:
448,192,59458,1,0,0:0:0:0:
320,192,59494,1,0,0:0:0:0:
64,192,59531,1,0,0:0:0:0:
448,192,59585,1,0,0:0:0:0:
192,192,59640,1,0,0:0:0:0:
320,192,59640,1,0,0:0:0:0:
64,192,59676,1,0,0:0:0:0:
448,192,59712,1,0,0:0:0:0:
192,192,59749,1,0,0:0:0:0:
320,192,59785,1,0,0:0:0:0:
64,192,59822,1,0,0:0:0:0:
448,192,59858,1,0,0:0:0:0:
320,192,59894,1,0,0:0:0:0:
64,192,59931,1,0,0:0:0:0:
192,192,59967,1,0,0:0:0:0:
448,192,60022,1,0,0:0:0:0:
192,192,60076,1,0,0:0:0:0:
320,192,60076,1,0,0:0:0:0:
64,192,60112,1,0,0:0:0:0:
448,192,60149,1,0,0:0:0:0:
192,192,60185,1,0,0:0:0:0:
320,192,60222,1,0,0:0:0:0:
64,192,60258,1,0,0:0:0:0:
448,192,60294,1,0,0:0:0:0:
320,192,60331,1,0,0:0:0:0:
192,192,60367,1,0,0:0:0:0:
64,192,60403,1,0,0:0:0:0:
320,192,60458,1,0,0:0:0:0:
64,192,60512,1,0,0:0:0:0:
192,192,60512,1,0,0:0:0:0:
448,192,60549,1,0,0:0:0:0:
320,192,60585,1,0,0:0:0:0:
192,192,60622,1,0,0:0:0:0:
448,192,60658,1,0,0:0:0:0:
64,192,60694,1,0,0:0:0:0:
192,192,60731,1,0,0:0:0:0:
320,192,60767,1,0,0:0:0:0:
448,192,60803,1,0,0:0:0:0:
64,192,60840,1,0,0:0:0:0:
320,192,60894,1,0,0:0:0:0:
192,192,60949,1,0,0:0:0:0:
448,192,60949,1,0,0:0:0:0:
64,192,60985,1,0,0:0:0:0:
320,192,61022,1,0,0:0:0:0:
448,192,61058,1,0,0:0:0:0:
64,192,61094,1,0,0:0:0:0:
192,192,61131,1,0,0:0:0:0:
320,192,61167,1,0,0:0:0:0:
448,192,61203,1,0,0:0:0:0:
64,192,61240,1,0,0:0:0:0:
320,192,61276,1,0,0:0:0:0:
192,192,61331,1,0,0:0:0:0:
64,192,61385,1,0,0:0:0:0:
448,192,61385,1,0,0:0:0:0:
320,192,61422,1,0,0:0:0:0:
192,192,61458,1,0,0:0:0:0:
64,192,61494,1,0,0:0:0:0:
320,192,61531,1,0,0:0:0:0:
448,192,61567,1,0,0:0:0:0:
192,192,61603,1,0,0:0:0:0:
64,192,61640,1,0,0:0:0:0:
448,192,61676,1,0,0:0:0:0:
320,192,61712,1,0,0:0:0:0:
64,192,61767,1,0,0:0:0:0:
192,192,61822,1,0,0:0:0:0:
320,192,61822,1,0,0:0:0:0:
448,192,61858,1,0,0:0:0:0:
64,192,61894,1,0,0:0:0:0:
192,192,61931,1,0,0:0:0:0:
448,192,61967,1,0,0:0:0:0:
64,192,62003,1,0,0:0:0:0:
192,192,62040,1,0,0:0:0:0:
320,192,62076,1,0,0:0:0:0:
448,192,62112,1,0,0:0:0:0:
64,192,62149,1,0,0:0:0:0:
448,192,62203,1,0,0:0:0:0:
64,192,62258,1,0,0:0:0:0:
320,192,62258,1,0,0:0:0:0:
192,192,62294,1,0,0:0:0:0:
448,192,62331,1,0,0:0:0:0:
320,192,62367,1,0,0:0:0:0:
64,192,62403,1,0,0:0:0:0:
192,192,62440,1,0,0:0:0:0:
448,192,62476,1,0,0:0:0:0:
320,192,62512,1,0,0:0:0:0:
192,192,62549,1,0,0:0:0:0:
448,192,62585,1,0,0:0:0:0:
320,192,62622,1,0,0:0:0:0:
64,192,62658,1,0,0:0:0:0:
192,192,62694,1,0,0:0:0:0:
320,192,62694,1,0,0:0:0:0:
448,192,62694,1,0,0:0:0:0:
64,192,62767,1,0,0:0:0:0:
320,192,62840,1,0,0:0:0:0:
64,192,62912,1,0,0:0:0:0:
320,192,62985,1,0,0:0:0:0:
192,192,63058,1,0,0:0:0:0:
64,192,63131,1,0,0:0:0:0:
320,192,63131,1,0,0:0:0:0:
448,192,63131,1,0,0:0:0:0:
192,192,63203,1,0,0:0:0:0:
320,192,63276,1,0,0:0:0:0:
192,192,63349,1,0,0:0:0:0:
448,192,63422,1,0,0:0:0:0:
320,192,63494,1,0,0:0:0:0:
64,192,63567,1,0,0:0:0:0:
192,192,63567,1,0,0:0:0:0:
448,192,63567,1,0,0:0:0:0:
320,192,63640,1,0,0:0:0:0:
448,192,63712,1,0,0:0:0:0:
64,192,63785,1,0,0:0:0:0:
192,192,63858,1,0,0:0:0:0:
448,192,63931,1,0,0:0:0:0:
64,192,64003,1,0,0:0:0:0:
192,192,64003,1,0,0:0:0:0:
320,192,64003,1,0,0:0:0:0:
448,192,64076,1,0,0:0:0:0:
192,192,64149,1,0,0:0:0:0:
64,192,64222,1,0,0:0:0:0:
448,192,64222,1,0,0:0:0:0:
64,192,64331,1,0,0:0:0:0:
192,192,64331,1,0,0:0:0:0:
320,192,64331,1,0,0:0:0:0:
64,192,64549,1,0,0:0:0:0:
448,192,64603,1,0,0:0:0:0:
192,192,64658,1,0,0:0:0:0:
320,192,64658,1,0,0:0:0:0:
448,192,64712,1,0,0:0:0:0:
64,192,64767,1,0,0:0:0:0:
192,192,64822,1,0,0:0:0:0:
64,192,64876,1,0,0:0:0:0:
320,192,64931,1,0,0:0:0:0:
64,192,64985,1,0,0:0:0:0:
448,192,65040,1,0,0:0:0:0:
192,192,65094,1,0,0:0:0:0:
320,192,65094,1,0,0:0:0:0:
64,192,65149,1,0,0:0:0:0:
448,192,65203,1,0,0:0:0:0:
320,192,65258,1,0,0:0:0:0:
448,192,65312,1,0,0:0:0:0:
192,192,65367,1,0,0:0:0:0:
448,192,65422,1,0,0:0:0:0:
64,192,65476,1,0,0:0:0:0:
192,192,65531,1,0,0:0:0:0:
320,192,65531,1,0,0:0:0:0:
448,192,65585,1,0,0:0:0:0:
64,192,65640,1,0,0:0:0:0:
192,192,65694,1,0,0:0:0:0:
64,192,65749,1,0,0:0:0:0:
320,192,65803,1,0,0:0:0:0:
64,192,65858,1,0,0:0:0:0:
448,192,65912,1,0,0:0:0:0:
192,192,65967,1,0,0:0:0:0:
320,192,65967,1,0,0:0:0:0:
64,192,66076,1,0,0:0:0:0:
320,192,66076,1,0,0:0:0:0:
448,192,66076,1,0,0:0:0:0:
320,192,66294,1,0,0:0:0:0:
192,192,66349,1,0,0:0:0:0:
64,192,66403,1,0,0:0:0:0:
448,192,66403,1,0,0:0:0:0:
320,192,66458,1,0,0:0:0:0:
192,192,66512,1,0,0:0:0:0:
64,192,66567,1,0,0:0:0:0:
192,192,66622,1,0,0:0:0:0:
448,192,66676,1,0,0:0:0:0:
192,192,66731,1,0,0:0:0:0:
320,192,66785,1,0,0:0:0:0:
64,192,66840,1,0,0:0:0:0:
448,192,66840,1,0,0:0:0:0:
192,192,66894,1,0,0:0:0:0:
320,192,66949,1,0,0:0:0:0:
64,192,67003,1,0,0:0:0:0:
320,192,67058,1,0,0:0:0:0:
448,192,67112,1,0,0:0:0:0:
320,192,67167,1,0,0:0:0:0:
192,192,67222,1,0,0:0:0:0:
64,192,67276,1,0,0:0:0:0:
448,192,67276,1,0,0:0:0:0:
320,192,67331,1,0,0:0:0:0:
192,192,67385,1,0,0:0:0:0:
64,192,67440,1,0,0:0:0:0:
192,192,67494,1,0,0:0:0:0:
448,192,67549,1,0,0:0:0:0:
192,192,67603,1,0,0:0:0:0:
320,192,67658,1,0,0:0:0:0:
64,192,67712,1,0,0:0:0:0:
448,192,67712,1,0,0:0:0:0:
64,192,67822,1,0,0:0:0:0:
192,192,67822,1,0,0:0:0:0:
320,192,67822,1,0,0:0:0:0:
448,192,68040,1,0,0:0:0:0:
192,192,68094,1,0,0:0:0:0:
64,192,68149,1,0,0:0:0:0:
320,192,68149,1,0,0:0:0:0:
448,192,68203,1,0,0:0:0:0:
192,192,68258,1,0,0:0:0:0:
320,192,68312,1,0,0:0:0:0:
192,192,68367,1,0,0:0:0:0:
64,192,68422,1,0,0:0:0:0:
192,192,68476,1,0,0:0:0:0:
448,192,68531,1,0,0:0:0:0:
64,192,68585,1,0,0:0:0:0:
320,192,68585,1,0,0:0:0:0:
192,192,68640,1,0,0:0:0:0:
448,192,68694,1,0,0:0:0:0:
320,192,68749,1,0,0:0:0:0:
448,192,68803,1,0,0:0:0:0:
64,192,68858,1,0,0:0:0:0:
448,192,68912,1,0,0:0:0:0:
192,192,68967,1,0,0:0:0:0:
64,192,69022,1,0,0:0:0:0:
320,192,69022,1,0,0:0:0:0:
448,192,69076,1,0,0:0:0:0:
192,192,69131,1,0,0:0:0:0:
320,192,69185,1,0,0:0:0:0:
192,192,69240,1,0,0:0:0:0:
64,192,69294,1,0,0:0:0:0:
192,192,69349,1,0,0:0:0:0:
448,192,69403,1,0,0:0:0:0:
64,192,69458,1,0,0:0:0:0:
320,192,69458,1,0,0:0:0:0:
64,192,69567,1,0,0:0:0:0:
192,192,69567,1,0,0:0:0:0:
448,192,69567,1,0,0:0:0:0:
320,192,69785,1,0,0:0:0:0:
64,192,69840,1,0,0:0:0:0:
192,192,69894,1,0,0:0:0:0:
448,192,69894,1,0,0:0:0:0:
320,192,69949,1,0,0:0:0:0:
64,192,70003,1,0,0:0:0:0:
192,192,70058,1,0,0:0:0:0:
64,192,70112,1,0,0:0:0:0:
448,192,70167,1,0,0:0:0:0:
64,192,70222,1,0,0:0:0:0:
320,192,70276,1,0,0:0:0:0:
192,192,70331,1,0,0:0:0:0:
448,192,70331,1,0,0:0:0:0:
64,192,70385,1,0,0:0:0:0:
320,192,70440,1,0,0:0:0:0:
192,192,70494,1,0,0:0:0:0:
320,192,70549,1,0,0:0:0:0:
448,192,70603,1,0,0:0:0:0:
320,192,70658,1,0,0:0:0:0:
64,192,70712,1,0,0:0:0:0:
192,192,70767,1,0,0:0:0:0:
448,192,70767,1,0,0:0:0:0:
320,192,70822,1,0,0:0:0:0:
64,192,70876,1,0,0:0:0:0:
320,192,70931,1,0,0:0:0:0:
192,192,70985,1,0,0:0:0:0:
448,192,70985,1,0,0:0:0:0:
64,192,71040,1,0,0:0:0:0:
192,192,71094,1,0,0:0:0:0:
448,192,71094,1,0,0:0:0:0:
320,192,71149,1,0,0:0:0:0:
192,192,71203,1,0,0:0:0:0:
448,192,71203,1,0,0:0:0:0:
64,192,71312,1,0,0:0:0:0:
320,192,71312,1,0,0:0:0:0:
448,192,71312,1,0,0:0:0:0:
320,192,71531,1,0,0:0:0:0:
448,192,71585,1,0,0:0:0:0:
64,192,71640,1,0,0:0:0:0:
192,192,71640,1,0,0:0:0:0:
320,192,71694,1,0,0:0:0:0:
448,192,71749,1,0,0:0:0:0:
64,192,71803,1,0,0:0:0:0:
448,192,71858,1,0,0:0:0:0:
192,192,71912,1,0,0:0:0:0:
448,192,71967,1,0,0:0:0:0:
320,192,72022,1,0,0:0:0:0:
64,192,72076,1,0,0:0:0:0:
192,192,72076,1,0,0:0:0:0:
448,192,72131,1,0,0:0:0:0:
320,192,72185,1,0,0:0:0:0:
64,192,72240,1,0,0:0:0:0:
320,192,72294,1,0,0:0:0:0:
192,192,72349,1,0,0:0:0:0:
320,192,72403,1,0,0:0:0:0:
448,192,72458,1,0,0:0:0:0:
64,192,72512,1,0,0:0:0:0:
192,192,72512,1,0,0:0:0:0:
320,192,72567,1,0,0:0:0:0:
448,192,72622,1,0,0:0:0:0:
64,192,72676,1,0,0:0:0:0:
448,192,72731,1,0,0:0:0:0:
192,192,72785,1,0,0:0:0:0:
448,192,72840,1,0,0:0:0:0:
320,192,72894,1,0,0:0:0:0:
64,192,72949,1,0,0:0:0:0:
192,192,72949,1,0,0:0:0:0:
192,192,73058,1,0,0:0:0:0:
320,192,73058,1,0,0:0:0:0:
448,192,73058,1,0,0:0:0:0:
64,192,73276,1,0,0:0:0:0:
192,192,73331,1,0,0:0:0:0:
320,192,73385,1,0,0:0:0:0:
448,192,73385,1,0,0:0:0:0:
64,192,73440,1,0,0:0:0:0:
192,192,73494,1,0,0:0:0:0:
448,192,73549,1,0,0:0:0:0:
192,192,73603,1,0,0:0:0:0:
320,192,73658,1,0,0:0:0:0:
192,192,73712,1,0,0:0:0:0:
64,192,73767,1,0,0:0:0:0:
320,192,73822,1,0,0:0:0:0:
448,192,73822,1,0,0:0:0:0:
192,192,73876,1,0,0:0:0:0:
64,192,73931,1,0,0:0:0:0:
448,192,73985,1,0,0:0:0:0:
64,192,74040,1,0,0:0:0:0:
320,192,74094,1,0,0:0:0:0:
64,192,74149,1,0,0:0:0:0:
192,192,74203,1,0,0:0:0:0:
320,192,74258,1,0,0:0:0:0:
448,192,74258,1,0,0:0:0:0:
64,192,74312,1,0,0:0:0:0:
192,192,74367,1,0,0:0:0:0:
320,192,74422,1,0,0:0:0:0:
192,192,74476,1,0,0:0:0:0:
448,192,74531,1,0,0:0:0:0:
192,192,74585,1,0,0:0:0:0:
64,192,74640,1,0,0:0:0:0:
320,192,74694,1,0,0:0:0:0:
448,192,74694,1,0,0:0:0:0:
64,192,74803,1,0,0:0:0:0:
192,192,74803,1,0,0:0:0:0:
448,192,74803,1,0,0:0:0:0:
192,192,75022,1,0,0:0:0:0:
448,192,75076,1,0,0:0:0:0:
64,192,75131,1,0,0:0:0:0:
320,192,75131,1,0,0:0:0:0:
192,192,75185,1,0,0:0:0:0:
448,192,75240,1,0,0:0:0:0:
320,192,75294,1,0,0:0:0:0:
448,192,75349,1,0,0:0:0:0:
64,192,75403,1,0,0:0:0:0:
448,192,75458,1,0,0:0:0:0:
192,192,75512,1,0,0:0:0:0:
64,192,75567,1,0,0:0:0:0:
320,192,75567,1,0,0:0:0:0:
448,192,75622,1,0,0:0:0:0:
192,192,75676,1,0,0:0:0:0:
320,192,75731,1,0,0:0:0:0:
192,192,75785,1,0,0:0:0:0:
64,192,75840,1,0,0:0:0:0:
192,192,75894,1,0,0:0:0:0:
448,192,75949,1,0,0:0:0:0:
64,192,76003,1,0,0:0:0:0:
320,192,76003,1,0,0:0:0:0:
192,192,76058,1,0,0:0:0:0:
448,192,76112,1,0,0:0:0:0:
320,192,76167,1,0,0:0:0:0:
448,192,76222,1,0,0:0:0:0:
64,192,76276,1,0,0:0:0:0:
448,192,76331,1,0,0:0:0:0:
192,192,76385,1,0,0:0:0:0:
64,192,76440,1,0,0:0:0:0:
320,192,76440,1,0,0:0:0:0:
192,192,76549,1,0,0:0:0:0:
448,192,76549,1,0,0:0:0:0:
64,192,76658,1,0,0:0:0:0:
448,192,76658,1,0,0:0:0:0:
192,192,76731,1,0,0:0:0:0:
64,192,76767,1,0,0:0:0:0:
320,192,76803,1,0,0:0:0:0:
192,192,76876,1,0,0:0:0:0:
448,192,76876,1,0,0:0:0:0:
320,192,76949,1,0,0:0:0:0:
192,192,76985,1,0,0:0:0:0:
64,192,77022,1,0,0:0:0:0:
320,192,77094,1,0,0:0:0:0:
448,192,77094,1,0,0:0:0:0:
192,192,77167,1,0,0:0:0:0:
320,192,77203,1,0,0:0:0:0:
64,192,77240,1,0,0:0:0:0:
320,192,77312,1,0,0:0:0:0:
448,192,77312,1,0,0:0:0:0:
64,192,77385,1,0,0:0:0:0:
448,192,77422,1,0,0:0:0:0:
192,192,77458,1,0,0:0:0:0:
320,192,77531,1,0,0:0:0:0:
448,192,77531,1,0,0:0:0:0:
64,192,77603,1,0,0:0:0:0:
192,192,77640,1,0,0:0:0:0:
320,192,77640,1,0,0:0:0:0:
448,192,77676,1,0,0:0:0:0:
64,192,77749,1,0,0:0:0:0:
192,192,77749,1,0,0:0:0:0:
448,192,77822,1,0,0:0:0:0:
192,192,77858,1,0,0:0:0:0:
320,192,77858,1,0,0:0:0:0:
64,192,77894,1,0,0:0:0:0:
320,192,77967,1,0,0:0:0:0:
448,192,77967,1,0,0:0:0:0:
192,192,78040,1,0,0:0:0:0:
64,192,78076,1,0,0:0:0:0:
448,192,78076,1,0,0:0:0:0:
320,192,78112,1,0,0:0:0:0:
64,192,78185,1,0,0:0:0:0:
448,192,78185,1,0,0:0:0:0:
192,192,78240,1,0,0:0:0:0:
64,192,78294,1,0,0:0:0:0:
320,192,78294,1,0,0:0:0:0:
448,192,78294,1,0,0:0:0:0:
448,192,78512,1,0,0:0:0:0:
320,192,78567,1,0,0:0:0:0:
64,192,78622,1,0,0:0:0:0:
192,192,78622,1,0,0:0:0:0:
320,192,78676,1,0,0:0:0:0:
448,192,78731,1,0,0:0:0:0:
192,192,78785,1,0,0:0:0:0:
64,192,78840,1,0,0:0:0:0:
320,192,78840,1,0,0:0:0:0:
192,192,78894,1,0,0:0:0:0:
448,192,78949,1,0,0:0:0:0:
320,192,79003,1,0,0:0:0:0:
64,192,79058,1,0,0:0:0:0:
192,192,79058,1,0,0:0:0:0:
448,192,79112,1,0,0:0:0:0:
320,192,79167,1,0,0:0:0:0:
192,192,79222,1,0,0:0:0:0:
64,192,79276,1,0,0:0:0:0:
448,192,79276,1,0,0:0:0:0:
320,192,79331,1,0,0:0:0:0:
192,192,79385,1,0,0:0:0:0:
320,192,79440,1,0,0:0:0:0:
64,192,79494,1,0,0:0:0:0:
448,192,79494,1,0,0:0:0:0:
192,192,79549,1,0,0:0:0:0:
320,192,79603,1,0,0:0:0:0:
192,192,79658,1,0,0:0:0:0:
64,192,79712,1,0,0:0:0:0:
448,192,79712,1,0,0:0:0:0:
192,192,79767,1,0,0:0:0:0:
320,192,79822,1,0,0:0:0:0:
448,192,79876,1,0,0:0:0:0:
64,192,79931,1,0,0:0:0:0:
192,192,79931,1,0,0:0:0:0:
320,192,79985,1,0,0:0:0:0:
192,192,80040,1,0,0:0:0:0:
448,192,80040,1,0,0:0:0:0:
320,192,80094,1,0,0:0:0:0:
64,192,80149,1,0,0:0:0:0:
448,192,80203,1,0,0:0:0:0:
320,192,80258,1,0,0:0:0:0:
192,192,80312,1,0,0:0:0:0:
320,192,80367,1,0,0:0:0:0:
448,192,80367,1,0,0:0:0:0:
64,192,80422,1,0,0:0:0:0:
192,192,80476,1,0,0:0:0:0:
320,192,80531,1,0,0:0:0:0:
192,192,80585,1,0,0:0:0:0:
448,192,80585,1,0,0:0:0:0:
320,192,80640,1,0,0:0:0:0:
64,192,80694,1,0,0:0:0:0:
192,192,80749,1,0,0:0:0:0:
320,192,80803,1,0,0:0:0:0:
448,192,80803,1,0,0:0:0:0:
192,192,80858,1,0,0:0:0:0:
64,192,80912,1,0,0:0:0:0:
320,192,80967,1,0,0:0:0:0:
64,192,81022,1,0,0:0:0:0:
448,192,81022,1,0,0:0:0:0:
192,192,81076,1,0,0:0:0:0:
320,192,81131,1,0,0:0:0:0:
192,192,81185,1,0,0:0:0:0:
64,192,81240,1,0,0:0:0:0:
448,192,81240,1,0,0:0:0:0:
320,192,81294,1,0,0:0:0:0:
192,192,81349,1,0,0:0:0:0:
320,192,81403,1,0,0:0:0:0:
64,192,81458,1,0,0:0:0:0:
448,192,81458,1,0,0:0:0:0:
320,192,81512,1,0,0:0:0:0:
192,192,81567,1,0,0:0:0:0:
64,192,81622,1,0,0:0:0:0:
320,192,81676,1,0,0:0:0:0:
448,192,81676,1,0,0:0:0:0:
192,192,81731,1,0,0:0:0:0:
64,192,81785,1,0,0:0:0:0:
320,192,81785,1,0,0:0:0:0:
192,192,81840,1,0,0:0:0:0:
448,192,81894,1,0,0:0:0:0:
64,192,81949,1,0,0:0:0:0:
192,192,82003,1,0,0:0:0:0:
320,192,82058,1,0,0:0:0:0:
64,192,82112,1,0,0:0:0:0:
192,192,82112,1,0,0:0:0:0:
448,192,82167,1,0,0:0:0:0:
320,192,82222,1,0,0:0:0:0:
64,192,82276,1,0,0:0:0:0:
192,192,82331,1,0,0:0:0:0:
448,192,82331,1,0,0:0:0:0:
64,192,82385,1,0,0:0:0:0:
320,192,82440,1,0,0:0:0:0:
448,192,82494,1,0,0:0:0:0:
64,192,82549,1,0,0:0:0:0:
192,192,82549,1,0,0:0:0:0:
448,192,82603,1,0,0:0:0:0:
320,192,82658,1,0,0:0:0:0:
64,192,82712,1,0,0:0:0:0:
192,192,82767,1,0,0:0:0:0:
320,192,82767,1,0,0:0:0:0:
448,192,82822,1,0,0:0:0:0:
64,192,82876,1,0,0:0:0:0:
448,192,82931,1,0,0:0:0:0:
192,192,82985,1,0,0:0:0:0:
320,192,82985,1,0,0:0:0:0:
64,192,83040,1,0,0:0:0:0:
448,192,83094,1,0,0:0:0:0:
64,192,83149,1,0,0:0:0:0:
192,192,83203,1,0,0:0:0:0:
320,192,83203,1,0,0:0:0:0:
448,192,83258,1,0,0:0:0:0:
64,192,83312,1,0,0:0:0:0:
320,192,83367,1,0,0:0:0:0:
64,192,83422,1,0,0:0:0:0:
192,192,83422,1,0,0:0:0:0:
448,192,83476,1,0,0:0:0:0:
192,192,83531,1,0,0:0:0:0:
320,192,83531,1,0,0:0:0:0:
64,192,83585,1,0,0:0:0:0:
448,192,83640,1,0,0:0:0:0:
320,192,83694,1,0,0:0:0:0:
192,192,83749,1,0,0:0:0:0:
64,192,83803,1,0,0:0:0:0:
320,192,83858,1,0,0:0:0:0:
448,192,83858,1,0,0:0:0:0:
64,192,83912,1,0,0:0:0:0:
192,192,83967,1,0,0:0:0:0:
448,192,84022,1,0,0:0:0:0:
64,192,84076,1,0,0:0:0:0:
320,192,84076,1,0,0:0:0:0:
448,192,84131,1,0,0:0:0:0:
192,192,84185,1,0,0:0:0:0:
64,192,84240,1,0,0:0:0:0:
320,192,84294,1,0,0:0:0:0:
448,192,84294,1,0,0:0:0:0:
64,192,84349,1,0,0:0:0:0:
192,192,84403,1,0,0:0:0:0:
448,192,84458,1,0,0:0:0:0:
192,192,84512,1,0,0:0:0:0:
320,192,84512,1,0,0:0:0:0:
64,192,84567,1,0,0:0:0:0:
448,192,84622,1,0,0:0:0:0:
64,192,84676,1,0,0:0:0:0:
192,192,84731,1,0,0:0:0:0:
320,192,84731,1,0,0:0:0:0:
448,192,84785,1,0,0:0:0:0:
64,192,84840,1,0,0:0:0:0:
192,192,84840,1,0,0:0:0:0:
448,192,84894,1,0,0:0:0:0:
192,192,84949,1,0,0:0:0:0:
320,192,84949,1,0,0:0:0:0:
448,192,85003,1,0,0:0:0:0:
64,192,85058,1,0,0:0:0:0:
320,192,85058,1,0,0:0:0:0:
192,192,85112,1,0,0:0:0:0:
320,192,85167,1,0,0:0:0:0:
448,192,85167,1,0,0:0:0:0:
64,192,85222,1,0,0:0:0:0:
192,192,85276,1,0,0:0:0:0:
320,192,85276,1,0,0:0:0:0:
448,192,85276,1,0,0:0:0:0:
448,192,85494,1,0,0:0:0:0:
64,192,85549,1,0,0:0:0:0:
192,192,85603,1,0,0:0:0:0:
320,192,85603,1,0,0:0:0:0:
448,192,85658,1,0,0:0:0:0:
320,192,85712,1,0,0:0:0:0:
448,192,85767,1,0,0:0:0:0:
64,192,85822,1,0,0:0:0:0:
192,192,85822,1,0,0:0:0:0:
448,192,85876,1,0,0:0:0:0:
320,192,85931,1,0,0:0:0:0:
64,192,85985,1,0,0:0:0:0:
192,192,86040,1,0,0:0:0:0:
320,192,86040,1,0,0:0:0:0:
448,192,86094,1,0,0:0:0:0:
192,192,86149,1,0,0:0:0:0:
64,192,86203,1,0,0:0:0:0:
320,192,86258,1,0,0:0:0:0:
448,192,86258,1,0,0:0:0:0:
192,192,86312,1,0,0:0:0:0:
64,192,86367,1,0,0:0:0:0:
192,192,86422,1,0,0:0:0:0:
320,192,86476,1,0,0:0:0:0:
448,192,86476,1,0,0:0:0:0:
64,192,86531,1,0,0:0:0:0:
192,192,86585,1,0,0:0:0:0:
64,192,86640,1,0,0:0:0:0:
320,192,86694,1,0,0:0:0:0:
448,192,86694,1,0,0:0:0:0:
192,192,86749,1,0,0:0:0:0:
64,192,86803,1,0,0:0:0:0:
448,192,86858,1,0,0:0:0:0:
192,192,86912,1,0,0:0:0:0:
320,192,86912,1,0,0:0:0:0:
448,192,86967,1,0,0:0:0:0:
64,192,87022,1,0,0:0:0:0:
192,192,87022,1,0,0:0:0:0:
320,192,87076,1,0,0:0:0:0:
64,192,87131,1,0,0:0:0:0:
192,192,87185,1,0,0:0:0:0:
64,192,87240,1,0,0:0:0:0:
192,192,87294,1,0,0:0:0:0:
64,192,87349,1,0,0:0:0:0:
448,192,87349,1,0,0:0:0:0:
320,192,87403,1,0,0:0:0:0:
192,192,87458,1,0,0:0:0:0:
64,192,87512,1,0,0:0:0:0:
320,192,87567,1,0,0:0:0:0:
448,192,87567,1,0,0:0:0:0:
64,192,87622,1,0,0:0:0:0:
192,192,87676,1,0,0:0:0:0:
320,192,87731,1,0,0:0:0:0:
64,192,87785,1,0,0:0:0:0:
448,192,87785,1,0,0:0:0:0:
192,192,87840,1,0,0:0:0:0:
320,192,87894,1,0,0:0:0:0:
448,192,87949,1,0,0:0:0:0:
64,192,88003,1,0,0:0:0:0:
192,192,88003,1,0,0:0:0:0:
320,192,88058,1,0,0:0:0:0:
448,192,88112,1,0,0:0:0:0:
320,192,88167,1,0,0:0:0:0:
64,192,88222,1,0,0:0:0:0:
192,192,88222,1,0,0:0:0:0:
448,192,88276,1,0,0:0:0:0:
320,192,88331,1,0,0:0:0:0:
448,192,88385,1,0,0:0:0:0:
64,192,88440,1,0,0:0:0:0:
192,192,88440,1,0,0:0:0:0:
320,192,88494,1,0,0:0:0:0:
448,192,88549,1,0,0:0:0:0:
320,192,88603,1,0,0:0:0:0:
64,192,88658,1,0,0:0:0:0:
448,192,88658,1,0,0:0:0:0:
192,192,88712,1,0,0:0:0:0:
64,192,88767,1,0,0:0:0:0:
320,192,88767,1,0,0:0:0:0:
192,192,88822,1,0,0:0:0:0:
320,192,88876,1,0,0:0:0:0:
448,192,88876,1,0,0:0:0:0:
192,192,88931,1,0,0:0:0:0:
64,192,88985,1,0,0:0:0:0:
192,192,89040,1,0,0:0:0:0:
320,192,89094,1,0,0:0:0:0:
448,192,89094,1,0,0:0:0:0:
64,192,89149,1,0,0:0:0:0:
192,192,89203,1,0,0:0:0:0:
64,192,89258,1,0,0:0:0:0:
192,192,89312,1,0,0:0:0:0:
448,192,89312,1,0,0:0:0:0:
320,192,89367,1,0,0:0:0:0:
64,192,89422,1,0,0:0:0:0:
320,192,89476,1,0,0:0:0:0:
192,192,89531,1,0,0:0:0:0:
448,192,89531,1,0,0:0:0:0:
64,192,89585,1,0,0:0:0:0:
320,192,89640,1,0,0:0:0:0:
64,192,89694,1,0,0:0:0:0:
192,192,89749,1,0,0:0:0:0:
320,192,89749,1,0,0:0:0:0:
448,192,89803,1,0,0:0:0:0:
64,192,89858,1,0,0:0:0:0:
448,192,89912,1,0,0:0:0:0:
192,192,89967,1,0,0:0:0:0:
320,192,89967,1,0,0:0:0:0:
64,192,90022,1,0,0:0:0:0:
320,192,90076,1,0,0:0:0:0:
192,192,90131,1,0,0:0:0:0:
64,192,90185,1,0,0:0:0:0:
448,192,90185,1,0,0:0:0:0:
320,192,90240,1,0,0:0:0:0:
192,192,90294,1,0,0:0:0:0:
320,192,90349,1,0,0:0:0:0:
64,192,90403,1,0,0:0:0:0:
448,192,90403,1,0,0:0:0:0:
192,192,90458,1,0,0:0:0:0:
64,192,90512,1,0,0:0:0:0:
320,192,90512,1,0,0:0:0:0:
192,192,90567,1,0,0:0:0:0:
64,192,90622,1,0,0:0:0:0:
448,192,90622,1,0,0:0:0:0:
192,192,90676,1,0,0:0:0:0:
320,192,90731,1,0,0:0:0:0:
448,192,90785,1,0,0:0:0:0:
64,192,90840,1,0,0:0:0:0:
192,192,90840,1,0,0:0:0:0:
448,192,90894,1,0,0:0:0:0:
320,192,90949,1,0,0:0:0:0:
192,192,91003,1,0,0:0:0:0:
64,192,91058,1,0,0:0:0:0:
448,192,91058,1,0,0:0:0:0:
192,192,91112,1,0,0:0:0:0:
320,192,91167,1,0,0:0:0:0:
448,192,91222,1,0,0:0:0:0:
64,192,91276,1,0,0:0:0:0:
192,192,91276,1,0,0:0:0:0:
448,192,91331,1,0,0:0:0:0:
320,192,91385,1,0,0:0:0:0:
192,192,91440,1,0,0:0:0:0:
64,192,91494,1,0,0:0:0:0:
448,192,91494,1,0,0:0:0:0:
192,192,91549,1,0,0:0:0:0:
320,192,91603,1,0,0:0:0:0:
448,192,91658,1,0,0:0:0:0:
64,192,91712,1,0,0:0:0:0:
192,192,91712,1,0,0:0:0:0:
320,192,91767,1,0,0:0:0:0:
448,192,91822,1,0,0:0:0:0:
192,192,91876,1,0,0:0:0:0:
64,192,91931,1,0,0:0:0:0:
448,192,91931,1,0,0:0:0:0:
192,192,91985,1,0,0:0:0:0:
320,192,92040,1,0,0:0:0:0:
448,192,92094,1,0,0:0:0:0:
64,192,92149,1,0,0:0:0:0:
192,192,92149,1,0,0:0:0:0:
320,192,92203,1,0,0:0:0:0:
448,192,92258,1,0,0:0:0:0:
192,192,92312,1,0,0:0:0:0:
64,192,92367,1,0,0:0:0:0:
320,192,92367,1,0,0:0:0:0:
448,192,92367,1,0,0:0:0:0:
192,192,92440,1,0,0:0:0:0:
64,192,92512,1,0,0:0:0:0:
192,192,92585,1,0,0:0:0:0:
320,192,92585,1,0,0:0:0:0:
64,192,92658,1,0,0:0:0:0:
448,192,92658,1,0,0:0:0:0:
192,192,92731,1,0,0:0:0:0:
320,192,92731,1,0,0:0:0:0:
64,192,92803,1,0,0:0:0:0:
448,192,92803,1,0,0:0:0:0:
320,192,92876,1,0,0:0:0:0:
448,192,92949,1,0,0:0:0:0:
64,192,93022,1,0,0:0:0:0:
320,192,93022,1,0,0:0:0:0:
192,192,93094,1,0,0:0:0:0:
448,192,93094,1,0,0:0:0:0:
64,192,93167,1,0,0:0:0:0:
320,192,93167,1,0,0:0:0:0:
192,192,93240,1,0,0:0:0:0:
448,192,93240,1,0,0:0:0:0:
64,192,93294,1,0,0:0:0:0:
320,192,93349,1,0,0:0:0:0:
448,192,93349,1,0,0:0:0:0:
64,192,93403,1,0,0:0:0:0:
192,192,93403,1,0,0:0:0:0:
320,192,93458,1,0,0:0:0:0:
448,192,93458,1,0,0:0:0:0:
64,192,93512,1,0,0:0:0:0:
192,192,93512,1,0,0:0:0:0:
320,192,93567,1,0,0:0:0:0:
448,192,93567,1,0,0:0:0:0:
64,192,93622,1,0,0:0:0:0:
192,192,93622,1,0,0:0:0:0:
320,192,93676,1,0,0:0:0:0:
448,192,93676,1,0,0:0:0:0:
192,192,93785,1,0,0:0:0:0:
64,192,94003,1,0,0:0:0:0:
192,192,94003,1,0,0:0:0:0:
320,192,94003,1,0,0:0:0:0:
448,192,94003,1,0,0:0:0:0:
320,192,94222,1,0,0:0:0:0:
448,192,94222,1,0,0:0:0:0:
192,192,94276,1,0,0:0:0:0:
64,192,94331,1,0,0:0:0:0:
448,192,94331,1,0,0:0:0:0:
320,192,94385,1,0,0:0:0:0:
192,192,94440,1,0,0:0:0:0:
448,192,94440,1,0,0:0:0:0:
320,192,94494,1,0,0:0:0:0:
192,192,94549,1,0,0:0:0:0:
448,192,94549,1,0,0:0:0:0:
64,192,94603,1,0,0:0:0:0:
192,192,94658,1,0,0:0:0:0:
448,192,94658,1,0,0:0:0:0:
320,192,94712,1,0,0:0:0:0:
64,192,94767,1,0,0:0:0:0:
192,192,94767,1,0,0:0:0:0:
448,192,94822,1,0,0:0:0:0:
64,192,94876,1,0,0:0:0:0:
320,192,94876,1,0,0:0:0:0:
192,192,94931,1,0,0:0:0:0:
64,192,94985,1,0,0:0:0:0:
320,192,94985,1,0,0:0:0:0:
448,192,95040,1,0,0:0:0:0:
64,192,95094,1,0,0:0:0:0:
320,192,95094,1,0,0:0:0:0:
192,192,95149,1,0,0:0:0:0:
320,192,95203,1,0,0:0:0:0:
448,192,95203,1,0,0:0:0:0:
64,192,95258,1,0,0:0:0:0:
192,192,95312,1,0,0:0:0:0:
320,192,95312,1,0,0:0:0:0:
448,192,95367,1,0,0:0:0:0:
192,192,95422,1,0,0:0:0:0:
320,192,95422,1,0,0:0:0:0:
64,192,95476,1,0,0:0:0:0:
192,192,95531,1,0,0:0:0:0:
320,192,95531,1,0,0:0:0:0:
448,192,95585,1,0,0:0:0:0:
64,192,95640,1,0,0:0:0:0:
192,192,95640,1,0,0:0:0:0:
320,192,95694,1,0,0:0:0:0:
192,192,95749,1,0,0:0:0:0:
448,192,95749,1,0,0:0:0:0:
320,192,95803,1,0,0:0:0:0:
64,192,95858,1,0,0:0:0:0:
320,192,95912,1,0,0:0:0:0:
192,192,95967,1,0,0:0:0:0:
448,192,95967,1,0,0:0:0:0:
320,192,96022,1,0,0:0:0:0:
64,192,96076,1,0,0:0:0:0:
448,192,96076,1,0,0:0:0:0:
320,192,96131,1,0,0:0:0:0:
64,192,96185,1,0,0:0:0:0:
192,192,96185,1,0,0:0:0:0:
448,192,96240,1,0,0:0:0:0:
64,192,96294,1,0,0:0:0:0:
192,192,96294,1,0,0:0:0:0:
320,192,96349,1,0,0:0:0:0:
64,192,96403,1,0,0:0:0:0:
192,192,96403,1,0,0:0:0:0:
448,192,96458,1,0,0:0:0:0:
192,192,96512,1,0,0:0:0:0:
320,192,96512,1,0,0:0:0:0:
64,192,96567,1,0,0:0:0:0:
320,192,96622,1,0,0:0:0:0:
448,192,96622,1,0,0:0:0:0:
192,192,96676,1,0,0:0:0:0:
320,192,96731,1,0,0:0:0:0:
448,192,96731,1,0,0:0:0:0:
64,192,96785,1,0,0:0:0:0:
320,192,96840,1,0,0:0:0:0:
448,192,96840,1,0,0:0:0:0:
192,192,96894,1,0,0:0:0:0:
64,192,96949,1,0,0:0:0:0:
448,192,96949,1,0,0:0:0:0:
192,192,97003,1,0,0:0:0:0:
64,192,97058,1,0,0:0:0:0:
320,192,97058,1,0,0:0:0:0:
448,192,97112,1,0,0:0:0:0:
64,192,97167,1,0,0:0:0:0:
320,192,97167,1,0,0:0:0:0:
192,192,97222,1,0,0:0:0:0:
64,192,97276,1,0,0:0:0:0:
320,192,97276,1,0,0:0:0:0:
448,192,97331,1,0,0:0:0:0:
64,192,97385,1,0,0:0:0:0:
192,192,97385,1,0,0:0:0:0:
320,192,97440,1,0,0:0:0:0:
64,192,97494,1,0,0:0:0:0:
448,192,97494,1,0,0:0:0:0:
192,192,97549,1,0,0:0:0:0:
320,192,97603,1,0,0:0:0:0:
64,192,97658,1,0,0:0:0:0:
192,192,97712,1,0,0:0:0:0:
448,192,97712,1,0,0:0:0:0:
320,192,97767,1,0,0:0:0:0:
64,192,97822,1,0,0:0:0:0:
448,192,97822,1,0,0:0:0:0:
192,192,97876,1,0,0:0:0:0:
64,192,97931,1,0,0:0:0:0:
320,192,97931,1,0,0:0:0:0:
448,192,97985,1,0,0:0:0:0:
64,192,98040,1,0,0:0:0:0:
320,192,98040,1,0,0:0:0:0:
192,192,98094,1,0,0:0:0:0:
64,192,98149,1,0,0:0:0:0:
320,192,98149,1,0,0:0:0:0:
448,192,98203,1,0,0:0:0:0:
64,192,98258,1,0,0:0:0:0:
192,192,98258,1,0,0:0:0:0:
320,192,98312,1,0,0:0:0:0:
192,192,98367,1,0,0:0:0:0:
448,192,98367,1,0,0:0:0:0:
320,192,98422,1,0,0:0:0:0:
192,192,98476,1,0,0:0:0:0:
448,192,98476,1,0,0:0:0:0:
64,192,98531,1,0,0:0:0:0:
192,192,98585,1,0,0:0:0:0:
448,192,98585,1,0,0:0:0:0:
320,192,98640,1,0,0:0:0:0:
64,192,98694,1,0,0:0:0:0:
448,192,98694,1,0,0:0:0:0:
192,192,98749,1,0,0:0:0:0:
64,192,98803,1,0,0:0:0:0:
320,192,98803,1,0,0:0:0:0:
448,192,98858,1,0,0:0:0:0:
64,192,98912,1,0,0:0:0:0:
320,192,98912,1,0,0:0:0:0:
192,192,98967,1,0,0:0:0:0:
64,192,99022,1,0,0:0:0:0:
320,192,99022,1,0,0:0:0:0:
448,192,99076,1,0,0:0:0:0:
64,192,99131,1,0,0:0:0:0:
192,192,99131,1,0,0:0:0:0:
320,192,99185,1,0,0:0:0:0:
192,192,99240,1,0,0:0:0:0:
448,192,99240,1,0,0:0:0:0:
64,192,99294,1,0,0:0:0:0:
320,192,99349,1,0,0:0:0:0:
192,192,99403,1,0,0:0:0:0:
64,192,99458,1,0,0:0:0:0:
448,192,99458,1,0,0:0:0:0:
320,192,99512,1,0,0:0:0:0:
192,192,99567,1,0,0:0:0:0:
448,192,99567,1,0,0:0:0:0:
64,192,99622,1,0,0:0:0:0:
320,192,99676,1,0,0:0:0:0:
448,192,99676,1,0,0:0:0:0:
192,192,99731,1,0,0:0:0:0:
320,192,99785,1,0,0:0:0:0:
448,192,99785,1,0,0:0:0:0:
64,192,99840,1,0,0:0:0:0:
320,192,99894,1,0,0:0:0:0:
448,192,99894,1,0,0:0:0:0:
64,192,99949,1,0,0:0:0:0:
192,192,100003,1,0,0:0:0:0:
320,192,100003,1,0,0:0:0:0:
448,192,100058,1,0,0:0:0:0:
64,192,100112,1,0,0:0:0:0:
320,192,100112,1,0,0:0:0:0:
192,192,100167,1,0,0:0:0:0:
64,192,100222,1,0,0:0:0:0:
320,192,100222,1,0,0:0:0:0:
448,192,100276,1,0,0:0:0:0:
64,192,100331,1,0,0:0:0:0:
320,192,100331,1,0,0:0:0:0:
192,192,100385,1,0,0:0:0:0:
320,192,100440,1,0,0:0:0:0:
448,192,100440,1,0,0:0:0:0:
64,192,100494,1,0,0:0:0:0:
192,192,100549,1,0,0:0:0:0:
448,192,100549,1,0,0:0:0:0:
320,192,100603,1,0,0:0:0:0:
64,192,100658,1,0,0:0:0:0:
192,192,100658,1,0,0:0:0:0:
448,192,100658,1,0,0:0:0:0:
192,192,100767,1,0,0:0:0:0:
320,192,100767,1,0,0:0:0:0:
448,192,100767,1,0,0:0:0:0:
64,192,100876,1,0,0:0:0:0:
320,192,100876,1,0,0:0:0:0:
448,192,100876,1,0,0:0:0:0:
64,192,100985,1,0,0:0:0:0:
192,192,100985,1,0,0:0:0:0:
320,192,100985,1,0,0:0:0:0:
448,192,100985,1,0,0:0:0:0:
64,192,101203,1,0,0:0:0:0:
192,192,101203,1,0,0:0:0:0:
448,192,101258,1,0,0:0:0:0:
192,192,101312,1,0,0:0:0:0:
320,192,101312,1,0,0:0:0:0:
64,192,101367,1,0,0:0:0:0:
192,192,101422,1,0,0:0:0:0:
448,192,101422,1,0,0:0:0:0:
320,192,101476,1,0,0:0:0:0:
192,192,101531,1,0,0:0:0:0:
448,192,101531,1,0,0:0:0:0:
64,192,101585,1,0,0:0:0:0:
192,192,101640,1,0,0:0:0:0:
448,192,101640,1,0,0:0:0:0:
320,192,101694,1,0,0:0:0:0:
64,192,101749,1,0,0:0:0:0:
192,192,101749,1,0,0:0:0:0:
320,192,101803,1,0,0:0:0:0:
64,192,101858,1,0,0:0:0:0:
448,192,101858,1,0,0:0:0:0:
192,192,101912,1,0,0:0:0:0:
64,192,101967,1,0,0:0:0:0:
448,192,101967,1,0,0:0:0:0:
320,192,102022,1,0,0:0:0:0:
64,192,102076,1,0,0:0:0:0:
448,192,102076,1,0,0:0:0:0:
192,192,102131,1,0,0:0:0:0:
64,192,102185,1,0,0:0:0:0:
320,192,102185,1,0,0:0:0:0:
192,192,102240,1,0,0:0:0:0:
320,192,102294,1,0,0:0:0:0:
448,192,102294,1,0,0:0:0:0:
64,192,102349,1,0,0:0:0:0:
320,192,102403,1,0,0:0:0:0:
448,192,102403,1,0,0:0:0:0:
64,192,102458,1,0,0:0:0:0:
320,192,102512,1,0,0:0:0:0:
448,192,102512,1,0,0:0:0:0:
192,192,102567,1,0,0:0:0:0:
64,192,102622,1,0,0:0:0:0:
448,192,102622,1,0,0:0:0:0:
320,192,102676,1,0,0:0:0:0:
64,192,102731,1,0,0:0:0:0:
192,192,102731,1,0,0:0:0:0:
448,192,102785,1,0,0:0:0:0:
320,192,102840,1,0,0:0:0:0:
192,192,102894,1,0,0:0:0:0:
64,192,102949,1,0,0:0:0:0:
448,192,102949,1,0,0:0:0:0:
320,192,103003,1,0,0:0:0:0:
192,192,103058,1,0,0:0:0:0:
448,192,103058,1,0,0:0:0:0:
320,192,103112,1,0,0:0:0:0:
64,192,103167,1,0,0:0:0:0:
192,192,103167,1,0,0:0:0:0:
448,192,103222,1,0,0:0:0:0:
64,192,103276,1,0,0:0:0:0:
192,192,103276,1,0,0:0:0:0:
320,192,103331,1,0,0:0:0:0:
64,192,103385,1,0,0:0:0:0:
192,192,103385,1,0,0:0:0:0:
448,192,103440,1,0,0:0:0:0:
64,192,103494,1,0,0:0:0:0:
320,192,103494,1,0,0:0:0:0:
192,192,103549,1,0,0:0:0:0:
320,192,103603,1,0,0:0:0:0:
448,192,103603,1,0,0:0:0:0:
64,192,103658,1,0,0:0:0:0:
320,192,103712,1,0,0:0:0:0:
448,192,103712,1,0,0:0:0:0:
192,192,103767,1,0,0:0:0:0:
320,192,103822,1,0,0:0:0:0:
448,192,103822,1,0,0:0:0:0:
64,192,103876,1,0,0:0:0:0:
192,192,103931,1,0,0:0:0:0:
320,192,103931,1,0,0:0:0:0:
64,192,103985,1,0,0:0:0:0:
192,192,104040,1,0,0:0:0:0:
448,192,104040,1,0,0:0:0:0:
320,192,104094,1,0,0:0:0:0:
192,192,104149,1,0,0:0:0:0:
448,192,104149,1,0,0:0:0:0:
64,192,104203,1,0,0:0:0:0:
192,192,104258,1,0,0:0:0:0:
448,192,104258,1,0,0:0:0:0:
320,192,104312,1,0,0:0:0:0:
64,192,104367,1,0,0:0:0:0:
192,192,104367,1,0,0:0:0:0:
320,192,104422,1,0,0:0:0:0:
64,192,104476,1,0,0:0:0:0:
448,192,104476,1,0,0:0:0:0:
320,192,104531,1,0,0:0:0:0:
192,192,104585,1,0,0:0:0:0:
64,192,104640,1,0,0:0:0:0:
320,192,104694,1,0,0:0:0:0:
448,192,104694,1,0,0:0:0:0:
192,192,104749,1,0,0:0:0:0:
64,192,104803,1,0,0:0:0:0:
320,192,104803,1,0,0:0:0:0:
448,192,104858,1,0,0:0:0:0:
64,192,104912,1,0,0:0:0:0:
192,192,104912,1,0,0:0:0:0:
320,192,104967,1,0,0:0:0:0:
64,192,105022,1,0,0:0:0:0:
192,192,105022,1,0,0:0:0:0:
448,192,105076,1,0,0:0:0:0:
64,192,105131,1,0,0:0:0:0:
192,192,105131,1,0,0:0:0:0:
320,192,105185,1,0,0:0:0:0:
192,192,105240,1,0,0:0:0:0:
448,192,105240,1,0,0:0:0:0:
64,192,105294,1,0,0:0:0:0:
320,192,105349,1,0,0:0:0:0:
448,192,105349,1,0,0:0:0:0:
192,192,105403,1,0,0:0:0:0:
320,192,105458,1,0,0:0:0:0:
448,192,105458,1,0,0:0:0:0:
64,192,105512,1,0,0:0:0:0:
320,192,105567,1,0,0:0:0:0:
448,192,105567,1,0,0:0:0:0:
192,192,105622,1,0,0:0:0:0:
64,192,105676,1,0,0:0:0:0:
320,192,105676,1,0,0:0:0:0:
192,192,105731,1,0,0:0:0:0:
64,192,105785,1,0,0:0:0:0:
448,192,105785,1,0,0:0:0:0:
320,192,105840,1,0,0:0:0:0:
64,192,105894,1,0,0:0:0:0:
448,192,105894,1,0,0:0:0:0:
192,192,105949,1,0,0:0:0:0:
64,192,106003,1,0,0:0:0:0:
448,192,106003,1,0,0:0:0:0:
320,192,106058,1,0,0:0:0:0:
64,192,106112,1,0,0:0:0:0:
192,192,106112,1,0,0:0:0:0:
320,192,106167,1,0,0:0:0:0:
192,192,106222,1,0,0:0:0:0:
448,192,106222,1,0,0:0:0:0:
64,192,106276,1,0,0:0:0:0:
320,192,106331,1,0,0:0:0:0:
192,192,106385,1,0,0:0:0:0:
448,192,106440,1,0,0:0:0:0:
320,192,106494,1,0,0:0:0:0:
192,192,106549,1,0,0:0:0:0:
64,192,106603,1,0,0:0:0:0:
320,192,106658,1,0,0:0:0:0:
192,192,106712,1,0,0:0:0:0:
64,192,106767,1,0,0:0:0:0:
448,192,106822,1,0,0:0:0:0:
192,192,106876,1,0,0:0:0:0:
64,192,106931,1,0,0:0:0:0:
448,192,106985,1,0,0:0:0:0:
320,192,107040,1,0,0:0:0:0:
192,192,107094,1,0,0:0:0:0:
448,192,107149,1,0,0:0:0:0:
320,192,107203,1,0,0:0:0:0:
192,192,107258,1,0,0:0:0:0:
64,192,107312,1,0,0:0:0:0:
320,192,107367,1,0,0:0:0:0:
192,192,107422,1,0,0:0:0:0:
64,192,107476,1,0,0:0:0:0:
448,192,107531,1,0,0:0:0:0:
192,192,107585,1,0,0:0:0:0:
64,192,107640,1,0,0:0:0:0:
448,192,107694,1,0,0:0:0:0:
320,192,107749,1,0,0:0:0:0:
64,192,107803,1,0,0:0:0:0:
448,192,107858,1,0,0:0:0:0:
192,192,107912,1,0,0:0:0:0:
320,192,107967,1,0,0:0:0:0:
448,192,108022,1,0,0:0:0:0:
192,192,108076,1,0,0:0:0:0:
64,192,108077,128,0,109110:0:0:0:0:
448,192,108464,1,0,0:0:0:0:
448,192,108852,1,0,0:0:0:0:
192,192,109110,128,0,110060:0:0:0:0:
320,192,109110,1,0,0:0:0:0:
448,192,110060,128,0,111029:0:0:0:0:
64,192,110060,1,0,0:0:0:0:
64,192,110423,1,0,0:0:0:0:
64,192,110787,1,0,0:0:0:0:
192,192,111029,1,0,0:0:0:0:
320,192,111029,128,0,111988:0:0:0:0:
64,192,111514,1,0,0:0:0:0:
448,192,111575,1,0,0:0:0:0:
192,192,111635,1,0,0:0:0:0:
64,192,111756,1,0,0:0:0:0:
448,192,111872,1,0,0:0:0:0:
64,192,111988,1,0,0:0:0:0:
192,192,111988,128,0,112929:0:0:0:0:
320,192,112341,1,0,0:0:0:0:
64,192,112694,1,0,0:0:0:0:
320,192,112929,128,0,113883:0:0:0:0:
448,192,112929,1,0,0:0:0:0:
448,192,113403,1,0,0:0:0:0:
192,192,113643,1,0,0:0:0:0:
192,192,113763,1,0,0:0:0:0:
64,192,113883,128,0,114823:0:0:0:0:
448,192,114118,1,0,0:0:0:0:
448,192,114235,1,0,0:0:0:0:
192,192,114353,1,0,0:0:0:0:
192,192,114470,1,0,0:0:0:0:
320,192,114588,1,0,0:0:0:0:
320,192,114705,1,0,0:0:0:0:
448,192,114823,1,0,0:0:0:0:
320,192,114940,1,0,0:0:0:0:
192,192,115058,1,0,0:0:0:0:
64,192,115176,1,0,0:0:0:0:
320,192,115293,1,0,0:0:0:0:
448,192,115293,1,0,0:0:0:0:
192,192,115411,1,0,0:0:0:0:
448,192,115411,1,0,0:0:0:0:
64,192,115528,1,0,0:0:0:0:
448,192,115528,1,0,0:0:0:0:
192,192,115646,1,0,0:0:0:0:
320,192,115646,1,0,0:0:0:0:
64,192,115763,128,0,116700:0:0:0:0:
192,192,115763,1,0,0:0:0:0:
448,192,115763,1,0,0:0:0:0:
448,192,116115,1,0,0:0:0:0:
448,192,116466,1,0,0:0:0:0:
192,192,116700,128,0,117665:0:0:0:0:
320,192,116700,1,0,0:0:0:0:
320,192,117182,1,0,0:0:0:0:
64,192,117665,1,0,0:0:0:0:
320,192,117665,1,0,0:0:0:0:
448,192,117746,128,0,118627:0:0:0:0:
320,192,118026,1,0,0:0:0:0:
64,192,118386,1,0,0:0:0:0:
192,192,118627,1,0,0:0:0:0:
320,192,118627,128,0,119579:0:0:0:0:
64,192,119106,1,0,0:0:0:0:
448,192,119225,1,0,0:0:0:0:
192,192,119344,1,0,0:0:0:0:
64,192,119461,1,0,0:0:0:0:
192,192,119579,128,0,120518:0:0:0:0:
448,192,119579,1,0,0:0:0:0:
448,192,119928,1,0,0:0:0:0:
64,192,120276,1,0,0:0:0:0:
320,192,120518,128,0,121462:0:0:0:0:
448,192,120518,1,0,0:0:0:0:
64,192,120992,1,0,0:0:0:0:
192,192,121227,1,0,0:0:0:0:
64,192,121344,1,0,0:0:0:0:
448,192,121462,128,0,121932:0:0:0:0:
64,192,121814,1,0,0:0:0:0:
192,192,121932,1,0,0:0:0:0:
320,192,122010,1,0,0:0:0:0:
448,192,122089,1,0,0:0:0:0:
64,192,122167,1,0,0:0:0:0:
320,192,122167,1,0,0:0:0:0:
192,192,122245,1,0,0:0:0:0:
320,192,122324,1,0,0:0:0:0:
192,192,122402,1,0,0:0:0:0:
448,192,122402,1,0,0:0:0:0:
64,192,122481,1,0,0:0:0:0:
320,192,122559,1,0,0:0:0:0:
192,192,122637,1,0,0:0:0:0:
448,192,122716,1,0,0:0:0:0:
64,192,122794,1,0,0:0:0:0:
192,192,122872,1,0,0:0:0:0:
320,192,122951,1,0,0:0:0:0:
64,192,123029,1,0,0:0:0:0:
448,192,123107,1,0,0:0:0:0:
320,192,123147,1,0,0:0:0:0:
192,192,123186,1,0,0:0:0:0:
64,192,123225,1,0,0:0:0:0:
448,192,123264,1,0,0:0:0:0:
320,192,123303,1,0,0:0:0:0:
64,192,123343,1,0,0:0:0:0:
192,192,123343,128,0,124297:0:0:0:0:
448,192,123581,1,0,0:0:0:0:
64,192,123701,1,0,0:0:0:0:
320,192,123701,1,0,0:0:0:0:
448,192,124059,1,0,0:0:0:0:
64,192,124178,1,0,0:0:0:0:
64,192,124297,1,0,0:0:0:0:
320,192,124297,128,0,125252:0:0:0:0:
448,192,124297,1,0,0:0:0:0:
448,192,124775,1,0,0:0:0:0:
64,192,124894,1,0,0:0:0:0:
192,192,125163,1,0,0:0:0:0:
64,192,125252,128,0,126207:0:0:0:0:
192,192,125252,1,0,0:0:0:0:
448,192,125252,1,0,0:0:0:0:
448,192,125491,1,0,0:0:0:0:
192,192,125610,1,0,0:0:0:0:
320,192,125610,1,0,0:0:0:0:
320,192,125968,1,0,0:0:0:0:
448,192,125968,1,0,0:0:0:0:
320,192,126088,1,0,0:0:0:0:
192,192,126207,1,0,0:0:0:0:
448,192,126207,128,0,127162:0:0:0:0:
320,192,126326,1,0,0:0:0:0:
64,192,126446,1,0,0:0:0:0:
192,192,126565,1,0,0:0:0:0:
64,192,126684,1,0,0:0:0:0:
320,192,126684,1,0,0:0:0:0:
192,192,126804,1,0,0:0:0:0:
320,192,126923,1,0,0:0:0:0:
64,192,127043,1,0,0:0:0:0:
64,192,127162,1,0,0:0:0:0:
192,192,127162,128,0,128117:0:0:0:0:
320,192,127162,1,0,0:0:0:0:
64,192,127520,1,0,0:0:0:0:
320,192,127639,1,0,0:0:0:0:
448,192,127639,1,0,0:0:0:0:
448,192,127878,1,0,0:0:0:0:
64,192,128117,128,0,129072:0:0:0:0:
320,192,128117,1,0,0:0:0:0:
448,192,128117,1,0,0:0:0:0:
320,192,128594,1,0,0:0:0:0:
448,192,128594,1,0,0:0:0:0:
192,192,128713,1,0,0:0:0:0:
320,192,128833,1,0,0:0:0:0:
448,192,128833,1,0,0:0:0:0:
192,192,128893,1,0,0:0:0:0:
320,192,128952,1,0,0:0:0:0:
448,192,129012,1,0,0:0:0:0:
320,192,129072,128,0,130026:0:0:0:0:
192,192,129072,1,0,0:0:0:0:
64,192,129430,1,0,0:0:0:0:
192,192,129430,1,0,0:0:0:0:
64,192,129668,1,0,0:0:0:0:
448,192,129668,1,0,0:0:0:0:
64,192,129788,1,0,0:0:0:0:
192,192,129788,1,0,0:0:0:0:
448,192,129907,1,0,0:0:0:0:
64,192,130026,1,0,0:0:0:0:
192,192,130026,1,0,0:0:0:0:
448,192,130146,1,0,0:0:0:0:
320,192,130265,1,0,0:0:0:0:
192,192,130384,1,0,0:0:0:0:
320,192,130504,1,0,0:0:0:0:
64,192,130623,1,0,0:0:0:0:
448,192,130743,128,0,130981:0:0:0:0:
320,192,130782,1,0,0:0:0:0:
64,192,130822,1,0,0:0:0:0:
192,192,130862,1,0,0:0:0:0:
320,192,130922,1,0,0:0:0:0:
64,192,130981,128,0,131936:0:0:0:0:
192,192,130981,1,0,0:0:0:0:
192,192,131339,1,0,0:0:0:0:
448,192,131339,1,0,0:0:0:0:
320,192,131697,1,0,0:0:0:0:
448,192,131697,1,0,0:0:0:0:
192,192,131936,128,0,132891:0:0:0:0:
448,192,131936,1,0,0:0:0:0:
448,192,132414,1,0,0:0:0:0:
320,192,132533,1,0,0:0:0:0:
64,192,132652,1,0,0:0:0:0:
448,192,132652,1,0,0:0:0:0:
320,192,132772,1,0,0:0:0:0:
64,192,132772,1,0,0:0:0:0:
320,192,132891,1,0,0:0:0:0:
448,192,132891,128,0,133846:0:0:0:0:
192,192,133249,1,0,0:0:0:0:
320,192,133249,1,0,0:0:0:0:
64,192,133368,1,0,0:0:0:0:
320,192,133428,1,0,0:0:0:0:
192,192,133488,1,0,0:0:0:0:
64,192,133547,1,0,0:0:0:0:
320,192,133607,1,0,0:0:0:0:
64,192,133687,1,0,0:0:0:0:
192,192,133766,1,0,0:0:0:0:
320,192,133846,128,0,135159:0:0:0:0:
64,192,133925,1,0,0:0:0:0:
192,192,134005,1,0,0:0:0:0:
448,192,134084,1,0,0:0:0:0:
64,192,134164,1,0,0:0:0:0:
448,192,134244,1,0,0:0:0:0:
192,192,134323,1,0,0:0:0:0:
64,192,134383,1,0,0:0:0:0:
192,192,134443,1,0,0:0:0:0:
448,192,134502,1,0,0:0:0:0:
64,192,134562,1,0,0:0:0:0:
448,192,134641,128,0,136676:0:0:0:0:
192,192,134721,128,0,137191:0:0:0:0:
64,192,134801,128,0,136161:0:0:0:0:
320,192,135279,128,0,135651:0:0:0:0:
320,192,135775,128,0,139272:0:0:0:0:
64,192,136290,128,0,138220:0:0:0:0:
448,192,136805,128,0,138734:0:0:0:0:
192,192,137319,128,0,137705:0:0:0:0:
192,192,137834,128,0,138734:0:0:0:0:
64,192,138348,128,0,140423:0:0:0:0:
192,192,138863,128,0,139828:0:0:0:0:
448,192,138863,128,0,141069:0:0:0:0:
320,192,139408,128,0,142326:0:0:0:0:
192,192,139968,128,0,141746:0:0:0:0:
64,192,140574,128,0,142973:0:0:0:0:
448,192,141235,128,0,145244:0:0:0:0:
192,192,141916,128,0,143598:0:0:0:0:
320,192,142462,128,0,145244:0:0:0:0:
64,192,143143,128,0,145244:0:0:0:0:
192,192,143750,128,0,145244:0:0:0:0:
448,192,145493,1,0,0:0:0:0:
64,192,145603,1,0,0:0:0:0:
448,192,145712,1,0,0:0:0:0:
448,192,145821,1,0,0:0:0:0:
320,192,145930,1,0,0:0:0:0:
320,192,146039,1,0,0:0:0:0:
192,192,146148,1,0,0:0:0:0:
192,192,146257,1,0,0:0:0:0:
64,192,146366,1,0,0:0:0:0:
64,192,146475,1,0,0:0:0:0:
192,192,146584,1,0,0:0:0:0:
192,192,146694,1,0,0:0:0:0:
320,192,146803,1,0,0:0:0:0:
320,192,146912,1,0,0:0:0:0:
192,192,147021,1,0,0:0:0:0:
192,192,147130,1,0,0:0:0:0:
448,192,147239,1,0,0:0:0:0:
320,192,147348,1,0,0:0:0:0:
448,192,147348,1,0,0:0:0:0:
64,192,147421,1,0,0:0:0:0:
192,192,147421,1,0,0:0:0:0:
448,192,147494,1,0,0:0:0:0:
64,192,147567,1,0,0:0:0:0:
320,192,147567,1,0,0:0:0:0:
192,192,147639,1,0,0:0:0:0:
448,192,147639,1,0,0:0:0:0:
320,192,147712,1,0,0:0:0:0:
64,192,147785,1,0,0:0:0:0:
448,192,147785,1,0,0:0:0:0:
192,192,147858,1,0,0:0:0:0:
320,192,147858,1,0,0:0:0:0:
448,192,147930,1,0,0:0:0:0:
64,192,148003,1,0,0:0:0:0:
192,192,148003,1,0,0:0:0:0:
320,192,148076,1,0,0:0:0:0:
448,192,148076,1,0,0:0:0:0:
192,192,148149,1,0,0:0:0:0:
64,192,148221,1,0,0:0:0:0:
448,192,148221,1,0,0:0:0:0:
192,192,148294,1,0,0:0:0:0:
320,192,148294,1,0,0:0:0:0:
448,192,148367,1,0,0:0:0:0:
64,192,148439,1,0,0:0:0:0:
192,192,148439,1,0,0:0:0:0:
320,192,148512,1,0,0:0:0:0:
448,192,148512,1,0,0:0:0:0:
192,192,148585,1,0,0:0:0:0:
64,192,148658,1,0,0:0:0:0:
320,192,148658,1,0,0:0:0:0:
192,192,148730,1,0,0:0:0:0:
448,192,148730,1,0,0:0:0:0:
64,192,148803,1,0,0:0:0:0:
320,192,148876,1,0,0:0:0:0:
448,192,148876,1,0,0:0:0:0:
192,192,148930,1,0,0:0:0:0:
64,192,148985,1,0,0:0:0:0:
320,192,148985,1,0,0:0:0:0:
448,192,148985,1,0,0:0:0:0:
64,192,149203,1,0,0:0:0:0:
448,192,149258,1,0,0:0:0:0:
64,192,149312,1,0,0:0:0:0:
192,192,149312,1,0,0:0:0:0:
320,192,149312,1,0,0:0:0:0:
448,192,149367,1,0,0:0:0:0:
320,192,149421,1,0,0:0:0:0:
192,192,149476,1,0,0:0:0:0:
64,192,149530,1,0,0:0:0:0:
320,192,149585,1,0,0:0:0:0:
448,192,149639,1,0,0:0:0:0:
64,192,149694,1,0,0:0:0:0:
192,192,149749,1,0,0:0:0:0:
320,192,149749,1,0,0:0:0:0:
448,192,149749,1,0,0:0:0:0:
64,192,149803,1,0,0:0:0:0:
320,192,149858,1,0,0:0:0:0:
192,192,149912,1,0,0:0:0:0:
64,192,149967,1,0,0:0:0:0:
448,192,149967,1,0,0:0:0:0:
192,192,150021,1,0,0:0:0:0:
320,192,150076,1,0,0:0:0:0:
448,192,150130,1,0,0:0:0:0:
64,192,150185,1,0,0:0:0:0:
192,192,150185,1,0,0:0:0:0:
320,192,150185,1,0,0:0:0:0:
448,192,150239,1,0,0:0:0:0:
320,192,150294,1,0,0:0:0:0:
192,192,150349,1,0,0:0:0:0:
64,192,150403,1,0,0:0:0:0:
320,192,150458,1,0,0:0:0:0:
192,192,150512,1,0,0:0:0:0:
448,192,150567,1,0,0:0:0:0:
64,192,150621,1,0,0:0:0:0:
192,192,150621,1,0,0:0:0:0:
320,192,150621,1,0,0:0:0:0:
448,192,150676,1,0,0:0:0:0:
192,192,150730,1,0,0:0:0:0:
320,192,150730,1,0,0:0:0:0:
64,192,150785,1,0,0:0:0:0:
448,192,150839,1,0,0:0:0:0:
192,192,150894,1,0,0:0:0:0:
320,192,150949,1,0,0:0:0:0:
64,192,151003,1,0,0:0:0:0:
192,192,151058,1,0,0:0:0:0:
320,192,151058,1,0,0:0:0:0:
448,192,151058,1,0,0:0:0:0:
64,192,151112,1,0,0:0:0:0:
320,192,151167,1,0,0:0:0:0:
192,192,151221,1,0,0:0:0:0:
448,192,151276,1,0,0:0:0:0:
64,192,151330,1,0,0:0:0:0:
192,192,151385,1,0,0:0:0:0:
320,192,151439,1,0,0:0:0:0:
64,192,151494,1,0,0:0:0:0:
192,192,151494,1,0,0:0:0:0:
448,192,151494,1,0,0:0:0:0:
320,192,151549,1,0,0:0:0:0:
192,192,151603,1,0,0:0:0:0:
448,192,151658,1,0,0:0:0:0:
64,192,151712,1,0,0:0:0:0:
192,192,151712,1,0,0:0:0:0:
448,192,151767,1,0,0:0:0:0:
320,192,151821,1,0,0:0:0:0:
64,192,151876,1,0,0:0:0:0:
192,192,151930,1,0,0:0:0:0:
320,192,151930,1,0,0:0:0:0:
448,192,151930,1,0,0:0:0:0:
64,192,151985,1,0,0:0:0:0:
192,192,152039,1,0,0:0:0:0:
320,192,152094,1,0,0:0:0:0:
448,192,152149,1,0,0:0:0:0:
192,192,152203,1,0,0:0:0:0:
320,192,152258,1,0,0:0:0:0:
448,192,152312,1,0,0:0:0:0:
64,192,152367,1,0,0:0:0:0:
192,192,152367,1,0,0:0:0:0:
320,192,152367,1,0,0:0:0:0:
448,192,152421,1,0,0:0:0:0:
320,192,152476,1,0,0:0:0:0:
192,192,152530,1,0,0:0:0:0:
320,192,152585,1,0,0:0:0:0:
448,192,152585,1,0,0:0:0:0:
64,192,152639,1,0,0:0:0:0:
192,192,152658,1,0,0:0:0:0:
320,192,152694,1,0,0:0:0:0:
448,192,152730,1,0,0:0:0:0:
64,192,152749,1,0,0:0:0:0:
192,192,152803,1,0,0:0:0:0:
320,192,152803,1,0,0:0:0:0:
448,192,152803,1,0,0:0:0:0:
64,192,152858,1,0,0:0:0:0:
192,192,152912,1,0,0:0:0:0:
320,192,152912,1,0,0:0:0:0:
448,192,152967,1,0,0:0:0:0:
64,192,153021,1,0,0:0:0:0:
192,192,153021,1,0,0:0:0:0:
320,192,153076,1,0,0:0:0:0:
192,192,153130,1,0,0:0:0:0:
448,192,153130,1,0,0:0:0:0:
320,192,153185,1,0,0:0:0:0:
64,192,153239,1,0,0:0:0:0:
192,192,153239,1,0,0:0:0:0:
448,192,153239,1,0,0:0:0:0:
320,192,153294,1,0,0:0:0:0:
64,192,153349,1,0,0:0:0:0:
192,192,153349,1,0,0:0:0:0:
448,192,153403,1,0,0:0:0:0:
192,192,153458,1,0,0:0:0:0:
320,192,153458,1,0,0:0:0:0:
64,192,153512,1,0,0:0:0:0:
320,192,153567,1,0,0:0:0:0:
448,192,153567,1,0,0:0:0:0:
64,192,153621,1,0,0:0:0:0:
192,192,153676,1,0,0:0:0:0:
320,192,153676,1,0,0:0:0:0:
448,192,153676,1,0,0:0:0:0:
64,192,153730,1,0,0:0:0:0:
192,192,153785,1,0,0:0:0:0:
448,192,153785,1,0,0:0:0:0:
64,192,153839,1,0,0:0:0:0:
320,192,153894,1,0,0:0:0:0:
448,192,153894,1,0,0:0:0:0:
192,192,153949,1,0,0:0:0:0:
64,192,154003,1,0,0:0:0:0:
448,192,154003,1,0,0:0:0:0:
320,192,154058,1,0,0:0:0:0:
64,192,154112,1,0,0:0:0:0:
192,192,154112,1,0,0:0:0:0:
448,192,154112,1,0,0:0:0:0:
320,192,154167,1,0,0:0:0:0:
64,192,154221,1,0,0:0:0:0:
448,192,154221,1,0,0:0:0:0:
192,192,154276,1,0,0:0:0:0:
320,192,154294,1,0,0:0:0:0:
448,192,154330,1,0,0:0:0:0:
192,192,154367,1,0,0:0:0:0:
64,192,154385,1,0,0:0:0:0:
320,192,154439,1,0,0:0:0:0:
448,192,154494,1,0,0:0:0:0:
64,192,154549,1,0,0:0:0:0:
192,192,154549,1,0,0:0:0:0:
320,192,154549,1,0,0:0:0:0:
448,192,154603,1,0,0:0:0:0:
64,192,154658,1,0,0:0:0:0:
192,192,154658,1,0,0:0:0:0:
448,192,154712,1,0,0:0:0:0:
192,192,154767,1,0,0:0:0:0:
320,192,154767,1,0,0:0:0:0:
64,192,154821,1,0,0:0:0:0:
320,192,154876,1,0,0:0:0:0:
448,192,154876,1,0,0:0:0:0:
192,192,154930,1,0,0:0:0:0:
64,192,154985,1,0,0:0:0:0:
320,192,154985,1,0,0:0:0:0:
448,192,154985,1,0,0:0:0:0:
192,192,155039,1,0,0:0:0:0:
320,192,155094,1,0,0:0:0:0:
448,192,155094,1,0,0:0:0:0:
64,192,155149,1,0,0:0:0:0:
192,192,155203,1,0,0:0:0:0:
320,192,155203,1,0,0:0:0:0:
448,192,155258,1,0,0:0:0:0:
64,192,155312,1,0,0:0:0:0:
192,192,155312,1,0,0:0:0:0:
448,192,155367,1,0,0:0:0:0:
64,192,155421,1,0,0:0:0:0:
192,192,155421,1,0,0:0:0:0:
320,192,155421,1,0,0:0:0:0:
448,192,155476,1,0,0:0:0:0:
192,192,155530,1,0,0:0:0:0:
320,192,155530,1,0,0:0:0:0:
64,192,155585,1,0,0:0:0:0:
192,192,155639,1,0,0:0:0:0:
320,192,155639,1,0,0:0:0:0:
448,192,155639,1,0,0:0:0:0:
192,192,155749,1,0,0:0:0:0:
320,192,155749,1,0,0:0:0:0:
64,192,155858,1,0,0:0:0:0:
192,192,155858,1,0,0:0:0:0:
64,192,155967,1,0,0:0:0:0:
192,192,155967,1,0,0:0:0:0:
320,192,155967,1,0,0:0:0:0:
448,192,155967,1,0,0:0:0:0:
448,192,156185,1,0,0:0:0:0:
192,192,156239,1,0,0:0:0:0:
64,192,156294,1,0,0:0:0:0:
320,192,156294,1,0,0:0:0:0:
448,192,156294,1,0,0:0:0:0:
192,192,156349,1,0,0:0:0:0:
320,192,156403,1,0,0:0:0:0:
448,192,156458,1,0,0:0:0:0:
64,192,156512,1,0,0:0:0:0:
192,192,156512,1,0,0:0:0:0:
448,192,156567,1,0,0:0:0:0:
320,192,156621,1,0,0:0:0:0:
64,192,156676,1,0,0:0:0:0:
192,192,156730,1,0,0:0:0:0:
320,192,156730,1,0,0:0:0:0:
448,192,156730,1,0,0:0:0:0:
64,192,156785,1,0,0:0:0:0:
192,192,156839,1,0,0:0:0:0:
320,192,156894,1,0,0:0:0:0:
64,192,156949,1,0,0:0:0:0:
448,192,156949,1,0,0:0:0:0:
320,192,157003,1,0,0:0:0:0:
192,192,157058,1,0,0:0:0:0:
448,192,157112,1,0,0:0:0:0:
64,192,157167,1,0,0:0:0:0:
192,192,157167,1,0,0:0:0:0:
320,192,157167,1,0,0:0:0:0:
448,192,157221,1,0,0:0:0:0:
320,192,157276,1,0,0:0:0:0:
192,192,157330,1,0,0:0:0:0:
448,192,157385,1,0,0:0:0:0:
320,192,157439,1,0,0:0:0:0:
64,192,157494,1,0,0:0:0:0:
192,192,157494,1,0,0:0:0:0:
448,192,157549,1,0,0:0:0:0:
64,192,157603,1,0,0:0:0:0:
192,192,157603,1,0,0:0:0:0:
320,192,157603,1,0,0:0:0:0:
448,192,157658,1,0,0:0:0:0:
64,192,157712,1,0,0:0:0:0:
192,192,157712,1,0,0:0:0:0:
320,192,157767,1,0,0:0:0:0:
448,192,157767,1,0,0:0:0:0:
64,192,157821,1,0,0:0:0:0:
192,192,157821,1,0,0:0:0:0:
448,192,157876,1,0,0:0:0:0:
320,192,157930,1,0,0:0:0:0:
192,192,157985,1,0,0:0:0:0:
64,192,158039,1,0,0:0:0:0:
320,192,158039,1,0,0:0:0:0:
448,192,158039,1,0,0:0:0:0:
192,192,158094,1,0,0:0:0:0:
448,192,158149,1,0,0:0:0:0:
320,192,158203,1,0,0:0:0:0:
64,192,158258,1,0,0:0:0:0:
192,192,158258,1,0,0:0:0:0:
320,192,158312,1,0,0:0:0:0:
448,192,158367,1,0,0:0:0:0:
64,192,158421,1,0,0:0:0:0:
192,192,158476,1,0,0:0:0:0:
320,192,158476,1,0,0:0:0:0:
448,192,158476,1,0,0:0:0:0:
64,192,158530,1,0,0:0:0:0:
320,192,158585,1,0,0:0:0:0:
192,192,158639,1,0,0:0:0:0:
64,192,158694,1,0,0:0:0:0:
448,192,158694,1,0,0:0:0:0:
320,192,158749,1,0,0:0:0:0:
448,192,158803,1,0,0:0:0:0:
192,192,158858,1,0,0:0:0:0:
64,192,158912,1,0,0:0:0:0:
320,192,158912,1,0,0:0:0:0:
448,192,158912,1,0,0:0:0:0:
192,192,158967,1,0,0:0:0:0:
320,192,159021,1,0,0:0:0:0:
448,192,159076,1,0,0:0:0:0:
64,192,159130,1,0,0:0:0:0:
448,192,159185,1,0,0:0:0:0:
192,192,159239,1,0,0:0:0:0:
320,192,159294,1,0,0:0:0:0:
64,192,159349,1,0,0:0:0:0:
192,192,159349,1,0,0:0:0:0:
448,192,159349,1,0,0:0:0:0:
64,192,159458,1,0,0:0:0:0:
320,192,159458,1,0,0:0:0:0:
448,192,159458,1,0,0:0:0:0:
320,192,159676,1,0,0:0:0:0:
64,192,159730,1,0,0:0:0:0:
192,192,159785,1,0,0:0:0:0:
320,192,159785,1,0,0:0:0:0:
448,192,159785,1,0,0:0:0:0:
64,192,159839,1,0,0:0:0:0:
192,192,159894,1,0,0:0:0:0:
320,192,159894,1,0,0:0:0:0:
448,192,159949,1,0,0:0:0:0:
64,192,160003,1,0,0:0:0:0:
192,192,160003,1,0,0:0:0:0:
448,192,160058,1,0,0:0:0:0:
64,192,160112,1,0,0:0:0:0:
320,192,160112,1,0,0:0:0:0:
192,192,160167,1,0,0:0:0:0:
64,192,160221,1,0,0:0:0:0:
320,192,160221,1,0,0:0:0:0:
448,192,160221,1,0,0:0:0:0:
192,192,160276,1,0,0:0:0:0:
320,192,160330,1,0,0:0:0:0:
448,192,160330,1,0,0:0:0:0:
64,192,160385,1,0,0:0:0:0:
192,192,160439,1,0,0:0:0:0:
320,192,160439,1,0,0:0:0:0:
448,192,160494,1,0,0:0:0:0:
64,192,160549,1,0,0:0:0:0:
192,192,160549,1,0,0:0:0:0:
320,192,160603,1,0,0:0:0:0:
64,192,160658,1,0,0:0:0:0:
192,192,160658,1,0,0:0:0:0:
448,192,160658,1,0,0:0:0:0:
320,192,160712,1,0,0:0:0:0:
64,192,160767,1,0,0:0:0:0:
448,192,160767,1,0,0:0:0:0:
192,192,160821,1,0,0:0:0:0:
64,192,160876,1,0,0:0:0:0:
320,192,160876,1,0,0:0:0:0:
448,192,160930,1,0,0:0:0:0:
192,192,160985,1,0,0:0:0:0:
320,192,160985,1,0,0:0:0:0:
64,192,161039,1,0,0:0:0:0:
192,192,161094,1,0,0:0:0:0:
320,192,161094,1,0,0:0:0:0:
448,192,161094,1,0,0:0:0:0:
64,192,161149,1,0,0:0:0:0:
320,192,161203,1,0,0:0:0:0:
448,192,161203,1,0,0:0:0:0:
64,192,161258,1,0,0:0:0:0:
192,192,161312,1,0,0:0:0:0:
320,192,161367,1,0,0:0:0:0:
448,192,161421,1,0,0:0:0:0:
192,192,161476,1,0,0:0:0:0:
64,192,161530,1,0,0:0:0:0:
320,192,161530,1,0,0:0:0:0:
448,192,161530,1,0,0:0:0:0:
192,192,161585,1,0,0:0:0:0:
320,192,161639,1,0,0:0:0:0:
448,192,161639,1,0,0:0:0:0:
64,192,161694,1,0,0:0:0:0:
192,192,161749,1,0,0:0:0:0:
448,192,161803,1,0,0:0:0:0:
320,192,161858,1,0,0:0:0:0:
64,192,161912,1,0,0:0:0:0:
192,192,161967,1,0,0:0:0:0:
320,192,161967,1,0,0:0:0:0:
448,192,161967,1,0,0:0:0:0:
64,192,162021,1,0,0:0:0:0:
320,192,162076,1,0,0:0:0:0:
448,192,162076,1,0,0:0:0:0:
192,192,162130,1,0,0:0:0:0:
64,192,162185,1,0,0:0:0:0:
448,192,162185,1,0,0:0:0:0:
320,192,162239,1,0,0:0:0:0:
192,192,162258,1,0,0:0:0:0:
64,192,162294,1,0,0:0:0:0:
320,192,162330,1,0,0:0:0:0:
448,192,162349,1,0,0:0:0:0:
64,192,162403,1,0,0:0:0:0:
192,192,162403,1,0,0:0:0:0:
448,192,162458,1,0,0:0:0:0:
320,192,162476,1,0,0:0:0:0:
64,192,162512,1,0,0:0:0:0:
192,192,162549,1,0,0:0:0:0:
448,192,162567,1,0,0:0:0:0:
64,192,162621,1,0,0:0:0:0:
320,192,162621,1,0,0:0:0:0:
192,192,162676,1,0,0:0:0:0:
320,192,162730,1,0,0:0:0:0:
448,192,162730,1,0,0:0:0:0:
64,192,162785,1,0,0:0:0:0:
192,192,162839,1,0,0:0:0:0:
320,192,162839,1,0,0:0:0:0:
448,192,162894,1,0,0:0:0:0:
64,192,162949,1,0,0:0:0:0:
320,192,162949,1,0,0:0:0:0:
192,192,163003,1,0,0:0:0:0:
320,192,163058,1,0,0:0:0:0:
448,192,163058,1,0,0:0:0:0:
192,192,163130,1,0,0:0:0:0:
64,192,163203,1,0,0:0:0:0:
192,192,163276,1,0,0:0:0:0:
64,192,163349,1,0,0:0:0:0:
192,192,163421,1,0,0:0:0:0:
64,192,163494,1,0,0:0:0:0:
448,192,163494,1,0,0:0:0:0:
320,192,163567,1,0,0:0:0:0:
448,192,163639,1,0,0:0:0:0:
320,192,163712,1,0,0:0:0:0:
448,192,163785,1,0,0:0:0:0:
320,192,163858,1,0,0:0:0:0:
64,192,163930,1,0,0:0:0:0:
192,192,163930,1,0,0:0:0:0:
448,192,163930,1,0,0:0:0:0:
320,192,163985,1,0,0:0:0:0:
64,192,164039,1,0,0:0:0:0:
192,192,164039,1,0,0:0:0:0:
320,192,164094,1,0,0:0:0:0:
448,192,164094,1,0,0:0:0:0:
64,192,164149,1,0,0:0:0:0:
192,192,164149,1,0,0:0:0:0:
320,192,164203,1,0,0:0:0:0:
448,192,164203,1,0,0:0:0:0:
64,192,164258,1,0,0:0:0:0:
192,192,164258,1,0,0:0:0:0:
320,192,164312,1,0,0:0:0:0:
448,192,164312,1,0,0:0:0:0:
64,192,164367,1,0,0:0:0:0:
192,192,164367,1,0,0:0:0:0:
64,192,164694,1,0,0:0:0:0:
192,192,164694,1,0,0:0:0:0:
320,192,164694,1,0,0:0:0:0:
448,192,164694,1,0,0:0:0:0:
64,192,164912,1,0,0:0:0:0:
192,192,164912,1,0,0:0:0:0:
320,192,164967,1,0,0:0:0:0:
64,192,165021,1,0,0:0:0:0:
448,192,165021,1,0,0:0:0:0:
192,192,165076,1,0,0:0:0:0:
64,192,165130,1,0,0:0:0:0:
320,192,165130,1,0,0:0:0:0:
192,192,165185,1,0,0:0:0:0:
64,192,165239,1,0,0:0:0:0:
320,192,165239,1,0,0:0:0:0:
448,192,165294,1,0,0:0:0:0:
64,192,165349,1,0,0:0:0:0:
320,192,165349,1,0,0:0:0:0:
192,192,165403,1,0,0:0:0:0:
320,192,165458,1,0,0:0:0:0:
448,192,165458,1,0,0:0:0:0:
64,192,165512,1,0,0:0:0:0:
192,192,165567,1,0,0:0:0:0:
448,192,165567,1,0,0:0:0:0:
320,192,165621,1,0,0:0:0:0:
192,192,165676,1,0,0:0:0:0:
448,192,165676,1,0,0:0:0:0:
64,192,165730,1,0,0:0:0:0:
192,192,165785,1,0,0:0:0:0:
448,192,165785,1,0,0:0:0:0:
320,192,165839,1,0,0:0:0:0:
64,192,165894,1,0,0:0:0:0:
192,192,165894,1,0,0:0:0:0:
448,192,165948,1,0,0:0:0:0:
192,192,166003,1,0,0:0:0:0:
320,192,166003,1,0,0:0:0:0:
64,192,166058,1,0,0:0:0:0:
192,192,166112,1,0,0:0:0:0:
320,192,166112,1,0,0:0:0:0:
448,192,166167,1,0,0:0:0:0:
192,192,166221,1,0,0:0:0:0:
320,192,166221,1,0,0:0:0:0:
64,192,166276,1,0,0:0:0:0:
320,192,166330,1,0,0:0:0:0:
448,192,166330,1,0,0:0:0:0:
192,192,166385,1,0,0:0:0:0:
64,192,166439,1,0,0:0:0:0:
320,192,166439,1,0,0:0:0:0:
192,192,166494,1,0,0:0:0:0:
448,192,166548,1,0,0:0:0:0:
192,192,166603,1,0,0:0:0:0:
64,192,166658,1,0,0:0:0:0:
320,192,166658,1,0,0:0:0:0:
192,192,166712,1,0,0:0:0:0:
64,192,166767,1,0,0:0:0:0:
448,192,166767,1,0,0:0:0:0:
192,192,166821,1,0,0:0:0:0:
320,192,166876,1,0,0:0:0:0:
448,192,166876,1,0,0:0:0:0:
64,192,166930,1,0,0:0:0:0:
320,192,166985,1,0,0:0:0:0:
448,192,166985,1,0,0:0:0:0:
192,192,167039,1,0,0:0:0:0:
320,192,167094,1,0,0:0:0:0:
448,192,167094,1,0,0:0:0:0:
64,192,167148,1,0,0:0:0:0:
192,192,167203,1,0,0:0:0:0:
320,192,167203,1,0,0:0:0:0:
448,192,167258,1,0,0:0:0:0:
64,192,167312,1,0,0:0:0:0:
192,192,167312,1,0,0:0:0:0:
320,192,167367,1,0,0:0:0:0:
64,192,167421,1,0,0:0:0:0:
192,192,167421,1,0,0:0:0:0:
448,192,167476,1,0,0:0:0:0:
64,192,167530,1,0,0:0:0:0:
192,192,167530,1,0,0:0:0:0:
320,192,167585,1,0,0:0:0:0:
64,192,167639,1,0,0:0:0:0:
448,192,167639,1,0,0:0:0:0:
320,192,167694,1,0,0:0:0:0:
192,192,167748,1,0,0:0:0:0:
448,192,167748,1,0,0:0:0:0:
64,192,167803,1,0,0:0:0:0:
192,192,167858,1,0,0:0:0:0:
448,192,167858,1,0,0:0:0:0:
320,192,167912,1,0,0:0:0:0:
192,192,167967,1,0,0:0:0:0:
448,192,167967,1,0,0:0:0:0:
64,192,168021,1,0,0:0:0:0:
320,192,168076,1,0,0:0:0:0:
448,192,168076,1,0,0:0:0:0:
192,192,168130,1,0,0:0:0:0:
64,192,168185,1,0,0:0:0:0:
448,192,168185,1,0,0:0:0:0:
320,192,168239,1,0,0:0:0:0:
192,192,168294,1,0,0:0:0:0:
448,192,168348,1,0,0:0:0:0:
64,192,168403,1,0,0:0:0:0:
320,192,168403,1,0,0:0:0:0:
192,192,168458,1,0,0:0:0:0:
64,192,168512,1,0,0:0:0:0:
448,192,168512,1,0,0:0:0:0:
320,192,168567,1,0,0:0:0:0:
192,192,168621,1,0,0:0:0:0:
448,192,168621,1,0,0:0:0:0:
64,192,168676,1,0,0:0:0:0:
192,192,168730,1,0,0:0:0:0:
448,192,168730,1,0,0:0:0:0:
320,192,168785,1,0,0:0:0:0:
192,192,168839,1,0,0:0:0:0:
448,192,168839,1,0,0:0:0:0:
64,192,168894,1,0,0:0:0:0:
320,192,168948,1,0,0:0:0:0:
448,192,168948,1,0,0:0:0:0:
192,192,169003,1,0,0:0:0:0:
64,192,169058,1,0,0:0:0:0:
320,192,169058,1,0,0:0:0:0:
192,192,169112,1,0,0:0:0:0:
64,192,169167,1,0,0:0:0:0:
320,192,169167,1,0,0:0:0:0:
448,192,169221,1,0,0:0:0:0:
64,192,169276,1,0,0:0:0:0:
320,192,169276,1,0,0:0:0:0:
192,192,169330,1,0,0:0:0:0:
64,192,169385,1,0,0:0:0:0:
448,192,169385,1,0,0:0:0:0:
320,192,169439,1,0,0:0:0:0:
192,192,169494,1,0,0:0:0:0:
448,192,169494,1,0,0:0:0:0:
64,192,169548,1,0,0:0:0:0:
192,192,169603,1,0,0:0:0:0:
448,192,169603,1,0,0:0:0:0:
320,192,169658,1,0,0:0:0:0:
192,192,169712,1,0,0:0:0:0:
448,192,169712,1,0,0:0:0:0:
64,192,169767,1,0,0:0:0:0:
320,192,169821,1,0,0:0:0:0:
448,192,169821,1,0,0:0:0:0:
192,192,169876,1,0,0:0:0:0:
64,192,169930,1,0,0:0:0:0:
320,192,169930,1,0,0:0:0:0:
448,192,169985,1,0,0:0:0:0:
192,192,170039,1,0,0:0:0:0:
320,192,170094,1,0,0:0:0:0:
64,192,170148,1,0,0:0:0:0:
448,192,170148,1,0,0:0:0:0:
192,192,170203,1,0,0:0:0:0:
64,192,170258,1,0,0:0:0:0:
320,192,170258,1,0,0:0:0:0:
448,192,170312,1,0,0:0:0:0:
64,192,170367,1,0,0:0:0:0:
192,192,170367,1,0,0:0:0:0:
320,192,170421,1,0,0:0:0:0:
64,192,170476,1,0,0:0:0:0:
192,192,170476,1,0,0:0:0:0:
448,192,170530,1,0,0:0:0:0:
64,192,170585,1,0,0:0:0:0:
192,192,170585,1,0,0:0:0:0:
448,192,170639,1,0,0:0:0:0:
192,192,170694,1,0,0:0:0:0:
320,192,170694,1,0,0:0:0:0:
64,192,170748,1,0,0:0:0:0:
192,192,170803,1,0,0:0:0:0:
448,192,170803,1,0,0:0:0:0:
320,192,170858,1,0,0:0:0:0:
192,192,170912,1,0,0:0:0:0:
448,192,170912,1,0,0:0:0:0:
64,192,170967,1,0,0:0:0:0:
192,192,171021,1,0,0:0:0:0:
448,192,171021,1,0,0:0:0:0:
320,192,171076,1,0,0:0:0:0:
64,192,171130,1,0,0:0:0:0:
192,192,171130,1,0,0:0:0:0:
448,192,171185,1,0,0:0:0:0:
64,192,171239,1,0,0:0:0:0:
320,192,171239,1,0,0:0:0:0:
192,192,171294,1,0,0:0:0:0:
64,192,171348,1,0,0:0:0:0:
320,192,171348,1,0,0:0:0:0:
448,192,171348,1,0,0:0:0:0:
64,192,171458,1,0,0:0:0:0:
192,192,171458,1,0,0:0:0:0:
320,192,171458,1,0,0:0:0:0:
64,192,171567,1,0,0:0:0:0:
192,192,171567,1,0,0:0:0:0:
448,192,171567,1,0,0:0:0:0:
64,192,171676,1,0,0:0:0:0:
192,192,171676,1,0,0:0:0:0:
320,192,171676,1,0,0:0:0:0:
448,192,171676,1,0,0:0:0:0:
320,192,171894,1,0,0:0:0:0:
448,192,171894,1,0,0:0:0:0:
64,192,171948,1,0,0:0:0:0:
192,192,172003,1,0,0:0:0:0:
320,192,172003,1,0,0:0:0:0:
448,192,172058,1,0,0:0:0:0:
64,192,172112,1,0,0:0:0:0:
320,192,172112,1,0,0:0:0:0:
192,192,172167,1,0,0:0:0:0:
64,192,172221,1,0,0:0:0:0:
320,192,172221,1,0,0:0:0:0:
448,192,172276,1,0,0:0:0:0:
64,192,172330,1,0,0:0:0:0:
320,192,172330,1,0,0:0:0:0:
192,192,172385,1,0,0:0:0:0:
320,192,172439,1,0,0:0:0:0:
448,192,172439,1,0,0:0:0:0:
192,192,172494,1,0,0:0:0:0:
64,192,172548,1,0,0:0:0:0:
448,192,172548,1,0,0:0:0:0:
320,192,172603,1,0,0:0:0:0:
64,192,172658,1,0,0:0:0:0:
448,192,172658,1,0,0:0:0:0:
192,192,172712,1,0,0:0:0:0:
64,192,172767,1,0,0:0:0:0:
448,192,172767,1,0,0:0:0:0:
320,192,172821,1,0,0:0:0:0:
192,192,172876,1,0,0:0:0:0:
448,192,172876,1,0,0:0:0:0:
320,192,172930,1,0,0:0:0:0:
64,192,172985,1,0,0:0:0:0:
192,192,172985,1,0,0:0:0:0:
448,192,173039,1,0,0:0:0:0:
64,192,173094,1,0,0:0:0:0:
192,192,173094,1,0,0:0:0:0:
448,192,173148,1,0,0:0:0:0:
64,192,173203,1,0,0:0:0:0:
192,192,173203,1,0,0:0:0:0:
320,192,173258,1,0,0:0:0:0:
64,192,173312,1,0,0:0:0:0:
448,192,173312,1,0,0:0:0:0:
192,192,173367,1,0,0:0:0:0:
320,192,173421,1,0,0:0:0:0:
448,192,173421,1,0,0:0:0:0:
64,192,173476,1,0,0:0:0:0:
192,192,173530,1,0,0:0:0:0:
320,192,173585,1,0,0:0:0:0:
64,192,173639,1,0,0:0:0:0:
448,192,173639,1,0,0:0:0:0:
192,192,173694,1,0,0:0:0:0:
64,192,173748,1,0,0:0:0:0:
320,192,173748,1,0,0:0:0:0:
192,192,173803,1,0,0:0:0:0:
320,192,173858,1,0,0:0:0:0:
448,192,173858,1,0,0:0:0:0:
64,192,173912,1,0,0:0:0:0:
320,192,173967,1,0,0:0:0:0:
448,192,173967,1,0,0:0:0:0:
192,192,174021,1,0,0:0:0:0:
320,192,174076,1,0,0:0:0:0:
448,192,174076,1,0,0:0:0:0:
64,192,174130,1,0,0:0:0:0:
192,192,174185,1,0,0:0:0:0:
448,192,174185,1,0,0:0:0:0:
320,192,174239,1,0,0:0:0:0:
64,192,174294,1,0,0:0:0:0:
192,192,174294,1,0,0:0:0:0:
448,192,174348,1,0,0:0:0:0:
64,192,174403,1,0,0:0:0:0:
192,192,174403,1,0,0:0:0:0:
320,192,174458,1,0,0:0:0:0:
64,192,174512,1,0,0:0:0:0:
192,192,174512,1,0,0:0:0:0:
448,192,174567,1,0,0:0:0:0:
192,192,174621,1,0,0:0:0:0:
320,192,174621,1,0,0:0:0:0:
448,192,174676,1,0,0:0:0:0:
64,192,174730,1,0,0:0:0:0:
320,192,174730,1,0,0:0:0:0:
192,192,174785,1,0,0:0:0:0:
64,192,174839,1,0,0:0:0:0:
320,192,174839,1,0,0:0:0:0:
448,192,174894,1,0,0:0:0:0:
64,192,174948,1,0,0:0:0:0:
320,192,174948,1,0,0:0:0:0:
192,192,175003,1,0,0:0:0:0:
320,192,175058,1,0,0:0:0:0:
448,192,175058,1,0,0:0:0:0:
192,192,175112,1,0,0:0:0:0:
64,192,175167,1,0,0:0:0:0:
448,192,175167,1,0,0:0:0:0:
192,192,175221,1,0,0:0:0:0:
320,192,175276,1,0,0:0:0:0:
448,192,175330,1,0,0:0:0:0:
64,192,175385,1,0,0:0:0:0:
192,192,175385,1,0,0:0:0:0:
320,192,175439,1,0,0:0:0:0:
192,192,175494,1,0,0:0:0:0:
448,192,175494,1,0,0:0:0:0:
64,192,175548,1,0,0:0:0:0:
320,192,175603,1,0,0:0:0:0:
448,192,175603,1,0,0:0:0:0:
192,192,175658,1,0,0:0:0:0:
320,192,175712,1,0,0:0:0:0:
448,192,175712,1,0,0:0:0:0:
64,192,175767,1,0,0:0:0:0:
320,192,175821,1,0,0:0:0:0:
448,192,175821,1,0,0:0:0:0:
192,192,175876,1,0,0:0:0:0:
64,192,175930,1,0,0:0:0:0:
320,192,175930,1,0,0:0:0:0:
448,192,175985,1,0,0:0:0:0:
64,192,176039,1,0,0:0:0:0:
192,192,176039,1,0,0:0:0:0:
320,192,176094,1,0,0:0:0:0:
64,192,176148,1,0,0:0:0:0:
192,192,176148,1,0,0:0:0:0:
448,192,176203,1,0,0:0:0:0:
64,192,176258,1,0,0:0:0:0:
192,192,176258,1,0,0:0:0:0:
320,192,176312,1,0,0:0:0:0:
192,192,176367,1,0,0:0:0:0:
448,192,176367,1,0,0:0:0:0:
320,192,176421,1,0,0:0:0:0:
64,192,176476,1,0,0:0:0:0:
448,192,176476,1,0,0:0:0:0:
192,192,176530,1,0,0:0:0:0:
64,192,176585,1,0,0:0:0:0:
448,192,176585,1,0,0:0:0:0:
320,192,176639,1,0,0:0:0:0:
64,192,176694,1,0,0:0:0:0:
448,192,176694,1,0,0:0:0:0:
192,192,176748,1,0,0:0:0:0:
320,192,176803,1,0,0:0:0:0:
448,192,176803,1,0,0:0:0:0:
192,192,176858,1,0,0:0:0:0:
64,192,176912,1,0,0:0:0:0:
320,192,176912,1,0,0:0:0:0:
448,192,176967,1,0,0:0:0:0:
192,192,177021,1,0,0:0:0:0:
320,192,177076,1,0,0:0:0:0:
64,192,177130,1,0,0:0:0:0:
192,192,177185,1,0,0:0:0:0:
320,192,177239,1,0,0:0:0:0:
448,192,177294,1,0,0:0:0:0:
192,192,177348,1,0,0:0:0:0:
320,192,177403,1,0,0:0:0:0:
448,192,177458,1,0,0:0:0:0:
64,192,177512,1,0,0:0:0:0:
320,192,177567,1,0,0:0:0:0:
448,192,177621,1,0,0:0:0:0:
64,192,177676,1,0,0:0:0:0:
192,192,177730,1,0,0:0:0:0:
320,192,177785,1,0,0:0:0:0:
64,192,177839,1,0,0:0:0:0:
320,192,177894,1,0,0:0:0:0:
448,192,177894,1,0,0:0:0:0:
192,192,177948,1,0,0:0:0:0:
320,192,178003,1,0,0:0:0:0:
448,192,178003,1,0,0:0:0:0:
64,192,178058,1,0,0:0:0:0:
320,192,178112,1,0,0:0:0:0:
448,192,178112,1,0,0:0:0:0:
192,192,178167,1,0,0:0:0:0:
320,192,178221,1,0,0:0:0:0:
448,192,178221,1,0,0:0:0:0:
64,192,178276,1,0,0:0:0:0:
320,192,178330,1,0,0:0:0:0:
448,192,178330,1,0,0:0:0:0:
192,192,178385,1,0,0:0:0:0:
64,192,178439,1,0,0:0:0:0:
320,192,178439,1,0,0:0:0:0:
448,192,178439,1,0,0:0:0:0:
64,192,178548,1,0,0:0:0:0:
320,192,178548,1,0,0:0:0:0:
448,192,178548,1,0,0:0:0:0:
64,192,178658,128,0,179094:0:0:0:0:
192,192,178658,128,0,179094:0:0:0:0:
