osu file format v14

[General]
AudioFilename: audio 1.050x (pitch raised).mp3
AudioLeadIn: 0
PreviewTime: 34080
Countdown: 0
SampleSet: Soft
StackLeniency: 0.7
Mode: 3
LetterboxInBreaks: 0
SpecialStyle: 0
WidescreenStoryboard: 0

[Editor]
DistanceSpacing: 0.8
BeatDivisor: 4
GridSize: 32
TimelineZoom: 2.2

[Metadata]
Title:Time to Say Goodbye
TitleUnicode:Time to Say Goodbye
Artist:Jeff Williams feat. Casey Lee Williams
ArtistUnicode:Jeff Williams feat. Casey Lee Williams
Creator:Halogen-
Version:Farewell 1.05x (263bpm)
Source:RWBY Volume 2
Tags:Anime English TTSG op female vocals Original Soundtrack OST Stamina opening
BeatmapID:2701197
BeatmapSetID:1302447

[Difficulty]
HPDrainRate:8.5
CircleSize:4
OverallDifficulty:8.5
ApproachRate:5
SliderMultiplier:1.4
SliderTickRate:1

[Events]
//Background and Video events
0,0,"background.png",0,0
//Break Periods
//Storyboard Layer 0 (Background)
//Storyboard Layer 1 (Fail)
//Storyboard Layer 2 (Pass)
//Storyboard Layer 3 (Foreground)
//Storyboard Layer 4 (Overlay)
//Storyboard Sound Samples

[TimingPoints]
213,285.714285714286,4,2,0,100,1,0
213,-80,4,2,0,100,0,0
8641,300.75188,4,2,0,100,1,0
8641,-75.999999924,4,2,0,100,0,0
10145,248.447204761905,4,2,0,100,1,0
10145,-92.0000000766667,4,2,0,100,0,0
13500,238.095238095238,4,2,0,100,1,0
13500,-96,4,2,0,100,0,0
15166,228.571428571429,4,2,0,100,1,0
15166,-100,4,2,0,100,0,0
18138,228.571428571429,4,2,0,100,1,0
18138,-100,4,2,0,100,0,0
113223,270.819228571429,4,2,0,100,1,0
113223,-84.3999998734,4,2,0,100,0,0
114306,248.447204761905,4,2,0,100,1,0
114306,-92.0000000766667,4,2,0,100,0,0
115300,253.968254285714,4,2,0,100,1,0
115300,-89.9999998875,4,2,0,100,0,0
117078,243.161094285714,4,2,0,100,1,0
117078,-93.9999999765,4,2,0,100,0,0
117321,246.305419047619,4,2,0,100,1,0
117321,-92.7999998762667,4,2,0,100,0,0
118306,248.447204761905,4,2,0,100,1,0
118306,-92.0000000766667,4,2,0,100,0,0
118803,251.730648571429,4,2,0,100,1,0
118803,-90.79999986834,4,2,0,100,0,0
119306,246.305419047619,4,2,0,100,1,0
119306,-92.7999998762667,4,2,0,100,0,0
121277,245.248314285714,4,2,0,100,1,0
121277,-93.1999998602,4,2,0,100,0,0
122258,252.844500952381,4,2,0,100,1,0
122258,-90.3999998854933,4,2,0,100,0,0
123269,251.730648571429,4,2,0,100,1,0
123269,-90.79999986834,4,2,0,100,0,0
124277,250.626566666667,4,2,0,100,1,0
124277,-91.1999999088,4,2,0,100,0,0
124778,249.532127619048,4,2,0,100,1,0
124778,-91.5999998687067,4,2,0,100,0,0
125027,246.305419047619,4,2,0,100,1,0
125027,-92.7999998762667,4,2,0,100,0,0
125274,243.161094285714,4,2,0,100,1,0
125274,-93.9999999765,4,2,0,100,0,0
126003,253.968254285714,4,2,0,100,1,0
126003,-89.9999998875,4,2,0,100,0,0
126257,248.447204761905,4,2,0,100,1,0
126257,-92.0000000766667,4,2,0,100,0,0
126754,246.305419047619,4,2,0,100,1,0
126754,-92.7999998762667,4,2,0,100,0,0
129217,250.07814952381,4,2,0,100,1,0
129217,-91.3999999626783,4,2,0,100,0,0
141220,250.626566666667,4,2,0,100,1,0
141220,-91.1999999088,4,2,0,100,0,0
141721,259.74026,4,2,0,100,1,0
141721,-87.999999912,4,2,0,100,0,0
142241,269.541779047619,4,2,0,100,1,0
142241,-84.7999999773867,4,2,0,100,0,0
145476,285.714285714286,4,2,0,100,1,0
145476,-80,4,2,0,100,0,0
146047,293.040293333333,4,2,0,100,1,0
146047,-77.999999922,4,2,0,100,0,0
146634,317.460317142857,4,2,0,100,1,0
146634,-72.000000072,4,2,0,100,0,0
147268,346.320346666667,4,2,0,100,1,0
147268,-65.999999934,4,2,0,100,0,0
147960,357.142857142857,4,2,0,100,1,0
147960,-64,4,2,0,100,0,0
148675,285.714285714286,4,2,0,100,1,0
148675,-80,4,2,0,100,0,0
149246,357.142857142857,4,2,0,100,1,0
149246,-64,4,2,0,100,0,0
149960,317.460317142857,4,2,0,100,1,0
149960,-72.000000072,4,2,0,100,0,0
150596,521.852576190476,4,2,0,100,1,0
150596,-43.800000038325,4,2,0,100,0,0
152422,228.571428571429,4,2,0,100,1,0
152422,-100,4,2,0,100,0,0
154365,228.571428571429,4,2,0,100,1,0
154365,-100,4,2,0,100,0,0

[HitObjects]
448,192,1213,5,0,0:0:0:0:
64,192,1355,1,0,0:0:0:0:
192,192,1355,1,0,0:0:0:0:
448,192,1391,1,0,0:0:0:0:
320,192,1427,1,0,0:0:0:0:
192,192,1463,1,0,0:0:0:0:
64,192,1498,1,0,0:0:0:0:
320,192,1784,128,0,2070:0:0:0:0:
64,192,1927,128,0,2070:0:0:0:0:
192,192,2070,1,0,0:0:0:0:
64,192,2355,128,0,2641:0:0:0:0:
192,192,2498,128,0,2641:0:0:0:0:
320,192,2641,1,0,0:0:0:0:
320,192,2927,128,0,3213:0:0:0:0:
192,192,3070,128,0,3213:0:0:0:0:
448,192,3213,1,0,0:0:0:0:
64,192,3498,128,0,3784:0:0:0:0:
192,192,3641,128,0,3784:0:0:0:0:
320,192,3784,1,0,0:0:0:0:
448,192,4070,128,0,4355:0:0:0:0:
192,192,4213,128,0,4355:0:0:0:0:
320,192,4355,1,0,0:0:0:0:
320,192,4641,128,0,4927:0:0:0:0:
64,192,4713,128,0,4927:0:0:0:0:
448,192,4927,128,0,5213:0:0:0:0:
320,192,5213,128,0,5498:0:0:0:0:
192,192,5498,128,0,5784:0:0:0:0:
448,192,5784,128,0,6070:0:0:0:0:
192,192,6070,128,0,6927:0:0:0:0:
320,192,6070,128,0,7355:0:0:0:0:
64,192,6498,128,0,7355:0:0:0:0:
448,192,7355,128,0,7927:0:0:0:0:
64,192,7498,128,0,9392:0:0:0:0:
192,192,7927,128,0,9392:0:0:0:0:
320,192,8355,128,0,9392:0:0:0:0:
448,192,8641,128,0,9392:0:0:0:0:
448,192,9693,128,0,10145:0:0:0:0:
64,192,10145,128,0,10393:0:0:0:0:
320,192,10269,128,0,10393:0:0:0:0:
448,192,10269,1,0,0:0:0:0:
192,192,10393,1,0,0:0:0:0:
320,192,10641,128,0,10890:0:0:0:0:
64,192,10766,128,0,10890:0:0:0:0:
192,192,10766,1,0,0:0:0:0:
448,192,10890,1,0,0:0:0:0:
192,192,11138,128,0,11387:0:0:0:0:
64,192,11263,1,0,0:0:0:0:
448,192,11263,128,0,11387:0:0:0:0:
320,192,11387,1,0,0:0:0:0:
320,192,11635,128,0,11884:0:0:0:0:
64,192,11759,1,0,0:0:0:0:
192,192,11759,1,0,0:0:0:0:
448,192,11884,128,0,12132:0:0:0:0:
64,192,12132,128,0,12381:0:0:0:0:
192,192,12256,128,0,12381:0:0:0:0:
448,192,12256,1,0,0:0:0:0:
320,192,12381,1,0,0:0:0:0:
320,192,12629,128,0,12877:0:0:0:0:
448,192,12691,1,0,0:0:0:0:
64,192,12753,128,0,12877:0:0:0:0:
192,192,12753,1,0,0:0:0:0:
448,192,12877,1,0,0:0:0:0:
192,192,13126,128,0,13374:0:0:0:0:
64,192,13250,1,0,0:0:0:0:
320,192,13250,1,0,0:0:0:0:
448,192,13374,128,0,13619:0:0:0:0:
320,192,13619,128,0,13857:0:0:0:0:
64,192,13738,1,0,0:0:0:0:
448,192,13738,1,0,0:0:0:0:
192,192,13857,128,0,14095:0:0:0:0:
64,192,14095,128,0,14333:0:0:0:0:
320,192,14214,1,0,0:0:0:0:
448,192,14214,1,0,0:0:0:0:
192,192,14333,128,0,14690:0:0:0:0:
64,192,14452,1,0,0:0:0:0:
64,192,14571,1,0,0:0:0:0:
320,192,14690,1,0,0:0:0:0:
448,192,14690,1,0,0:0:0:0:
64,192,14809,1,0,0:0:0:0:
192,192,14928,1,0,0:0:0:0:
192,192,15047,1,0,0:0:0:0:
320,192,15166,1,0,0:0:0:0:
448,192,15166,1,0,0:0:0:0:
192,192,15280,1,0,0:0:0:0:
320,192,15394,1,0,0:0:0:0:
320,192,15508,1,0,0:0:0:0:
64,192,15623,1,0,0:0:0:0:
192,192,15623,1,0,0:0:0:0:
320,192,15737,1,0,0:0:0:0:
448,192,15851,1,0,0:0:0:0:
448,192,15966,1,0,0:0:0:0:
64,192,16080,1,0,0:0:0:0:
192,192,16080,1,0,0:0:0:0:
448,192,16194,1,0,0:0:0:0:
64,192,16308,1,0,0:0:0:0:
320,192,16308,1,0,0:0:0:0:
64,192,16423,1,0,0:0:0:0:
192,192,16537,1,0,0:0:0:0:
320,192,16537,1,0,0:0:0:0:
64,192,16651,1,0,0:0:0:0:
192,192,16766,1,0,0:0:0:0:
448,192,16766,1,0,0:0:0:0:
448,192,16880,1,0,0:0:0:0:
192,192,16994,1,0,0:0:0:0:
320,192,16994,1,0,0:0:0:0:
448,192,17108,1,0,0:0:0:0:
64,192,17223,1,0,0:0:0:0:
192,192,17223,1,0,0:0:0:0:
64,192,17337,1,0,0:0:0:0:
320,192,17337,1,0,0:0:0:0:
192,192,17451,1,0,0:0:0:0:
320,192,17451,1,0,0:0:0:0:
64,192,17566,1,0,0:0:0:0:
448,192,17566,1,0,0:0:0:0:
192,192,17680,1,0,0:0:0:0:
448,192,17680,1,0,0:0:0:0:
320,192,17794,1,0,0:0:0:0:
448,192,17794,1,0,0:0:0:0:
64,192,17908,1,0,0:0:0:0:
192,192,17908,1,0,0:0:0:0:
64,192,18023,1,0,0:0:0:0:
320,192,18023,1,0,0:0:0:0:
448,192,18023,1,0,0:0:0:0:
64,192,18252,1,0,0:0:0:0:
192,192,18309,1,0,0:0:0:0:
320,192,18366,1,0,0:0:0:0:
448,192,18366,1,0,0:0:0:0:
192,192,18423,1,0,0:0:0:0:
64,192,18480,1,0,0:0:0:0:
320,192,18538,1,0,0:0:0:0:
192,192,18595,1,0,0:0:0:0:
448,192,18595,1,0,0:0:0:0:
320,192,18652,1,0,0:0:0:0:
64,192,18709,1,0,0:0:0:0:
192,192,18766,1,0,0:0:0:0:
320,192,18823,1,0,0:0:0:0:
448,192,18823,1,0,0:0:0:0:
64,192,18880,1,0,0:0:0:0:
192,192,18938,1,0,0:0:0:0:
320,192,18995,1,0,0:0:0:0:
64,192,19052,1,0,0:0:0:0:
448,192,19052,1,0,0:0:0:0:
192,192,19109,1,0,0:0:0:0:
320,192,19166,1,0,0:0:0:0:
192,192,19223,1,0,0:0:0:0:
64,192,19280,1,0,0:0:0:0:
448,192,19280,1,0,0:0:0:0:
320,192,19338,1,0,0:0:0:0:
192,192,19395,1,0,0:0:0:0:
320,192,19452,1,0,0:0:0:0:
64,192,19509,1,0,0:0:0:0:
448,192,19509,1,0,0:0:0:0:
320,192,19566,1,0,0:0:0:0:
192,192,19623,1,0,0:0:0:0:
64,192,19680,1,0,0:0:0:0:
320,192,19738,1,0,0:0:0:0:
448,192,19738,1,0,0:0:0:0:
192,192,19795,1,0,0:0:0:0:
64,192,19852,1,0,0:0:0:0:
320,192,19852,1,0,0:0:0:0:
192,192,19909,1,0,0:0:0:0:
448,192,19966,1,0,0:0:0:0:
64,192,20023,1,0,0:0:0:0:
192,192,20080,1,0,0:0:0:0:
320,192,20138,1,0,0:0:0:0:
64,192,20195,1,0,0:0:0:0:
192,192,20195,1,0,0:0:0:0:
448,192,20252,1,0,0:0:0:0:
320,192,20309,1,0,0:0:0:0:
192,192,20366,1,0,0:0:0:0:
64,192,20423,1,0,0:0:0:0:
320,192,20423,1,0,0:0:0:0:
192,192,20480,1,0,0:0:0:0:
448,192,20538,1,0,0:0:0:0:
320,192,20595,1,0,0:0:0:0:
64,192,20652,1,0,0:0:0:0:
192,192,20652,1,0,0:0:0:0:
320,192,20709,1,0,0:0:0:0:
448,192,20766,1,0,0:0:0:0:
192,192,20823,1,0,0:0:0:0:
64,192,20880,1,0,0:0:0:0:
448,192,20880,1,0,0:0:0:0:
320,192,20938,1,0,0:0:0:0:
192,192,20995,1,0,0:0:0:0:
320,192,21052,1,0,0:0:0:0:
64,192,21109,1,0,0:0:0:0:
448,192,21109,1,0,0:0:0:0:
192,192,21166,1,0,0:0:0:0:
320,192,21223,1,0,0:0:0:0:
192,192,21280,1,0,0:0:0:0:
64,192,21338,1,0,0:0:0:0:
448,192,21338,1,0,0:0:0:0:
192,192,21395,1,0,0:0:0:0:
320,192,21452,1,0,0:0:0:0:
448,192,21509,1,0,0:0:0:0:
64,192,21566,1,0,0:0:0:0:
192,192,21566,1,0,0:0:0:0:
320,192,21623,1,0,0:0:0:0:
192,192,21680,1,0,0:0:0:0:
448,192,21680,1,0,0:0:0:0:
320,192,21738,1,0,0:0:0:0:
64,192,21795,1,0,0:0:0:0:
448,192,21852,1,0,0:0:0:0:
320,192,21909,1,0,0:0:0:0:
192,192,21966,1,0,0:0:0:0:
320,192,22023,1,0,0:0:0:0:
448,192,22023,1,0,0:0:0:0:
64,192,22080,1,0,0:0:0:0:
192,192,22138,1,0,0:0:0:0:
448,192,22195,1,0,0:0:0:0:
64,192,22252,1,0,0:0:0:0:
320,192,22252,1,0,0:0:0:0:
448,192,22309,1,0,0:0:0:0:
192,192,22366,1,0,0:0:0:0:
64,192,22423,1,0,0:0:0:0:
320,192,22480,1,0,0:0:0:0:
448,192,22480,1,0,0:0:0:0:
64,192,22538,1,0,0:0:0:0:
192,192,22595,1,0,0:0:0:0:
448,192,22652,1,0,0:0:0:0:
192,192,22709,1,0,0:0:0:0:
320,192,22709,1,0,0:0:0:0:
64,192,22766,1,0,0:0:0:0:
448,192,22823,1,0,0:0:0:0:
64,192,22880,1,0,0:0:0:0:
192,192,22938,1,0,0:0:0:0:
320,192,22938,1,0,0:0:0:0:
448,192,22995,1,0,0:0:0:0:
64,192,23052,1,0,0:0:0:0:
448,192,23109,1,0,0:0:0:0:
192,192,23166,1,0,0:0:0:0:
320,192,23166,1,0,0:0:0:0:
64,192,23223,1,0,0:0:0:0:
448,192,23280,1,0,0:0:0:0:
192,192,23338,1,0,0:0:0:0:
320,192,23395,1,0,0:0:0:0:
448,192,23395,1,0,0:0:0:0:
64,192,23452,1,0,0:0:0:0:
192,192,23509,1,0,0:0:0:0:
320,192,23509,1,0,0:0:0:0:
448,192,23566,1,0,0:0:0:0:
64,192,23623,1,0,0:0:0:0:
192,192,23680,1,0,0:0:0:0:
320,192,23738,1,0,0:0:0:0:
448,192,23795,1,0,0:0:0:0:
64,192,23852,1,0,0:0:0:0:
192,192,23852,1,0,0:0:0:0:
448,192,23909,1,0,0:0:0:0:
320,192,23966,1,0,0:0:0:0:
64,192,24023,1,0,0:0:0:0:
192,192,24080,1,0,0:0:0:0:
448,192,24080,1,0,0:0:0:0:
64,192,24138,1,0,0:0:0:0:
320,192,24195,1,0,0:0:0:0:
448,192,24252,1,0,0:0:0:0:
64,192,24309,1,0,0:0:0:0:
192,192,24309,1,0,0:0:0:0:
448,192,24366,1,0,0:0:0:0:
320,192,24423,1,0,0:0:0:0:
64,192,24480,1,0,0:0:0:0:
192,192,24538,1,0,0:0:0:0:
320,192,24538,1,0,0:0:0:0:
448,192,24595,1,0,0:0:0:0:
64,192,24652,1,0,0:0:0:0:
448,192,24709,1,0,0:0:0:0:
192,192,24766,1,0,0:0:0:0:
320,192,24766,1,0,0:0:0:0:
64,192,24823,1,0,0:0:0:0:
448,192,24880,1,0,0:0:0:0:
64,192,24938,1,0,0:0:0:0:
192,192,24995,1,0,0:0:0:0:
320,192,24995,1,0,0:0:0:0:
64,192,25052,1,0,0:0:0:0:
448,192,25109,1,0,0:0:0:0:
320,192,25166,1,0,0:0:0:0:
64,192,25223,1,0,0:0:0:0:
192,192,25223,1,0,0:0:0:0:
448,192,25280,1,0,0:0:0:0:
64,192,25338,1,0,0:0:0:0:
192,192,25338,1,0,0:0:0:0:
320,192,25338,1,0,0:0:0:0:
64,192,25566,1,0,0:0:0:0:
448,192,25623,1,0,0:0:0:0:
192,192,25680,1,0,0:0:0:0:
320,192,25680,1,0,0:0:0:0:
64,192,25738,1,0,0:0:0:0:
192,192,25795,1,0,0:0:0:0:
64,192,25852,1,0,0:0:0:0:
320,192,25909,1,0,0:0:0:0:
448,192,25909,1,0,0:0:0:0:
64,192,25966,1,0,0:0:0:0:
192,192,26023,1,0,0:0:0:0:
448,192,26080,1,0,0:0:0:0:
192,192,26138,1,0,0:0:0:0:
320,192,26138,1,0,0:0:0:0:
64,192,26195,1,0,0:0:0:0:
320,192,26252,1,0,0:0:0:0:
448,192,26309,1,0,0:0:0:0:
64,192,26366,1,0,0:0:0:0:
192,192,26366,1,0,0:0:0:0:
320,192,26423,1,0,0:0:0:0:
448,192,26480,1,0,0:0:0:0:
320,192,26538,1,0,0:0:0:0:
64,192,26595,1,0,0:0:0:0:
192,192,26595,1,0,0:0:0:0:
448,192,26652,1,0,0:0:0:0:
320,192,26709,1,0,0:0:0:0:
448,192,26766,1,0,0:0:0:0:
64,192,26823,1,0,0:0:0:0:
192,192,26823,1,0,0:0:0:0:
320,192,26880,1,0,0:0:0:0:
448,192,26938,1,0,0:0:0:0:
64,192,26995,1,0,0:0:0:0:
192,192,27052,1,0,0:0:0:0:
320,192,27052,1,0,0:0:0:0:
64,192,27109,1,0,0:0:0:0:
320,192,27166,1,0,0:0:0:0:
448,192,27166,1,0,0:0:0:0:
192,192,27223,1,0,0:0:0:0:
448,192,27280,1,0,0:0:0:0:
320,192,27338,1,0,0:0:0:0:
448,192,27395,1,0,0:0:0:0:
320,192,27452,1,0,0:0:0:0:
64,192,27509,1,0,0:0:0:0:
448,192,27509,1,0,0:0:0:0:
192,192,27566,1,0,0:0:0:0:
320,192,27623,1,0,0:0:0:0:
448,192,27680,1,0,0:0:0:0:
64,192,27738,1,0,0:0:0:0:
192,192,27738,1,0,0:0:0:0:
448,192,27795,1,0,0:0:0:0:
320,192,27852,1,0,0:0:0:0:
192,192,27909,1,0,0:0:0:0:
64,192,27966,1,0,0:0:0:0:
448,192,27966,1,0,0:0:0:0:
320,192,28023,1,0,0:0:0:0:
192,192,28080,1,0,0:0:0:0:
64,192,28138,1,0,0:0:0:0:
320,192,28195,1,0,0:0:0:0:
448,192,28195,1,0,0:0:0:0:
192,192,28252,1,0,0:0:0:0:
64,192,28309,1,0,0:0:0:0:
192,192,28366,1,0,0:0:0:0:
320,192,28423,1,0,0:0:0:0:
448,192,28423,1,0,0:0:0:0:
64,192,28480,1,0,0:0:0:0:
192,192,28538,1,0,0:0:0:0:
64,192,28595,1,0,0:0:0:0:
320,192,28652,1,0,0:0:0:0:
448,192,28652,1,0,0:0:0:0:
192,192,28709,1,0,0:0:0:0:
64,192,28766,1,0,0:0:0:0:
192,192,28823,1,0,0:0:0:0:
64,192,28880,1,0,0:0:0:0:
448,192,28880,1,0,0:0:0:0:
320,192,28938,1,0,0:0:0:0:
192,192,28995,1,0,0:0:0:0:
448,192,28995,1,0,0:0:0:0:
320,192,29052,1,0,0:0:0:0:
64,192,29109,1,0,0:0:0:0:
192,192,29109,1,0,0:0:0:0:
320,192,29166,1,0,0:0:0:0:
448,192,29223,1,0,0:0:0:0:
320,192,29280,1,0,0:0:0:0:
64,192,29338,1,0,0:0:0:0:
192,192,29338,1,0,0:0:0:0:
448,192,29395,1,0,0:0:0:0:
320,192,29452,1,0,0:0:0:0:
448,192,29509,1,0,0:0:0:0:
64,192,29566,1,0,0:0:0:0:
320,192,29566,1,0,0:0:0:0:
192,192,29623,1,0,0:0:0:0:
448,192,29680,1,0,0:0:0:0:
192,192,29738,1,0,0:0:0:0:
64,192,29795,1,0,0:0:0:0:
320,192,29795,1,0,0:0:0:0:
448,192,29852,1,0,0:0:0:0:
192,192,29909,1,0,0:0:0:0:
448,192,29966,1,0,0:0:0:0:
192,192,30023,1,0,0:0:0:0:
320,192,30023,1,0,0:0:0:0:
64,192,30080,1,0,0:0:0:0:
448,192,30138,1,0,0:0:0:0:
64,192,30195,1,0,0:0:0:0:
192,192,30252,1,0,0:0:0:0:
320,192,30252,1,0,0:0:0:0:
448,192,30309,1,0,0:0:0:0:
192,192,30366,1,0,0:0:0:0:
320,192,30423,1,0,0:0:0:0:
64,192,30480,1,0,0:0:0:0:
448,192,30480,1,0,0:0:0:0:
192,192,30538,1,0,0:0:0:0:
320,192,30595,1,0,0:0:0:0:
192,192,30652,1,0,0:0:0:0:
64,192,30709,1,0,0:0:0:0:
448,192,30709,1,0,0:0:0:0:
320,192,30766,1,0,0:0:0:0:
192,192,30823,1,0,0:0:0:0:
448,192,30823,1,0,0:0:0:0:
320,192,30880,1,0,0:0:0:0:
448,192,30938,1,0,0:0:0:0:
64,192,30995,1,0,0:0:0:0:
192,192,31052,1,0,0:0:0:0:
320,192,31109,1,0,0:0:0:0:
192,192,31166,1,0,0:0:0:0:
448,192,31166,1,0,0:0:0:0:
64,192,31223,1,0,0:0:0:0:
320,192,31280,1,0,0:0:0:0:
64,192,31338,1,0,0:0:0:0:
192,192,31395,1,0,0:0:0:0:
448,192,31395,1,0,0:0:0:0:
320,192,31452,1,0,0:0:0:0:
64,192,31509,1,0,0:0:0:0:
320,192,31566,1,0,0:0:0:0:
192,192,31623,1,0,0:0:0:0:
448,192,31623,1,0,0:0:0:0:
64,192,31680,1,0,0:0:0:0:
320,192,31738,1,0,0:0:0:0:
192,192,31795,1,0,0:0:0:0:
320,192,31852,1,0,0:0:0:0:
448,192,31852,1,0,0:0:0:0:
64,192,31909,1,0,0:0:0:0:
192,192,31966,1,0,0:0:0:0:
64,192,32023,1,0,0:0:0:0:
320,192,32080,1,0,0:0:0:0:
448,192,32080,1,0,0:0:0:0:
192,192,32138,1,0,0:0:0:0:
64,192,32195,1,0,0:0:0:0:
192,192,32252,1,0,0:0:0:0:
320,192,32309,1,0,0:0:0:0:
448,192,32309,1,0,0:0:0:0:
64,192,32366,1,0,0:0:0:0:
192,192,32423,1,0,0:0:0:0:
64,192,32480,1,0,0:0:0:0:
192,192,32538,1,0,0:0:0:0:
448,192,32538,1,0,0:0:0:0:
320,192,32595,1,0,0:0:0:0:
64,192,32652,1,0,0:0:0:0:
448,192,32652,1,0,0:0:0:0:
192,192,32709,1,0,0:0:0:0:
64,192,32766,1,0,0:0:0:0:
320,192,32766,1,0,0:0:0:0:
448,192,32766,1,0,0:0:0:0:
64,192,32880,1,0,0:0:0:0:
192,192,32880,1,0,0:0:0:0:
192,192,32995,1,0,0:0:0:0:
320,192,32995,1,0,0:0:0:0:
64,192,33109,1,0,0:0:0:0:
320,192,33109,1,0,0:0:0:0:
448,192,33109,1,0,0:0:0:0:
64,192,33223,1,0,0:0:0:0:
192,192,33223,1,0,0:0:0:0:
192,192,33338,1,0,0:0:0:0:
320,192,33338,1,0,0:0:0:0:
64,192,33452,1,0,0:0:0:0:
320,192,33452,1,0,0:0:0:0:
448,192,33452,1,0,0:0:0:0:
192,192,33566,1,0,0:0:0:0:
320,192,33566,1,0,0:0:0:0:
64,192,33680,1,0,0:0:0:0:
320,192,33680,1,0,0:0:0:0:
448,192,33680,1,0,0:0:0:0:
64,192,33795,1,0,0:0:0:0:
192,192,33795,1,0,0:0:0:0:
320,192,33795,1,0,0:0:0:0:
64,192,33909,1,0,0:0:0:0:
192,192,33909,1,0,0:0:0:0:
448,192,33909,1,0,0:0:0:0:
64,192,34023,1,0,0:0:0:0:
320,192,34023,1,0,0:0:0:0:
448,192,34023,1,0,0:0:0:0:
192,192,34138,1,0,0:0:0:0:
320,192,34138,1,0,0:0:0:0:
448,192,34138,1,0,0:0:0:0:
64,192,34252,1,0,0:0:0:0:
192,192,34252,1,0,0:0:0:0:
64,192,34480,1,0,0:0:0:0:
192,192,34480,1,0,0:0:0:0:
320,192,34480,1,0,0:0:0:0:
448,192,34480,1,0,0:0:0:0:
64,192,34709,1,0,0:0:0:0:
192,192,34709,1,0,0:0:0:0:
320,192,34766,1,0,0:0:0:0:
64,192,34823,1,0,0:0:0:0:
448,192,34823,1,0,0:0:0:0:
192,192,34880,1,0,0:0:0:0:
64,192,34938,1,0,0:0:0:0:
320,192,34938,1,0,0:0:0:0:
192,192,34995,1,0,0:0:0:0:
64,192,35052,1,0,0:0:0:0:
320,192,35052,1,0,0:0:0:0:
448,192,35109,1,0,0:0:0:0:
64,192,35166,1,0,0:0:0:0:
320,192,35166,1,0,0:0:0:0:
192,192,35223,1,0,0:0:0:0:
320,192,35280,1,0,0:0:0:0:
448,192,35280,1,0,0:0:0:0:
64,192,35338,1,0,0:0:0:0:
192,192,35395,1,0,0:0:0:0:
448,192,35395,1,0,0:0:0:0:
320,192,35452,1,0,0:0:0:0:
192,192,35509,1,0,0:0:0:0:
448,192,35509,1,0,0:0:0:0:
64,192,35566,1,0,0:0:0:0:
192,192,35623,1,0,0:0:0:0:
448,192,35623,1,0,0:0:0:0:
320,192,35680,1,0,0:0:0:0:
64,192,35738,1,0,0:0:0:0:
192,192,35738,1,0,0:0:0:0:
448,192,35795,1,0,0:0:0:0:
192,192,35852,1,0,0:0:0:0:
320,192,35852,1,0,0:0:0:0:
64,192,35909,1,0,0:0:0:0:
192,192,35966,1,0,0:0:0:0:
320,192,35966,1,0,0:0:0:0:
448,192,36023,1,0,0:0:0:0:
192,192,36080,1,0,0:0:0:0:
320,192,36080,1,0,0:0:0:0:
64,192,36138,1,0,0:0:0:0:
320,192,36195,1,0,0:0:0:0:
448,192,36195,1,0,0:0:0:0:
192,192,36252,1,0,0:0:0:0:
64,192,36309,1,0,0:0:0:0:
320,192,36309,1,0,0:0:0:0:
192,192,36366,1,0,0:0:0:0:
448,192,36423,1,0,0:0:0:0:
192,192,36480,1,0,0:0:0:0:
64,192,36538,1,0,0:0:0:0:
320,192,36538,1,0,0:0:0:0:
192,192,36595,1,0,0:0:0:0:
64,192,36652,1,0,0:0:0:0:
448,192,36652,1,0,0:0:0:0:
192,192,36709,1,0,0:0:0:0:
320,192,36766,1,0,0:0:0:0:
448,192,36766,1,0,0:0:0:0:
64,192,36823,1,0,0:0:0:0:
320,192,36880,1,0,0:0:0:0:
448,192,36880,1,0,0:0:0:0:
192,192,36938,1,0,0:0:0:0:
320,192,36995,1,0,0:0:0:0:
448,192,36995,1,0,0:0:0:0:
64,192,37052,1,0,0:0:0:0:
192,192,37109,1,0,0:0:0:0:
320,192,37109,1,0,0:0:0:0:
448,192,37166,1,0,0:0:0:0:
64,192,37223,1,0,0:0:0:0:
192,192,37223,1,0,0:0:0:0:
320,192,37280,1,0,0:0:0:0:
64,192,37338,1,0,0:0:0:0:
192,192,37338,1,0,0:0:0:0:
448,192,37395,1,0,0:0:0:0:
64,192,37452,1,0,0:0:0:0:
192,192,37452,1,0,0:0:0:0:
320,192,37509,1,0,0:0:0:0:
64,192,37566,1,0,0:0:0:0:
448,192,37566,1,0,0:0:0:0:
320,192,37623,1,0,0:0:0:0:
192,192,37680,1,0,0:0:0:0:
448,192,37680,1,0,0:0:0:0:
64,192,37738,1,0,0:0:0:0:
192,192,37795,1,0,0:0:0:0:
448,192,37795,1,0,0:0:0:0:
320,192,37852,1,0,0:0:0:0:
192,192,37909,1,0,0:0:0:0:
448,192,37909,1,0,0:0:0:0:
64,192,37966,1,0,0:0:0:0:
320,192,38023,1,0,0:0:0:0:
448,192,38023,1,0,0:0:0:0:
192,192,38080,1,0,0:0:0:0:
64,192,38138,1,0,0:0:0:0:
448,192,38138,1,0,0:0:0:0:
320,192,38195,1,0,0:0:0:0:
192,192,38252,1,0,0:0:0:0:
448,192,38309,1,0,0:0:0:0:
64,192,38366,1,0,0:0:0:0:
320,192,38366,1,0,0:0:0:0:
192,192,38423,1,0,0:0:0:0:
64,192,38480,1,0,0:0:0:0:
448,192,38480,1,0,0:0:0:0:
320,192,38538,1,0,0:0:0:0:
192,192,38595,1,0,0:0:0:0:
448,192,38595,1,0,0:0:0:0:
64,192,38652,1,0,0:0:0:0:
192,192,38709,1,0,0:0:0:0:
448,192,38709,1,0,0:0:0:0:
320,192,38766,1,0,0:0:0:0:
192,192,38823,1,0,0:0:0:0:
448,192,38823,1,0,0:0:0:0:
64,192,38880,1,0,0:0:0:0:
320,192,38938,1,0,0:0:0:0:
448,192,38938,1,0,0:0:0:0:
192,192,38995,1,0,0:0:0:0:
64,192,39052,1,0,0:0:0:0:
320,192,39052,1,0,0:0:0:0:
192,192,39109,1,0,0:0:0:0:
64,192,39166,1,0,0:0:0:0:
320,192,39166,1,0,0:0:0:0:
448,192,39223,1,0,0:0:0:0:
64,192,39280,1,0,0:0:0:0:
320,192,39280,1,0,0:0:0:0:
192,192,39338,1,0,0:0:0:0:
64,192,39395,1,0,0:0:0:0:
448,192,39395,1,0,0:0:0:0:
320,192,39452,1,0,0:0:0:0:
192,192,39509,1,0,0:0:0:0:
448,192,39509,1,0,0:0:0:0:
64,192,39566,1,0,0:0:0:0:
192,192,39623,1,0,0:0:0:0:
448,192,39623,1,0,0:0:0:0:
320,192,39680,1,0,0:0:0:0:
192,192,39738,1,0,0:0:0:0:
448,192,39738,1,0,0:0:0:0:
64,192,39795,1,0,0:0:0:0:
320,192,39852,1,0,0:0:0:0:
448,192,39852,1,0,0:0:0:0:
192,192,39909,1,0,0:0:0:0:
64,192,39966,1,0,0:0:0:0:
320,192,39966,1,0,0:0:0:0:
448,192,40023,1,0,0:0:0:0:
192,192,40080,1,0,0:0:0:0:
320,192,40138,1,0,0:0:0:0:
64,192,40195,1,0,0:0:0:0:
448,192,40195,1,0,0:0:0:0:
192,192,40252,1,0,0:0:0:0:
64,192,40309,1,0,0:0:0:0:
320,192,40309,1,0,0:0:0:0:
448,192,40366,1,0,0:0:0:0:
64,192,40423,1,0,0:0:0:0:
192,192,40423,1,0,0:0:0:0:
320,192,40480,1,0,0:0:0:0:
64,192,40538,1,0,0:0:0:0:
192,192,40538,1,0,0:0:0:0:
448,192,40595,1,0,0:0:0:0:
64,192,40652,1,0,0:0:0:0:
192,192,40652,1,0,0:0:0:0:
448,192,40709,1,0,0:0:0:0:
192,192,40766,1,0,0:0:0:0:
320,192,40766,1,0,0:0:0:0:
64,192,40823,1,0,0:0:0:0:
192,192,40880,1,0,0:0:0:0:
448,192,40880,1,0,0:0:0:0:
320,192,40938,1,0,0:0:0:0:
192,192,40995,1,0,0:0:0:0:
448,192,40995,1,0,0:0:0:0:
64,192,41052,1,0,0:0:0:0:
192,192,41109,1,0,0:0:0:0:
448,192,41109,1,0,0:0:0:0:
320,192,41166,1,0,0:0:0:0:
64,192,41223,1,0,0:0:0:0:
192,192,41223,1,0,0:0:0:0:
320,192,41280,1,0,0:0:0:0:
448,192,41280,1,0,0:0:0:0:
64,192,41338,1,0,0:0:0:0:
192,192,41338,1,0,0:0:0:0:
320,192,41395,1,0,0:0:0:0:
448,192,41395,1,0,0:0:0:0:
64,192,41452,1,0,0:0:0:0:
192,192,41452,1,0,0:0:0:0:
448,192,41509,1,0,0:0:0:0:
192,192,41566,1,0,0:0:0:0:
320,192,41566,1,0,0:0:0:0:
64,192,41623,1,0,0:0:0:0:
320,192,41680,1,0,0:0:0:0:
448,192,41680,1,0,0:0:0:0:
192,192,41738,1,0,0:0:0:0:
64,192,41795,1,0,0:0:0:0:
320,192,41795,1,0,0:0:0:0:
448,192,41795,1,0,0:0:0:0:
320,192,42023,1,0,0:0:0:0:
448,192,42023,1,0,0:0:0:0:
64,192,42080,1,0,0:0:0:0:
192,192,42138,1,0,0:0:0:0:
320,192,42138,1,0,0:0:0:0:
448,192,42195,1,0,0:0:0:0:
64,192,42252,1,0,0:0:0:0:
320,192,42252,1,0,0:0:0:0:
192,192,42309,1,0,0:0:0:0:
64,192,42366,1,0,0:0:0:0:
320,192,42366,1,0,0:0:0:0:
448,192,42423,1,0,0:0:0:0:
64,192,42480,1,0,0:0:0:0:
320,192,42480,1,0,0:0:0:0:
192,192,42538,1,0,0:0:0:0:
320,192,42595,1,0,0:0:0:0:
448,192,42595,1,0,0:0:0:0:
192,192,42652,1,0,0:0:0:0:
64,192,42709,1,0,0:0:0:0:
448,192,42709,1,0,0:0:0:0:
320,192,42766,1,0,0:0:0:0:
64,192,42823,1,0,0:0:0:0:
448,192,42823,1,0,0:0:0:0:
192,192,42880,1,0,0:0:0:0:
64,192,42938,1,0,0:0:0:0:
448,192,42938,1,0,0:0:0:0:
320,192,42995,1,0,0:0:0:0:
192,192,43052,1,0,0:0:0:0:
448,192,43052,1,0,0:0:0:0:
320,192,43109,1,0,0:0:0:0:
64,192,43166,1,0,0:0:0:0:
192,192,43166,1,0,0:0:0:0:
448,192,43223,1,0,0:0:0:0:
64,192,43280,1,0,0:0:0:0:
192,192,43280,1,0,0:0:0:0:
448,192,43338,1,0,0:0:0:0:
64,192,43395,1,0,0:0:0:0:
192,192,43395,1,0,0:0:0:0:
320,192,43452,1,0,0:0:0:0:
64,192,43509,1,0,0:0:0:0:
448,192,43509,1,0,0:0:0:0:
192,192,43566,1,0,0:0:0:0:
320,192,43623,1,0,0:0:0:0:
448,192,43623,1,0,0:0:0:0:
64,192,43680,1,0,0:0:0:0:
192,192,43738,1,0,0:0:0:0:
320,192,43795,1,0,0:0:0:0:
64,192,43852,1,0,0:0:0:0:
448,192,43852,1,0,0:0:0:0:
192,192,43909,1,0,0:0:0:0:
64,192,43966,1,0,0:0:0:0:
320,192,43966,1,0,0:0:0:0:
192,192,44023,1,0,0:0:0:0:
320,192,44080,1,0,0:0:0:0:
448,192,44080,1,0,0:0:0:0:
64,192,44138,1,0,0:0:0:0:
320,192,44195,1,0,0:0:0:0:
448,192,44195,1,0,0:0:0:0:
192,192,44252,1,0,0:0:0:0:
320,192,44309,1,0,0:0:0:0:
448,192,44309,1,0,0:0:0:0:
64,192,44366,1,0,0:0:0:0:
192,192,44423,1,0,0:0:0:0:
448,192,44423,1,0,0:0:0:0:
320,192,44480,1,0,0:0:0:0:
64,192,44538,1,0,0:0:0:0:
192,192,44538,1,0,0:0:0:0:
448,192,44595,1,0,0:0:0:0:
64,192,44652,1,0,0:0:0:0:
192,192,44652,1,0,0:0:0:0:
320,192,44709,1,0,0:0:0:0:
64,192,44766,1,0,0:0:0:0:
192,192,44766,1,0,0:0:0:0:
448,192,44823,1,0,0:0:0:0:
192,192,44880,1,0,0:0:0:0:
320,192,44880,1,0,0:0:0:0:
448,192,44938,1,0,0:0:0:0:
64,192,44995,1,0,0:0:0:0:
320,192,44995,1,0,0:0:0:0:
192,192,45052,1,0,0:0:0:0:
64,192,45109,1,0,0:0:0:0:
320,192,45109,1,0,0:0:0:0:
448,192,45166,1,0,0:0:0:0:
64,192,45223,1,0,0:0:0:0:
320,192,45223,1,0,0:0:0:0:
192,192,45280,1,0,0:0:0:0:
320,192,45338,1,0,0:0:0:0:
448,192,45338,1,0,0:0:0:0:
192,192,45395,1,0,0:0:0:0:
64,192,45452,1,0,0:0:0:0:
448,192,45452,1,0,0:0:0:0:
192,192,45509,1,0,0:0:0:0:
320,192,45566,1,0,0:0:0:0:
448,192,45623,1,0,0:0:0:0:
64,192,45680,1,0,0:0:0:0:
192,192,45680,1,0,0:0:0:0:
320,192,45738,1,0,0:0:0:0:
192,192,45795,1,0,0:0:0:0:
448,192,45795,1,0,0:0:0:0:
64,192,45852,1,0,0:0:0:0:
320,192,45909,1,0,0:0:0:0:
448,192,45909,1,0,0:0:0:0:
192,192,45966,1,0,0:0:0:0:
320,192,46023,1,0,0:0:0:0:
448,192,46023,1,0,0:0:0:0:
64,192,46080,1,0,0:0:0:0:
320,192,46138,1,0,0:0:0:0:
448,192,46138,1,0,0:0:0:0:
192,192,46195,1,0,0:0:0:0:
64,192,46252,1,0,0:0:0:0:
320,192,46252,1,0,0:0:0:0:
448,192,46309,1,0,0:0:0:0:
64,192,46366,1,0,0:0:0:0:
192,192,46366,1,0,0:0:0:0:
320,192,46423,1,0,0:0:0:0:
64,192,46480,1,0,0:0:0:0:
192,192,46480,1,0,0:0:0:0:
448,192,46538,1,0,0:0:0:0:
64,192,46595,1,0,0:0:0:0:
192,192,46595,1,0,0:0:0:0:
320,192,46652,1,0,0:0:0:0:
192,192,46709,1,0,0:0:0:0:
448,192,46709,1,0,0:0:0:0:
320,192,46766,1,0,0:0:0:0:
64,192,46823,1,0,0:0:0:0:
448,192,46823,1,0,0:0:0:0:
192,192,46880,1,0,0:0:0:0:
64,192,46938,1,0,0:0:0:0:
448,192,46938,1,0,0:0:0:0:
320,192,46995,1,0,0:0:0:0:
64,192,47052,1,0,0:0:0:0:
448,192,47052,1,0,0:0:0:0:
192,192,47109,1,0,0:0:0:0:
320,192,47166,1,0,0:0:0:0:
448,192,47166,1,0,0:0:0:0:
192,192,47223,1,0,0:0:0:0:
64,192,47280,1,0,0:0:0:0:
320,192,47280,1,0,0:0:0:0:
448,192,47338,1,0,0:0:0:0:
192,192,47395,1,0,0:0:0:0:
320,192,47452,1,0,0:0:0:0:
64,192,47509,1,0,0:0:0:0:
448,192,47509,1,0,0:0:0:0:
192,192,47566,1,0,0:0:0:0:
320,192,47623,1,0,0:0:0:0:
448,192,47623,1,0,0:0:0:0:
64,192,47680,1,0,0:0:0:0:
192,192,47738,1,0,0:0:0:0:
448,192,47738,1,0,0:0:0:0:
320,192,47795,1,0,0:0:0:0:
192,192,47852,1,0,0:0:0:0:
448,192,47852,1,0,0:0:0:0:
64,192,47909,1,0,0:0:0:0:
192,192,47966,1,0,0:0:0:0:
448,192,47966,1,0,0:0:0:0:
320,192,48023,1,0,0:0:0:0:
64,192,48080,1,0,0:0:0:0:
192,192,48080,1,0,0:0:0:0:
448,192,48138,1,0,0:0:0:0:
192,192,48195,1,0,0:0:0:0:
320,192,48195,1,0,0:0:0:0:
64,192,48252,1,0,0:0:0:0:
192,192,48309,1,0,0:0:0:0:
320,192,48309,1,0,0:0:0:0:
448,192,48366,1,0,0:0:0:0:
192,192,48423,1,0,0:0:0:0:
320,192,48423,1,0,0:0:0:0:
64,192,48480,1,0,0:0:0:0:
320,192,48538,1,0,0:0:0:0:
448,192,48538,1,0,0:0:0:0:
192,192,48595,1,0,0:0:0:0:
64,192,48652,1,0,0:0:0:0:
448,192,48652,1,0,0:0:0:0:
192,192,48709,1,0,0:0:0:0:
320,192,48766,1,0,0:0:0:0:
448,192,48766,1,0,0:0:0:0:
64,192,48880,1,0,0:0:0:0:
448,192,48880,1,0,0:0:0:0:
64,192,48995,1,0,0:0:0:0:
320,192,48995,1,0,0:0:0:0:
448,192,49109,1,0,0:0:0:0:
320,192,49147,1,0,0:0:0:0:
192,192,49185,1,0,0:0:0:0:
64,192,49223,1,0,0:0:0:0:
320,192,49261,1,0,0:0:0:0:
192,192,49299,1,0,0:0:0:0:
64,192,49338,1,0,0:0:0:0:
448,192,49376,1,0,0:0:0:0:
192,192,49414,1,0,0:0:0:0:
320,192,49452,1,0,0:0:0:0:
448,192,49490,1,0,0:0:0:0:
64,192,49528,1,0,0:0:0:0:
320,192,49566,1,0,0:0:0:0:
192,192,49604,1,0,0:0:0:0:
448,192,49642,1,0,0:0:0:0:
64,192,49680,1,0,0:0:0:0:
192,192,49718,1,0,0:0:0:0:
320,192,49757,1,0,0:0:0:0:
448,192,49795,1,0,0:0:0:0:
64,192,49833,1,0,0:0:0:0:
320,192,49871,1,0,0:0:0:0:
192,192,49909,1,0,0:0:0:0:
320,192,50023,1,0,0:0:0:0:
448,192,50023,1,0,0:0:0:0:
192,192,50061,1,0,0:0:0:0:
64,192,50099,1,0,0:0:0:0:
320,192,50138,1,0,0:0:0:0:
192,192,50176,1,0,0:0:0:0:
448,192,50214,1,0,0:0:0:0:
64,192,50252,1,0,0:0:0:0:
192,192,50290,1,0,0:0:0:0:
320,192,50328,1,0,0:0:0:0:
448,192,50366,1,0,0:0:0:0:
192,192,50404,1,0,0:0:0:0:
64,192,50442,1,0,0:0:0:0:
320,192,50480,1,0,0:0:0:0:
448,192,50518,1,0,0:0:0:0:
64,192,50557,1,0,0:0:0:0:
192,192,50595,1,0,0:0:0:0:
320,192,50633,1,0,0:0:0:0:
64,192,50671,1,0,0:0:0:0:
448,192,50709,1,0,0:0:0:0:
192,192,50747,1,0,0:0:0:0:
320,192,50785,1,0,0:0:0:0:
448,192,50823,1,0,0:0:0:0:
64,192,50938,1,0,0:0:0:0:
192,192,50938,1,0,0:0:0:0:
320,192,50976,1,0,0:0:0:0:
448,192,51014,1,0,0:0:0:0:
192,192,51052,1,0,0:0:0:0:
320,192,51090,1,0,0:0:0:0:
64,192,51128,1,0,0:0:0:0:
192,192,51166,1,0,0:0:0:0:
448,192,51204,1,0,0:0:0:0:
320,192,51242,1,0,0:0:0:0:
192,192,51280,1,0,0:0:0:0:
448,192,51318,1,0,0:0:0:0:
320,192,51357,1,0,0:0:0:0:
192,192,51395,1,0,0:0:0:0:
64,192,51433,1,0,0:0:0:0:
320,192,51471,1,0,0:0:0:0:
192,192,51509,1,0,0:0:0:0:
64,192,51547,1,0,0:0:0:0:
448,192,51585,1,0,0:0:0:0:
192,192,51623,1,0,0:0:0:0:
320,192,51661,1,0,0:0:0:0:
448,192,51699,1,0,0:0:0:0:
64,192,51738,1,0,0:0:0:0:
320,192,51852,1,0,0:0:0:0:
448,192,51852,1,0,0:0:0:0:
64,192,51890,1,0,0:0:0:0:
192,192,51928,1,0,0:0:0:0:
320,192,51966,1,0,0:0:0:0:
64,192,52004,1,0,0:0:0:0:
448,192,52042,1,0,0:0:0:0:
320,192,52080,1,0,0:0:0:0:
192,192,52118,1,0,0:0:0:0:
448,192,52157,1,0,0:0:0:0:
64,192,52195,1,0,0:0:0:0:
192,192,52233,1,0,0:0:0:0:
320,192,52271,1,0,0:0:0:0:
448,192,52309,1,0,0:0:0:0:
192,192,52347,1,0,0:0:0:0:
320,192,52385,1,0,0:0:0:0:
64,192,52423,1,0,0:0:0:0:
448,192,52461,1,0,0:0:0:0:
320,192,52499,1,0,0:0:0:0:
192,192,52538,1,0,0:0:0:0:
448,192,52576,1,0,0:0:0:0:
320,192,52614,1,0,0:0:0:0:
64,192,52652,1,0,0:0:0:0:
320,192,52766,1,0,0:0:0:0:
448,192,52766,1,0,0:0:0:0:
64,192,52804,1,0,0:0:0:0:
192,192,52842,1,0,0:0:0:0:
448,192,52880,1,0,0:0:0:0:
320,192,52918,1,0,0:0:0:0:
192,192,52957,1,0,0:0:0:0:
448,192,52995,1,0,0:0:0:0:
64,192,53033,1,0,0:0:0:0:
192,192,53071,1,0,0:0:0:0:
320,192,53109,1,0,0:0:0:0:
64,192,53147,1,0,0:0:0:0:
448,192,53185,1,0,0:0:0:0:
320,192,53223,1,0,0:0:0:0:
192,192,53261,1,0,0:0:0:0:
64,192,53299,1,0,0:0:0:0:
320,192,53338,1,0,0:0:0:0:
192,192,53376,1,0,0:0:0:0:
448,192,53414,1,0,0:0:0:0:
64,192,53452,1,0,0:0:0:0:
192,192,53490,1,0,0:0:0:0:
320,192,53528,1,0,0:0:0:0:
448,192,53566,1,0,0:0:0:0:
64,192,53680,1,0,0:0:0:0:
320,192,53680,1,0,0:0:0:0:
192,192,53718,1,0,0:0:0:0:
448,192,53757,1,0,0:0:0:0:
64,192,53795,1,0,0:0:0:0:
320,192,53833,1,0,0:0:0:0:
448,192,53871,1,0,0:0:0:0:
192,192,53909,1,0,0:0:0:0:
320,192,53947,1,0,0:0:0:0:
64,192,53985,1,0,0:0:0:0:
192,192,54023,1,0,0:0:0:0:
448,192,54061,1,0,0:0:0:0:
320,192,54099,1,0,0:0:0:0:
64,192,54138,1,0,0:0:0:0:
448,192,54176,1,0,0:0:0:0:
192,192,54214,1,0,0:0:0:0:
320,192,54252,1,0,0:0:0:0:
64,192,54290,1,0,0:0:0:0:
192,192,54328,1,0,0:0:0:0:
320,192,54366,1,0,0:0:0:0:
448,192,54404,1,0,0:0:0:0:
192,192,54442,1,0,0:0:0:0:
64,192,54480,1,0,0:0:0:0:
192,192,54595,1,0,0:0:0:0:
448,192,54595,1,0,0:0:0:0:
64,192,54633,1,0,0:0:0:0:
320,192,54671,1,0,0:0:0:0:
192,192,54709,1,0,0:0:0:0:
448,192,54747,1,0,0:0:0:0:
320,192,54785,1,0,0:0:0:0:
64,192,54823,1,0,0:0:0:0:
192,192,54861,1,0,0:0:0:0:
448,192,54899,1,0,0:0:0:0:
64,192,54938,1,0,0:0:0:0:
320,192,54976,1,0,0:0:0:0:
448,192,55014,1,0,0:0:0:0:
192,192,55052,1,0,0:0:0:0:
320,192,55090,1,0,0:0:0:0:
448,192,55128,1,0,0:0:0:0:
64,192,55166,1,0,0:0:0:0:
192,192,55204,1,0,0:0:0:0:
320,192,55242,1,0,0:0:0:0:
448,192,55280,1,0,0:0:0:0:
64,192,55318,1,0,0:0:0:0:
320,192,55357,1,0,0:0:0:0:
192,192,55395,1,0,0:0:0:0:
448,192,55509,1,0,0:0:0:0:
320,192,55547,1,0,0:0:0:0:
192,192,55585,1,0,0:0:0:0:
448,192,55623,1,0,0:0:0:0:
64,192,55738,1,0,0:0:0:0:
192,192,55738,1,0,0:0:0:0:
320,192,55738,1,0,0:0:0:0:
64,192,55852,1,0,0:0:0:0:
192,192,55852,1,0,0:0:0:0:
448,192,55852,1,0,0:0:0:0:
64,192,55966,1,0,0:0:0:0:
320,192,55966,1,0,0:0:0:0:
448,192,55966,1,0,0:0:0:0:
192,192,56080,1,0,0:0:0:0:
320,192,56080,1,0,0:0:0:0:
448,192,56080,1,0,0:0:0:0:
64,192,56195,1,0,0:0:0:0:
320,192,56195,1,0,0:0:0:0:
448,192,56195,1,0,0:0:0:0:
64,192,56309,1,0,0:0:0:0:
192,192,56309,1,0,0:0:0:0:
448,192,56309,1,0,0:0:0:0:
192,192,56423,1,0,0:0:0:0:
320,192,56423,1,0,0:0:0:0:
448,192,56423,1,0,0:0:0:0:
64,192,56461,1,0,0:0:0:0:
320,192,56499,1,0,0:0:0:0:
192,192,56538,1,0,0:0:0:0:
448,192,56576,1,0,0:0:0:0:
320,192,56614,1,0,0:0:0:0:
64,192,56652,1,0,0:0:0:0:
192,192,56690,1,0,0:0:0:0:
320,192,56728,1,0,0:0:0:0:
448,192,56766,1,0,0:0:0:0:
192,192,56804,1,0,0:0:0:0:
64,192,56842,1,0,0:0:0:0:
320,192,56880,1,0,0:0:0:0:
192,192,56918,1,0,0:0:0:0:
448,192,56957,1,0,0:0:0:0:
320,192,56995,1,0,0:0:0:0:
64,192,57033,1,0,0:0:0:0:
448,192,57071,1,0,0:0:0:0:
192,192,57109,1,0,0:0:0:0:
320,192,57147,1,0,0:0:0:0:
448,192,57185,1,0,0:0:0:0:
64,192,57223,1,0,0:0:0:0:
192,192,57338,1,0,0:0:0:0:
320,192,57338,1,0,0:0:0:0:
448,192,57376,1,0,0:0:0:0:
64,192,57414,1,0,0:0:0:0:
320,192,57452,1,0,0:0:0:0:
192,192,57490,1,0,0:0:0:0:
448,192,57528,1,0,0:0:0:0:
320,192,57566,1,0,0:0:0:0:
192,192,57604,1,0,0:0:0:0:
64,192,57642,1,0,0:0:0:0:
448,192,57680,1,0,0:0:0:0:
192,192,57718,1,0,0:0:0:0:
320,192,57757,1,0,0:0:0:0:
448,192,57795,1,0,0:0:0:0:
64,192,57833,1,0,0:0:0:0:
192,192,57871,1,0,0:0:0:0:
320,192,57909,1,0,0:0:0:0:
64,192,57947,1,0,0:0:0:0:
448,192,57985,1,0,0:0:0:0:
320,192,58023,1,0,0:0:0:0:
192,192,58061,1,0,0:0:0:0:
448,192,58099,1,0,0:0:0:0:
64,192,58138,1,0,0:0:0:0:
192,192,58252,1,0,0:0:0:0:
448,192,58252,1,0,0:0:0:0:
64,192,58290,1,0,0:0:0:0:
320,192,58328,1,0,0:0:0:0:
448,192,58366,1,0,0:0:0:0:
64,192,58404,1,0,0:0:0:0:
192,192,58442,1,0,0:0:0:0:
320,192,58480,1,0,0:0:0:0:
64,192,58518,1,0,0:0:0:0:
448,192,58557,1,0,0:0:0:0:
320,192,58595,1,0,0:0:0:0:
192,192,58633,1,0,0:0:0:0:
448,192,58671,1,0,0:0:0:0:
64,192,58709,1,0,0:0:0:0:
192,192,58747,1,0,0:0:0:0:
320,192,58785,1,0,0:0:0:0:
448,192,58823,1,0,0:0:0:0:
192,192,58861,1,0,0:0:0:0:
320,192,58899,1,0,0:0:0:0:
64,192,58938,1,0,0:0:0:0:
448,192,58976,1,0,0:0:0:0:
320,192,59014,1,0,0:0:0:0:
192,192,59052,1,0,0:0:0:0:
320,192,59166,1,0,0:0:0:0:
448,192,59166,1,0,0:0:0:0:
64,192,59204,1,0,0:0:0:0:
192,192,59242,1,0,0:0:0:0:
448,192,59280,1,0,0:0:0:0:
64,192,59318,1,0,0:0:0:0:
320,192,59357,1,0,0:0:0:0:
192,192,59395,1,0,0:0:0:0:
448,192,59433,1,0,0:0:0:0:
320,192,59471,1,0,0:0:0:0:
192,192,59509,1,0,0:0:0:0:
64,192,59547,1,0,0:0:0:0:
320,192,59585,1,0,0:0:0:0:
448,192,59623,1,0,0:0:0:0:
64,192,59738,1,0,0:0:0:0:
192,192,59738,1,0,0:0:0:0:
320,192,59738,1,0,0:0:0:0:
64,192,59852,1,0,0:0:0:0:
192,192,59852,1,0,0:0:0:0:
448,192,59852,1,0,0:0:0:0:
192,192,59966,1,0,0:0:0:0:
320,192,59966,1,0,0:0:0:0:
448,192,59966,1,0,0:0:0:0:
64,192,60080,1,0,0:0:0:0:
192,192,60080,1,0,0:0:0:0:
320,192,60080,1,0,0:0:0:0:
448,192,60080,1,0,0:0:0:0:
64,192,60309,1,0,0:0:0:0:
192,192,60366,1,0,0:0:0:0:
320,192,60423,1,0,0:0:0:0:
448,192,60480,1,0,0:0:0:0:
192,192,60538,1,0,0:0:0:0:
64,192,60595,1,0,0:0:0:0:
320,192,60652,1,0,0:0:0:0:
448,192,60652,1,0,0:0:0:0:
192,192,60690,1,0,0:0:0:0:
64,192,60728,1,0,0:0:0:0:
320,192,60766,1,0,0:0:0:0:
192,192,60804,1,0,0:0:0:0:
448,192,60842,1,0,0:0:0:0:
320,192,60880,1,0,0:0:0:0:
64,192,60918,1,0,0:0:0:0:
192,192,60957,1,0,0:0:0:0:
448,192,60995,1,0,0:0:0:0:
64,192,61052,1,0,0:0:0:0:
320,192,61109,1,0,0:0:0:0:
448,192,61109,1,0,0:0:0:0:
192,192,61147,1,0,0:0:0:0:
64,192,61185,1,0,0:0:0:0:
320,192,61223,1,0,0:0:0:0:
192,192,61261,1,0,0:0:0:0:
448,192,61299,1,0,0:0:0:0:
320,192,61338,1,0,0:0:0:0:
64,192,61376,1,0,0:0:0:0:
192,192,61414,1,0,0:0:0:0:
448,192,61452,1,0,0:0:0:0:
320,192,61509,1,0,0:0:0:0:
64,192,61566,1,0,0:0:0:0:
192,192,61566,1,0,0:0:0:0:
320,192,61604,1,0,0:0:0:0:
448,192,61642,1,0,0:0:0:0:
192,192,61680,1,0,0:0:0:0:
320,192,61718,1,0,0:0:0:0:
64,192,61757,1,0,0:0:0:0:
192,192,61795,1,0,0:0:0:0:
448,192,61833,1,0,0:0:0:0:
320,192,61871,1,0,0:0:0:0:
64,192,61909,1,0,0:0:0:0:
192,192,61966,1,0,0:0:0:0:
64,192,62023,1,0,0:0:0:0:
448,192,62023,1,0,0:0:0:0:
192,192,62061,1,0,0:0:0:0:
320,192,62099,1,0,0:0:0:0:
448,192,62138,1,0,0:0:0:0:
64,192,62176,1,0,0:0:0:0:
320,192,62214,1,0,0:0:0:0:
192,192,62252,1,0,0:0:0:0:
448,192,62290,1,0,0:0:0:0:
320,192,62328,1,0,0:0:0:0:
64,192,62366,1,0,0:0:0:0:
448,192,62423,1,0,0:0:0:0:
192,192,62480,1,0,0:0:0:0:
320,192,62480,1,0,0:0:0:0:
64,192,62518,1,0,0:0:0:0:
448,192,62557,1,0,0:0:0:0:
192,192,62595,1,0,0:0:0:0:
320,192,62633,1,0,0:0:0:0:
64,192,62671,1,0,0:0:0:0:
448,192,62709,1,0,0:0:0:0:
320,192,62747,1,0,0:0:0:0:
64,192,62785,1,0,0:0:0:0:
192,192,62823,1,0,0:0:0:0:
448,192,62880,1,0,0:0:0:0:
192,192,62938,1,0,0:0:0:0:
320,192,62938,1,0,0:0:0:0:
64,192,62976,1,0,0:0:0:0:
448,192,63014,1,0,0:0:0:0:
192,192,63052,1,0,0:0:0:0:
320,192,63090,1,0,0:0:0:0:
64,192,63128,1,0,0:0:0:0:
448,192,63166,1,0,0:0:0:0:
320,192,63204,1,0,0:0:0:0:
192,192,63242,1,0,0:0:0:0:
64,192,63280,1,0,0:0:0:0:
320,192,63338,1,0,0:0:0:0:
64,192,63395,1,0,0:0:0:0:
192,192,63395,1,0,0:0:0:0:
448,192,63433,1,0,0:0:0:0:
320,192,63471,1,0,0:0:0:0:
192,192,63509,1,0,0:0:0:0:
448,192,63547,1,0,0:0:0:0:
64,192,63585,1,0,0:0:0:0:
192,192,63623,1,0,0:0:0:0:
320,192,63661,1,0,0:0:0:0:
448,192,63699,1,0,0:0:0:0:
64,192,63738,1,0,0:0:0:0:
320,192,63795,1,0,0:0:0:0:
192,192,63852,1,0,0:0:0:0:
448,192,63852,1,0,0:0:0:0:
64,192,63890,1,0,0:0:0:0:
320,192,63928,1,0,0:0:0:0:
448,192,63966,1,0,0:0:0:0:
64,192,64004,1,0,0:0:0:0:
192,192,64042,1,0,0:0:0:0:
320,192,64080,1,0,0:0:0:0:
448,192,64118,1,0,0:0:0:0:
64,192,64157,1,0,0:0:0:0:
320,192,64195,1,0,0:0:0:0:
192,192,64252,1,0,0:0:0:0:
64,192,64309,1,0,0:0:0:0:
448,192,64309,1,0,0:0:0:0:
320,192,64347,1,0,0:0:0:0:
192,192,64385,1,0,0:0:0:0:
64,192,64423,1,0,0:0:0:0:
320,192,64461,1,0,0:0:0:0:
448,192,64499,1,0,0:0:0:0:
192,192,64538,1,0,0:0:0:0:
64,192,64576,1,0,0:0:0:0:
448,192,64614,1,0,0:0:0:0:
320,192,64652,1,0,0:0:0:0:
64,192,64709,1,0,0:0:0:0:
192,192,64766,1,0,0:0:0:0:
320,192,64766,1,0,0:0:0:0:
448,192,64804,1,0,0:0:0:0:
64,192,64842,1,0,0:0:0:0:
192,192,64880,1,0,0:0:0:0:
448,192,64918,1,0,0:0:0:0:
64,192,64957,1,0,0:0:0:0:
192,192,64995,1,0,0:0:0:0:
320,192,65033,1,0,0:0:0:0:
448,192,65071,1,0,0:0:0:0:
64,192,65109,1,0,0:0:0:0:
448,192,65166,1,0,0:0:0:0:
64,192,65223,1,0,0:0:0:0:
320,192,65223,1,0,0:0:0:0:
192,192,65261,1,0,0:0:0:0:
448,192,65299,1,0,0:0:0:0:
320,192,65338,1,0,0:0:0:0:
64,192,65376,1,0,0:0:0:0:
192,192,65414,1,0,0:0:0:0:
448,192,65452,1,0,0:0:0:0:
320,192,65490,1,0,0:0:0:0:
192,192,65528,1,0,0:0:0:0:
448,192,65566,1,0,0:0:0:0:
320,192,65604,1,0,0:0:0:0:
64,192,65642,1,0,0:0:0:0:
192,192,65680,1,0,0:0:0:0:
320,192,65680,1,0,0:0:0:0:
448,192,65680,1,0,0:0:0:0:
64,192,65757,1,0,0:0:0:0:
320,192,65833,1,0,0:0:0:0:
64,192,65909,1,0,0:0:0:0:
320,192,65985,1,0,0:0:0:0:
192,192,66061,1,0,0:0:0:0:
64,192,66138,1,0,0:0:0:0:
320,192,66138,1,0,0:0:0:0:
448,192,66138,1,0,0:0:0:0:
192,192,66214,1,0,0:0:0:0:
320,192,66290,1,0,0:0:0:0:
192,192,66366,1,0,0:0:0:0:
448,192,66442,1,0,0:0:0:0:
320,192,66518,1,0,0:0:0:0:
64,192,66595,1,0,0:0:0:0:
192,192,66595,1,0,0:0:0:0:
448,192,66595,1,0,0:0:0:0:
320,192,66671,1,0,0:0:0:0:
448,192,66747,1,0,0:0:0:0:
64,192,66823,1,0,0:0:0:0:
192,192,66899,1,0,0:0:0:0:
448,192,66976,1,0,0:0:0:0:
64,192,67052,1,0,0:0:0:0:
192,192,67052,1,0,0:0:0:0:
320,192,67052,1,0,0:0:0:0:
448,192,67128,1,0,0:0:0:0:
192,192,67204,1,0,0:0:0:0:
64,192,67280,1,0,0:0:0:0:
448,192,67280,1,0,0:0:0:0:
64,192,67395,1,0,0:0:0:0:
192,192,67395,1,0,0:0:0:0:
320,192,67395,1,0,0:0:0:0:
64,192,67623,1,0,0:0:0:0:
448,192,67680,1,0,0:0:0:0:
192,192,67738,1,0,0:0:0:0:
320,192,67738,1,0,0:0:0:0:
448,192,67795,1,0,0:0:0:0:
64,192,67852,1,0,0:0:0:0:
192,192,67909,1,0,0:0:0:0:
64,192,67966,1,0,0:0:0:0:
320,192,68023,1,0,0:0:0:0:
64,192,68080,1,0,0:0:0:0:
448,192,68138,1,0,0:0:0:0:
192,192,68195,1,0,0:0:0:0:
320,192,68195,1,0,0:0:0:0:
64,192,68252,1,0,0:0:0:0:
448,192,68309,1,0,0:0:0:0:
320,192,68366,1,0,0:0:0:0:
448,192,68423,1,0,0:0:0:0:
192,192,68480,1,0,0:0:0:0:
448,192,68538,1,0,0:0:0:0:
64,192,68595,1,0,0:0:0:0:
192,192,68652,1,0,0:0:0:0:
320,192,68652,1,0,0:0:0:0:
448,192,68709,1,0,0:0:0:0:
64,192,68766,1,0,0:0:0:0:
192,192,68823,1,0,0:0:0:0:
64,192,68880,1,0,0:0:0:0:
320,192,68938,1,0,0:0:0:0:
64,192,68995,1,0,0:0:0:0:
448,192,69052,1,0,0:0:0:0:
192,192,69109,1,0,0:0:0:0:
320,192,69109,1,0,0:0:0:0:
64,192,69223,1,0,0:0:0:0:
320,192,69223,1,0,0:0:0:0:
448,192,69223,1,0,0:0:0:0:
320,192,69452,1,0,0:0:0:0:
192,192,69509,1,0,0:0:0:0:
64,192,69566,1,0,0:0:0:0:
448,192,69566,1,0,0:0:0:0:
320,192,69623,1,0,0:0:0:0:
192,192,69680,1,0,0:0:0:0:
64,192,69738,1,0,0:0:0:0:
192,192,69795,1,0,0:0:0:0:
448,192,69852,1,0,0:0:0:0:
192,192,69909,1,0,0:0:0:0:
320,192,69966,1,0,0:0:0:0:
64,192,70023,1,0,0:0:0:0:
448,192,70023,1,0,0:0:0:0:
192,192,70080,1,0,0:0:0:0:
320,192,70138,1,0,0:0:0:0:
64,192,70195,1,0,0:0:0:0:
320,192,70252,1,0,0:0:0:0:
448,192,70309,1,0,0:0:0:0:
320,192,70366,1,0,0:0:0:0:
192,192,70423,1,0,0:0:0:0:
64,192,70480,1,0,0:0:0:0:
448,192,70480,1,0,0:0:0:0:
320,192,70538,1,0,0:0:0:0:
192,192,70595,1,0,0:0:0:0:
64,192,70652,1,0,0:0:0:0:
192,192,70709,1,0,0:0:0:0:
448,192,70766,1,0,0:0:0:0:
192,192,70823,1,0,0:0:0:0:
320,192,70880,1,0,0:0:0:0:
64,192,70938,1,0,0:0:0:0:
448,192,70938,1,0,0:0:0:0:
64,192,71052,1,0,0:0:0:0:
192,192,71052,1,0,0:0:0:0:
320,192,71052,1,0,0:0:0:0:
448,192,71280,1,0,0:0:0:0:
192,192,71338,1,0,0:0:0:0:
64,192,71395,1,0,0:0:0:0:
320,192,71395,1,0,0:0:0:0:
448,192,71452,1,0,0:0:0:0:
192,192,71509,1,0,0:0:0:0:
320,192,71566,1,0,0:0:0:0:
192,192,71623,1,0,0:0:0:0:
64,192,71680,1,0,0:0:0:0:
192,192,71738,1,0,0:0:0:0:
448,192,71795,1,0,0:0:0:0:
64,192,71852,1,0,0:0:0:0:
320,192,71852,1,0,0:0:0:0:
192,192,71909,1,0,0:0:0:0:
448,192,71966,1,0,0:0:0:0:
320,192,72023,1,0,0:0:0:0:
448,192,72080,1,0,0:0:0:0:
64,192,72138,1,0,0:0:0:0:
448,192,72195,1,0,0:0:0:0:
192,192,72252,1,0,0:0:0:0:
64,192,72309,1,0,0:0:0:0:
320,192,72309,1,0,0:0:0:0:
448,192,72366,1,0,0:0:0:0:
192,192,72423,1,0,0:0:0:0:
320,192,72480,1,0,0:0:0:0:
192,192,72538,1,0,0:0:0:0:
64,192,72595,1,0,0:0:0:0:
192,192,72652,1,0,0:0:0:0:
448,192,72709,1,0,0:0:0:0:
64,192,72766,1,0,0:0:0:0:
320,192,72766,1,0,0:0:0:0:
64,192,72880,1,0,0:0:0:0:
192,192,72880,1,0,0:0:0:0:
448,192,72880,1,0,0:0:0:0:
320,192,73109,1,0,0:0:0:0:
64,192,73166,1,0,0:0:0:0:
192,192,73223,1,0,0:0:0:0:
448,192,73223,1,0,0:0:0:0:
320,192,73280,1,0,0:0:0:0:
64,192,73338,1,0,0:0:0:0:
192,192,73395,1,0,0:0:0:0:
64,192,73452,1,0,0:0:0:0:
448,192,73509,1,0,0:0:0:0:
64,192,73566,1,0,0:0:0:0:
320,192,73623,1,0,0:0:0:0:
192,192,73680,1,0,0:0:0:0:
448,192,73680,1,0,0:0:0:0:
64,192,73738,1,0,0:0:0:0:
320,192,73795,1,0,0:0:0:0:
192,192,73852,1,0,0:0:0:0:
320,192,73909,1,0,0:0:0:0:
448,192,73966,1,0,0:0:0:0:
320,192,74023,1,0,0:0:0:0:
64,192,74080,1,0,0:0:0:0:
192,192,74138,1,0,0:0:0:0:
448,192,74138,1,0,0:0:0:0:
320,192,74195,1,0,0:0:0:0:
64,192,74252,1,0,0:0:0:0:
320,192,74309,1,0,0:0:0:0:
192,192,74366,1,0,0:0:0:0:
448,192,74366,1,0,0:0:0:0:
64,192,74423,1,0,0:0:0:0:
192,192,74480,1,0,0:0:0:0:
448,192,74480,1,0,0:0:0:0:
320,192,74538,1,0,0:0:0:0:
192,192,74595,1,0,0:0:0:0:
448,192,74595,1,0,0:0:0:0:
64,192,74709,1,0,0:0:0:0:
320,192,74709,1,0,0:0:0:0:
448,192,74709,1,0,0:0:0:0:
320,192,74938,1,0,0:0:0:0:
448,192,74995,1,0,0:0:0:0:
64,192,75052,1,0,0:0:0:0:
192,192,75052,1,0,0:0:0:0:
320,192,75109,1,0,0:0:0:0:
448,192,75166,1,0,0:0:0:0:
64,192,75223,1,0,0:0:0:0:
448,192,75280,1,0,0:0:0:0:
192,192,75338,1,0,0:0:0:0:
448,192,75395,1,0,0:0:0:0:
320,192,75452,1,0,0:0:0:0:
64,192,75509,1,0,0:0:0:0:
192,192,75509,1,0,0:0:0:0:
448,192,75566,1,0,0:0:0:0:
320,192,75623,1,0,0:0:0:0:
64,192,75680,1,0,0:0:0:0:
320,192,75738,1,0,0:0:0:0:
192,192,75795,1,0,0:0:0:0:
320,192,75852,1,0,0:0:0:0:
448,192,75909,1,0,0:0:0:0:
64,192,75966,1,0,0:0:0:0:
192,192,75966,1,0,0:0:0:0:
320,192,76023,1,0,0:0:0:0:
448,192,76080,1,0,0:0:0:0:
64,192,76138,1,0,0:0:0:0:
448,192,76195,1,0,0:0:0:0:
192,192,76252,1,0,0:0:0:0:
448,192,76309,1,0,0:0:0:0:
320,192,76366,1,0,0:0:0:0:
64,192,76423,1,0,0:0:0:0:
192,192,76423,1,0,0:0:0:0:
192,192,76538,1,0,0:0:0:0:
320,192,76538,1,0,0:0:0:0:
448,192,76538,1,0,0:0:0:0:
64,192,76766,1,0,0:0:0:0:
192,192,76823,1,0,0:0:0:0:
320,192,76880,1,0,0:0:0:0:
448,192,76880,1,0,0:0:0:0:
64,192,76938,1,0,0:0:0:0:
192,192,76995,1,0,0:0:0:0:
448,192,77052,1,0,0:0:0:0:
192,192,77109,1,0,0:0:0:0:
320,192,77166,1,0,0:0:0:0:
192,192,77223,1,0,0:0:0:0:
64,192,77280,1,0,0:0:0:0:
320,192,77338,1,0,0:0:0:0:
448,192,77338,1,0,0:0:0:0:
192,192,77395,1,0,0:0:0:0:
64,192,77452,1,0,0:0:0:0:
448,192,77509,1,0,0:0:0:0:
64,192,77566,1,0,0:0:0:0:
320,192,77623,1,0,0:0:0:0:
64,192,77680,1,0,0:0:0:0:
192,192,77738,1,0,0:0:0:0:
320,192,77795,1,0,0:0:0:0:
448,192,77795,1,0,0:0:0:0:
64,192,77852,1,0,0:0:0:0:
192,192,77909,1,0,0:0:0:0:
320,192,77966,1,0,0:0:0:0:
192,192,78023,1,0,0:0:0:0:
448,192,78080,1,0,0:0:0:0:
192,192,78138,1,0,0:0:0:0:
64,192,78195,1,0,0:0:0:0:
320,192,78252,1,0,0:0:0:0:
448,192,78252,1,0,0:0:0:0:
64,192,78366,1,0,0:0:0:0:
192,192,78366,1,0,0:0:0:0:
448,192,78366,1,0,0:0:0:0:
192,192,78595,1,0,0:0:0:0:
448,192,78652,1,0,0:0:0:0:
64,192,78709,1,0,0:0:0:0:
320,192,78709,1,0,0:0:0:0:
192,192,78766,1,0,0:0:0:0:
448,192,78823,1,0,0:0:0:0:
320,192,78880,1,0,0:0:0:0:
448,192,78938,1,0,0:0:0:0:
64,192,78995,1,0,0:0:0:0:
448,192,79052,1,0,0:0:0:0:
192,192,79109,1,0,0:0:0:0:
64,192,79166,1,0,0:0:0:0:
320,192,79166,1,0,0:0:0:0:
448,192,79223,1,0,0:0:0:0:
192,192,79280,1,0,0:0:0:0:
320,192,79338,1,0,0:0:0:0:
192,192,79395,1,0,0:0:0:0:
64,192,79452,1,0,0:0:0:0:
192,192,79509,1,0,0:0:0:0:
448,192,79566,1,0,0:0:0:0:
64,192,79623,1,0,0:0:0:0:
320,192,79623,1,0,0:0:0:0:
192,192,79680,1,0,0:0:0:0:
448,192,79738,1,0,0:0:0:0:
320,192,79795,1,0,0:0:0:0:
448,192,79852,1,0,0:0:0:0:
64,192,79909,1,0,0:0:0:0:
448,192,79966,1,0,0:0:0:0:
192,192,80023,1,0,0:0:0:0:
64,192,80080,1,0,0:0:0:0:
320,192,80080,1,0,0:0:0:0:
192,192,80195,1,0,0:0:0:0:
448,192,80195,1,0,0:0:0:0:
64,192,80309,1,0,0:0:0:0:
448,192,80309,1,0,0:0:0:0:
192,192,80385,1,0,0:0:0:0:
64,192,80423,1,0,0:0:0:0:
320,192,80461,1,0,0:0:0:0:
192,192,80538,1,0,0:0:0:0:
448,192,80538,1,0,0:0:0:0:
320,192,80614,1,0,0:0:0:0:
192,192,80652,1,0,0:0:0:0:
64,192,80690,1,0,0:0:0:0:
320,192,80766,1,0,0:0:0:0:
448,192,80766,1,0,0:0:0:0:
192,192,80842,1,0,0:0:0:0:
320,192,80880,1,0,0:0:0:0:
64,192,80918,1,0,0:0:0:0:
320,192,80995,1,0,0:0:0:0:
448,192,80995,1,0,0:0:0:0:
64,192,81071,1,0,0:0:0:0:
448,192,81109,1,0,0:0:0:0:
192,192,81147,1,0,0:0:0:0:
320,192,81223,1,0,0:0:0:0:
448,192,81223,1,0,0:0:0:0:
64,192,81299,1,0,0:0:0:0:
192,192,81338,1,0,0:0:0:0:
320,192,81338,1,0,0:0:0:0:
448,192,81376,1,0,0:0:0:0:
64,192,81452,1,0,0:0:0:0:
192,192,81452,1,0,0:0:0:0:
448,192,81528,1,0,0:0:0:0:
192,192,81566,1,0,0:0:0:0:
320,192,81566,1,0,0:0:0:0:
64,192,81604,1,0,0:0:0:0:
320,192,81680,1,0,0:0:0:0:
448,192,81680,1,0,0:0:0:0:
192,192,81757,1,0,0:0:0:0:
64,192,81795,1,0,0:0:0:0:
448,192,81795,1,0,0:0:0:0:
320,192,81833,1,0,0:0:0:0:
64,192,81909,1,0,0:0:0:0:
448,192,81909,1,0,0:0:0:0:
192,192,81966,1,0,0:0:0:0:
64,192,82023,1,0,0:0:0:0:
320,192,82023,1,0,0:0:0:0:
448,192,82023,1,0,0:0:0:0:
448,192,82252,1,0,0:0:0:0:
320,192,82309,1,0,0:0:0:0:
64,192,82366,1,0,0:0:0:0:
192,192,82366,1,0,0:0:0:0:
320,192,82423,1,0,0:0:0:0:
448,192,82480,1,0,0:0:0:0:
192,192,82538,1,0,0:0:0:0:
64,192,82595,1,0,0:0:0:0:
320,192,82595,1,0,0:0:0:0:
192,192,82652,1,0,0:0:0:0:
448,192,82709,1,0,0:0:0:0:
320,192,82766,1,0,0:0:0:0:
64,192,82823,1,0,0:0:0:0:
192,192,82823,1,0,0:0:0:0:
448,192,82880,1,0,0:0:0:0:
320,192,82938,1,0,0:0:0:0:
192,192,82995,1,0,0:0:0:0:
64,192,83052,1,0,0:0:0:0:
448,192,83052,1,0,0:0:0:0:
320,192,83109,1,0,0:0:0:0:
192,192,83166,1,0,0:0:0:0:
320,192,83223,1,0,0:0:0:0:
64,192,83280,1,0,0:0:0:0:
448,192,83280,1,0,0:0:0:0:
192,192,83338,1,0,0:0:0:0:
320,192,83395,1,0,0:0:0:0:
192,192,83452,1,0,0:0:0:0:
64,192,83509,1,0,0:0:0:0:
448,192,83509,1,0,0:0:0:0:
192,192,83566,1,0,0:0:0:0:
320,192,83623,1,0,0:0:0:0:
448,192,83680,1,0,0:0:0:0:
64,192,83738,1,0,0:0:0:0:
192,192,83738,1,0,0:0:0:0:
320,192,83795,1,0,0:0:0:0:
192,192,83852,1,0,0:0:0:0:
448,192,83852,1,0,0:0:0:0:
320,192,83909,1,0,0:0:0:0:
64,192,83966,1,0,0:0:0:0:
448,192,84023,1,0,0:0:0:0:
320,192,84080,1,0,0:0:0:0:
192,192,84138,1,0,0:0:0:0:
320,192,84195,1,0,0:0:0:0:
448,192,84195,1,0,0:0:0:0:
64,192,84252,1,0,0:0:0:0:
192,192,84309,1,0,0:0:0:0:
320,192,84366,1,0,0:0:0:0:
192,192,84423,1,0,0:0:0:0:
448,192,84423,1,0,0:0:0:0:
320,192,84480,1,0,0:0:0:0:
64,192,84538,1,0,0:0:0:0:
192,192,84595,1,0,0:0:0:0:
320,192,84652,1,0,0:0:0:0:
448,192,84652,1,0,0:0:0:0:
192,192,84709,1,0,0:0:0:0:
64,192,84766,1,0,0:0:0:0:
320,192,84823,1,0,0:0:0:0:
64,192,84880,1,0,0:0:0:0:
448,192,84880,1,0,0:0:0:0:
192,192,84938,1,0,0:0:0:0:
320,192,84995,1,0,0:0:0:0:
192,192,85052,1,0,0:0:0:0:
64,192,85109,1,0,0:0:0:0:
448,192,85109,1,0,0:0:0:0:
320,192,85166,1,0,0:0:0:0:
192,192,85223,1,0,0:0:0:0:
320,192,85280,1,0,0:0:0:0:
64,192,85338,1,0,0:0:0:0:
448,192,85338,1,0,0:0:0:0:
320,192,85395,1,0,0:0:0:0:
192,192,85452,1,0,0:0:0:0:
64,192,85509,1,0,0:0:0:0:
320,192,85566,1,0,0:0:0:0:
448,192,85566,1,0,0:0:0:0:
192,192,85623,1,0,0:0:0:0:
64,192,85680,1,0,0:0:0:0:
320,192,85680,1,0,0:0:0:0:
192,192,85738,1,0,0:0:0:0:
448,192,85795,1,0,0:0:0:0:
64,192,85852,1,0,0:0:0:0:
192,192,85909,1,0,0:0:0:0:
320,192,85966,1,0,0:0:0:0:
64,192,86023,1,0,0:0:0:0:
192,192,86023,1,0,0:0:0:0:
448,192,86080,1,0,0:0:0:0:
320,192,86138,1,0,0:0:0:0:
64,192,86195,1,0,0:0:0:0:
192,192,86252,1,0,0:0:0:0:
448,192,86252,1,0,0:0:0:0:
64,192,86309,1,0,0:0:0:0:
320,192,86366,1,0,0:0:0:0:
448,192,86423,1,0,0:0:0:0:
64,192,86480,1,0,0:0:0:0:
192,192,86480,1,0,0:0:0:0:
448,192,86538,1,0,0:0:0:0:
320,192,86595,1,0,0:0:0:0:
64,192,86652,1,0,0:0:0:0:
192,192,86709,1,0,0:0:0:0:
320,192,86709,1,0,0:0:0:0:
448,192,86766,1,0,0:0:0:0:
64,192,86823,1,0,0:0:0:0:
448,192,86880,1,0,0:0:0:0:
192,192,86938,1,0,0:0:0:0:
320,192,86938,1,0,0:0:0:0:
64,192,86995,1,0,0:0:0:0:
448,192,87052,1,0,0:0:0:0:
64,192,87109,1,0,0:0:0:0:
192,192,87166,1,0,0:0:0:0:
320,192,87166,1,0,0:0:0:0:
448,192,87223,1,0,0:0:0:0:
64,192,87280,1,0,0:0:0:0:
320,192,87338,1,0,0:0:0:0:
64,192,87395,1,0,0:0:0:0:
192,192,87395,1,0,0:0:0:0:
448,192,87452,1,0,0:0:0:0:
192,192,87509,1,0,0:0:0:0:
320,192,87509,1,0,0:0:0:0:
64,192,87566,1,0,0:0:0:0:
448,192,87623,1,0,0:0:0:0:
320,192,87680,1,0,0:0:0:0:
192,192,87738,1,0,0:0:0:0:
64,192,87795,1,0,0:0:0:0:
320,192,87852,1,0,0:0:0:0:
448,192,87852,1,0,0:0:0:0:
64,192,87909,1,0,0:0:0:0:
192,192,87966,1,0,0:0:0:0:
448,192,88023,1,0,0:0:0:0:
64,192,88080,1,0,0:0:0:0:
320,192,88080,1,0,0:0:0:0:
448,192,88138,1,0,0:0:0:0:
192,192,88195,1,0,0:0:0:0:
64,192,88252,1,0,0:0:0:0:
320,192,88309,1,0,0:0:0:0:
448,192,88309,1,0,0:0:0:0:
64,192,88366,1,0,0:0:0:0:
192,192,88423,1,0,0:0:0:0:
448,192,88480,1,0,0:0:0:0:
192,192,88538,1,0,0:0:0:0:
320,192,88538,1,0,0:0:0:0:
64,192,88595,1,0,0:0:0:0:
448,192,88652,1,0,0:0:0:0:
64,192,88709,1,0,0:0:0:0:
192,192,88766,1,0,0:0:0:0:
320,192,88766,1,0,0:0:0:0:
448,192,88823,1,0,0:0:0:0:
64,192,88880,1,0,0:0:0:0:
192,192,88880,1,0,0:0:0:0:
448,192,88938,1,0,0:0:0:0:
192,192,88995,1,0,0:0:0:0:
320,192,88995,1,0,0:0:0:0:
448,192,89052,1,0,0:0:0:0:
64,192,89109,1,0,0:0:0:0:
320,192,89109,1,0,0:0:0:0:
192,192,89166,1,0,0:0:0:0:
320,192,89223,1,0,0:0:0:0:
448,192,89223,1,0,0:0:0:0:
64,192,89280,1,0,0:0:0:0:
192,192,89338,1,0,0:0:0:0:
320,192,89338,1,0,0:0:0:0:
448,192,89338,1,0,0:0:0:0:
448,192,89566,1,0,0:0:0:0:
64,192,89623,1,0,0:0:0:0:
192,192,89680,1,0,0:0:0:0:
320,192,89680,1,0,0:0:0:0:
448,192,89738,1,0,0:0:0:0:
320,192,89795,1,0,0:0:0:0:
448,192,89852,1,0,0:0:0:0:
64,192,89909,1,0,0:0:0:0:
192,192,89909,1,0,0:0:0:0:
448,192,89966,1,0,0:0:0:0:
320,192,90023,1,0,0:0:0:0:
64,192,90080,1,0,0:0:0:0:
192,192,90138,1,0,0:0:0:0:
320,192,90138,1,0,0:0:0:0:
448,192,90195,1,0,0:0:0:0:
192,192,90252,1,0,0:0:0:0:
64,192,90309,1,0,0:0:0:0:
320,192,90366,1,0,0:0:0:0:
448,192,90366,1,0,0:0:0:0:
192,192,90423,1,0,0:0:0:0:
64,192,90480,1,0,0:0:0:0:
192,192,90538,1,0,0:0:0:0:
320,192,90595,1,0,0:0:0:0:
448,192,90595,1,0,0:0:0:0:
64,192,90652,1,0,0:0:0:0:
192,192,90709,1,0,0:0:0:0:
64,192,90766,1,0,0:0:0:0:
320,192,90823,1,0,0:0:0:0:
448,192,90823,1,0,0:0:0:0:
192,192,90880,1,0,0:0:0:0:
64,192,90938,1,0,0:0:0:0:
448,192,90995,1,0,0:0:0:0:
192,192,91052,1,0,0:0:0:0:
320,192,91052,1,0,0:0:0:0:
448,192,91109,1,0,0:0:0:0:
64,192,91166,1,0,0:0:0:0:
192,192,91166,1,0,0:0:0:0:
320,192,91223,1,0,0:0:0:0:
64,192,91280,1,0,0:0:0:0:
192,192,91338,1,0,0:0:0:0:
64,192,91395,1,0,0:0:0:0:
192,192,91452,1,0,0:0:0:0:
64,192,91509,1,0,0:0:0:0:
448,192,91509,1,0,0:0:0:0:
320,192,91566,1,0,0:0:0:0:
192,192,91623,1,0,0:0:0:0:
64,192,91680,1,0,0:0:0:0:
320,192,91738,1,0,0:0:0:0:
448,192,91738,1,0,0:0:0:0:
64,192,91795,1,0,0:0:0:0:
192,192,91852,1,0,0:0:0:0:
320,192,91909,1,0,0:0:0:0:
64,192,91966,1,0,0:0:0:0:
448,192,91966,1,0,0:0:0:0:
192,192,92023,1,0,0:0:0:0:
320,192,92080,1,0,0:0:0:0:
448,192,92138,1,0,0:0:0:0:
64,192,92195,1,0,0:0:0:0:
192,192,92195,1,0,0:0:0:0:
320,192,92252,1,0,0:0:0:0:
448,192,92309,1,0,0:0:0:0:
320,192,92366,1,0,0:0:0:0:
64,192,92423,1,0,0:0:0:0:
192,192,92423,1,0,0:0:0:0:
448,192,92480,1,0,0:0:0:0:
320,192,92538,1,0,0:0:0:0:
448,192,92595,1,0,0:0:0:0:
64,192,92652,1,0,0:0:0:0:
192,192,92652,1,0,0:0:0:0:
320,192,92709,1,0,0:0:0:0:
448,192,92766,1,0,0:0:0:0:
320,192,92823,1,0,0:0:0:0:
64,192,92880,1,0,0:0:0:0:
448,192,92880,1,0,0:0:0:0:
192,192,92938,1,0,0:0:0:0:
64,192,92995,1,0,0:0:0:0:
320,192,92995,1,0,0:0:0:0:
192,192,93052,1,0,0:0:0:0:
320,192,93109,1,0,0:0:0:0:
448,192,93109,1,0,0:0:0:0:
192,192,93166,1,0,0:0:0:0:
64,192,93223,1,0,0:0:0:0:
192,192,93280,1,0,0:0:0:0:
320,192,93338,1,0,0:0:0:0:
448,192,93338,1,0,0:0:0:0:
64,192,93395,1,0,0:0:0:0:
192,192,93452,1,0,0:0:0:0:
64,192,93509,1,0,0:0:0:0:
192,192,93566,1,0,0:0:0:0:
448,192,93566,1,0,0:0:0:0:
320,192,93623,1,0,0:0:0:0:
64,192,93680,1,0,0:0:0:0:
320,192,93738,1,0,0:0:0:0:
192,192,93795,1,0,0:0:0:0:
448,192,93795,1,0,0:0:0:0:
64,192,93852,1,0,0:0:0:0:
320,192,93909,1,0,0:0:0:0:
64,192,93966,1,0,0:0:0:0:
192,192,94023,1,0,0:0:0:0:
320,192,94023,1,0,0:0:0:0:
448,192,94080,1,0,0:0:0:0:
64,192,94138,1,0,0:0:0:0:
448,192,94195,1,0,0:0:0:0:
192,192,94252,1,0,0:0:0:0:
320,192,94252,1,0,0:0:0:0:
64,192,94309,1,0,0:0:0:0:
320,192,94366,1,0,0:0:0:0:
192,192,94423,1,0,0:0:0:0:
64,192,94480,1,0,0:0:0:0:
448,192,94480,1,0,0:0:0:0:
320,192,94538,1,0,0:0:0:0:
192,192,94595,1,0,0:0:0:0:
320,192,94652,1,0,0:0:0:0:
64,192,94709,1,0,0:0:0:0:
448,192,94709,1,0,0:0:0:0:
192,192,94766,1,0,0:0:0:0:
64,192,94823,1,0,0:0:0:0:
320,192,94823,1,0,0:0:0:0:
192,192,94880,1,0,0:0:0:0:
64,192,94938,1,0,0:0:0:0:
448,192,94938,1,0,0:0:0:0:
192,192,94995,1,0,0:0:0:0:
320,192,95052,1,0,0:0:0:0:
448,192,95109,1,0,0:0:0:0:
64,192,95166,1,0,0:0:0:0:
192,192,95166,1,0,0:0:0:0:
448,192,95223,1,0,0:0:0:0:
320,192,95280,1,0,0:0:0:0:
192,192,95338,1,0,0:0:0:0:
64,192,95395,1,0,0:0:0:0:
448,192,95395,1,0,0:0:0:0:
192,192,95452,1,0,0:0:0:0:
320,192,95509,1,0,0:0:0:0:
448,192,95566,1,0,0:0:0:0:
64,192,95623,1,0,0:0:0:0:
192,192,95623,1,0,0:0:0:0:
448,192,95680,1,0,0:0:0:0:
320,192,95738,1,0,0:0:0:0:
192,192,95795,1,0,0:0:0:0:
64,192,95852,1,0,0:0:0:0:
448,192,95852,1,0,0:0:0:0:
192,192,95909,1,0,0:0:0:0:
320,192,95966,1,0,0:0:0:0:
448,192,96023,1,0,0:0:0:0:
64,192,96080,1,0,0:0:0:0:
192,192,96080,1,0,0:0:0:0:
320,192,96138,1,0,0:0:0:0:
448,192,96195,1,0,0:0:0:0:
192,192,96252,1,0,0:0:0:0:
64,192,96309,1,0,0:0:0:0:
448,192,96309,1,0,0:0:0:0:
192,192,96366,1,0,0:0:0:0:
320,192,96423,1,0,0:0:0:0:
448,192,96480,1,0,0:0:0:0:
64,192,96538,1,0,0:0:0:0:
192,192,96538,1,0,0:0:0:0:
320,192,96595,1,0,0:0:0:0:
448,192,96652,1,0,0:0:0:0:
192,192,96709,1,0,0:0:0:0:
64,192,96766,1,0,0:0:0:0:
320,192,96766,1,0,0:0:0:0:
448,192,96766,1,0,0:0:0:0:
192,192,96842,1,0,0:0:0:0:
64,192,96918,1,0,0:0:0:0:
192,192,96995,1,0,0:0:0:0:
320,192,96995,1,0,0:0:0:0:
64,192,97071,1,0,0:0:0:0:
448,192,97071,1,0,0:0:0:0:
192,192,97147,1,0,0:0:0:0:
320,192,97147,1,0,0:0:0:0:
64,192,97223,1,0,0:0:0:0:
448,192,97223,1,0,0:0:0:0:
320,192,97299,1,0,0:0:0:0:
448,192,97376,1,0,0:0:0:0:
64,192,97452,1,0,0:0:0:0:
320,192,97452,1,0,0:0:0:0:
192,192,97528,1,0,0:0:0:0:
448,192,97528,1,0,0:0:0:0:
64,192,97604,1,0,0:0:0:0:
320,192,97604,1,0,0:0:0:0:
192,192,97680,1,0,0:0:0:0:
448,192,97680,1,0,0:0:0:0:
64,192,97738,1,0,0:0:0:0:
320,192,97795,1,0,0:0:0:0:
448,192,97795,1,0,0:0:0:0:
64,192,97852,1,0,0:0:0:0:
192,192,97852,1,0,0:0:0:0:
320,192,97909,1,0,0:0:0:0:
448,192,97909,1,0,0:0:0:0:
64,192,97966,1,0,0:0:0:0:
192,192,97966,1,0,0:0:0:0:
320,192,98023,1,0,0:0:0:0:
448,192,98023,1,0,0:0:0:0:
64,192,98080,1,0,0:0:0:0:
192,192,98080,1,0,0:0:0:0:
320,192,98138,1,0,0:0:0:0:
448,192,98138,1,0,0:0:0:0:
192,192,98252,1,0,0:0:0:0:
64,192,98480,1,0,0:0:0:0:
192,192,98480,1,0,0:0:0:0:
320,192,98480,1,0,0:0:0:0:
448,192,98480,1,0,0:0:0:0:
320,192,98709,1,0,0:0:0:0:
448,192,98709,1,0,0:0:0:0:
192,192,98766,1,0,0:0:0:0:
64,192,98823,1,0,0:0:0:0:
448,192,98823,1,0,0:0:0:0:
320,192,98880,1,0,0:0:0:0:
192,192,98938,1,0,0:0:0:0:
448,192,98938,1,0,0:0:0:0:
320,192,98995,1,0,0:0:0:0:
192,192,99052,1,0,0:0:0:0:
448,192,99052,1,0,0:0:0:0:
64,192,99109,1,0,0:0:0:0:
192,192,99166,1,0,0:0:0:0:
448,192,99166,1,0,0:0:0:0:
320,192,99223,1,0,0:0:0:0:
64,192,99280,1,0,0:0:0:0:
192,192,99280,1,0,0:0:0:0:
448,192,99338,1,0,0:0:0:0:
64,192,99395,1,0,0:0:0:0:
320,192,99395,1,0,0:0:0:0:
192,192,99452,1,0,0:0:0:0:
64,192,99509,1,0,0:0:0:0:
320,192,99509,1,0,0:0:0:0:
448,192,99566,1,0,0:0:0:0:
64,192,99623,1,0,0:0:0:0:
320,192,99623,1,0,0:0:0:0:
192,192,99680,1,0,0:0:0:0:
320,192,99738,1,0,0:0:0:0:
448,192,99738,1,0,0:0:0:0:
64,192,99795,1,0,0:0:0:0:
192,192,99852,1,0,0:0:0:0:
320,192,99852,1,0,0:0:0:0:
448,192,99909,1,0,0:0:0:0:
192,192,99966,1,0,0:0:0:0:
320,192,99966,1,0,0:0:0:0:
64,192,100023,1,0,0:0:0:0:
192,192,100080,1,0,0:0:0:0:
320,192,100080,1,0,0:0:0:0:
448,192,100138,1,0,0:0:0:0:
64,192,100195,1,0,0:0:0:0:
192,192,100195,1,0,0:0:0:0:
320,192,100252,1,0,0:0:0:0:
192,192,100309,1,0,0:0:0:0:
448,192,100309,1,0,0:0:0:0:
320,192,100366,1,0,0:0:0:0:
64,192,100423,1,0,0:0:0:0:
320,192,100480,1,0,0:0:0:0:
192,192,100538,1,0,0:0:0:0:
448,192,100538,1,0,0:0:0:0:
320,192,100595,1,0,0:0:0:0:
64,192,100652,1,0,0:0:0:0:
448,192,100652,1,0,0:0:0:0:
320,192,100709,1,0,0:0:0:0:
64,192,100766,1,0,0:0:0:0:
192,192,100766,1,0,0:0:0:0:
448,192,100823,1,0,0:0:0:0:
64,192,100880,1,0,0:0:0:0:
192,192,100880,1,0,0:0:0:0:
320,192,100938,1,0,0:0:0:0:
64,192,100995,1,0,0:0:0:0:
192,192,100995,1,0,0:0:0:0:
448,192,101052,1,0,0:0:0:0:
192,192,101109,1,0,0:0:0:0:
320,192,101109,1,0,0:0:0:0:
64,192,101166,1,0,0:0:0:0:
320,192,101223,1,0,0:0:0:0:
448,192,101223,1,0,0:0:0:0:
192,192,101280,1,0,0:0:0:0:
320,192,101338,1,0,0:0:0:0:
448,192,101338,1,0,0:0:0:0:
64,192,101395,1,0,0:0:0:0:
320,192,101452,1,0,0:0:0:0:
448,192,101452,1,0,0:0:0:0:
192,192,101509,1,0,0:0:0:0:
64,192,101566,1,0,0:0:0:0:
448,192,101566,1,0,0:0:0:0:
192,192,101623,1,0,0:0:0:0:
64,192,101680,1,0,0:0:0:0:
320,192,101680,1,0,0:0:0:0:
448,192,101738,1,0,0:0:0:0:
64,192,101795,1,0,0:0:0:0:
320,192,101795,1,0,0:0:0:0:
192,192,101852,1,0,0:0:0:0:
64,192,101909,1,0,0:0:0:0:
320,192,101909,1,0,0:0:0:0:
448,192,101966,1,0,0:0:0:0:
64,192,102023,1,0,0:0:0:0:
192,192,102023,1,0,0:0:0:0:
320,192,102080,1,0,0:0:0:0:
64,192,102138,1,0,0:0:0:0:
448,192,102138,1,0,0:0:0:0:
192,192,102195,1,0,0:0:0:0:
320,192,102252,1,0,0:0:0:0:
64,192,102309,1,0,0:0:0:0:
192,192,102366,1,0,0:0:0:0:
448,192,102366,1,0,0:0:0:0:
320,192,102423,1,0,0:0:0:0:
64,192,102480,1,0,0:0:0:0:
448,192,102480,1,0,0:0:0:0:
192,192,102538,1,0,0:0:0:0:
64,192,102595,1,0,0:0:0:0:
320,192,102595,1,0,0:0:0:0:
448,192,102652,1,0,0:0:0:0:
64,192,102709,1,0,0:0:0:0:
320,192,102709,1,0,0:0:0:0:
192,192,102766,1,0,0:0:0:0:
64,192,102823,1,0,0:0:0:0:
320,192,102823,1,0,0:0:0:0:
448,192,102880,1,0,0:0:0:0:
64,192,102938,1,0,0:0:0:0:
192,192,102938,1,0,0:0:0:0:
320,192,102995,1,0,0:0:0:0:
192,192,103052,1,0,0:0:0:0:
448,192,103052,1,0,0:0:0:0:
320,192,103109,1,0,0:0:0:0:
192,192,103166,1,0,0:0:0:0:
448,192,103166,1,0,0:0:0:0:
64,192,103223,1,0,0:0:0:0:
192,192,103280,1,0,0:0:0:0:
448,192,103280,1,0,0:0:0:0:
320,192,103338,1,0,0:0:0:0:
64,192,103395,1,0,0:0:0:0:
448,192,103395,1,0,0:0:0:0:
192,192,103452,1,0,0:0:0:0:
64,192,103509,1,0,0:0:0:0:
320,192,103509,1,0,0:0:0:0:
448,192,103566,1,0,0:0:0:0:
64,192,103623,1,0,0:0:0:0:
320,192,103623,1,0,0:0:0:0:
192,192,103680,1,0,0:0:0:0:
64,192,103738,1,0,0:0:0:0:
320,192,103738,1,0,0:0:0:0:
448,192,103795,1,0,0:0:0:0:
64,192,103852,1,0,0:0:0:0:
192,192,103852,1,0,0:0:0:0:
320,192,103909,1,0,0:0:0:0:
192,192,103966,1,0,0:0:0:0:
448,192,103966,1,0,0:0:0:0:
64,192,104023,1,0,0:0:0:0:
320,192,104080,1,0,0:0:0:0:
192,192,104138,1,0,0:0:0:0:
64,192,104195,1,0,0:0:0:0:
448,192,104195,1,0,0:0:0:0:
320,192,104252,1,0,0:0:0:0:
192,192,104309,1,0,0:0:0:0:
448,192,104309,1,0,0:0:0:0:
64,192,104366,1,0,0:0:0:0:
320,192,104423,1,0,0:0:0:0:
448,192,104423,1,0,0:0:0:0:
192,192,104480,1,0,0:0:0:0:
320,192,104538,1,0,0:0:0:0:
448,192,104538,1,0,0:0:0:0:
64,192,104595,1,0,0:0:0:0:
320,192,104652,1,0,0:0:0:0:
448,192,104652,1,0,0:0:0:0:
64,192,104709,1,0,0:0:0:0:
192,192,104766,1,0,0:0:0:0:
320,192,104766,1,0,0:0:0:0:
448,192,104823,1,0,0:0:0:0:
64,192,104880,1,0,0:0:0:0:
320,192,104880,1,0,0:0:0:0:
192,192,104938,1,0,0:0:0:0:
64,192,104995,1,0,0:0:0:0:
320,192,104995,1,0,0:0:0:0:
448,192,105052,1,0,0:0:0:0:
64,192,105109,1,0,0:0:0:0:
320,192,105109,1,0,0:0:0:0:
192,192,105166,1,0,0:0:0:0:
320,192,105223,1,0,0:0:0:0:
448,192,105223,1,0,0:0:0:0:
64,192,105280,1,0,0:0:0:0:
192,192,105338,1,0,0:0:0:0:
448,192,105338,1,0,0:0:0:0:
320,192,105395,1,0,0:0:0:0:
64,192,105452,1,0,0:0:0:0:
192,192,105452,1,0,0:0:0:0:
448,192,105452,1,0,0:0:0:0:
192,192,105566,1,0,0:0:0:0:
320,192,105566,1,0,0:0:0:0:
448,192,105566,1,0,0:0:0:0:
64,192,105680,1,0,0:0:0:0:
320,192,105680,1,0,0:0:0:0:
448,192,105680,1,0,0:0:0:0:
64,192,105795,1,0,0:0:0:0:
192,192,105795,1,0,0:0:0:0:
320,192,105795,1,0,0:0:0:0:
448,192,105795,1,0,0:0:0:0:
64,192,106023,1,0,0:0:0:0:
192,192,106023,1,0,0:0:0:0:
448,192,106080,1,0,0:0:0:0:
192,192,106138,1,0,0:0:0:0:
320,192,106138,1,0,0:0:0:0:
64,192,106195,1,0,0:0:0:0:
192,192,106252,1,0,0:0:0:0:
448,192,106252,1,0,0:0:0:0:
320,192,106309,1,0,0:0:0:0:
192,192,106366,1,0,0:0:0:0:
448,192,106366,1,0,0:0:0:0:
64,192,106423,1,0,0:0:0:0:
192,192,106480,1,0,0:0:0:0:
448,192,106480,1,0,0:0:0:0:
320,192,106538,1,0,0:0:0:0:
64,192,106595,1,0,0:0:0:0:
192,192,106595,1,0,0:0:0:0:
320,192,106652,1,0,0:0:0:0:
64,192,106709,1,0,0:0:0:0:
448,192,106709,1,0,0:0:0:0:
192,192,106766,1,0,0:0:0:0:
64,192,106823,1,0,0:0:0:0:
448,192,106823,1,0,0:0:0:0:
320,192,106880,1,0,0:0:0:0:
64,192,106938,1,0,0:0:0:0:
448,192,106938,1,0,0:0:0:0:
192,192,106995,1,0,0:0:0:0:
64,192,107052,1,0,0:0:0:0:
320,192,107052,1,0,0:0:0:0:
192,192,107109,1,0,0:0:0:0:
320,192,107166,1,0,0:0:0:0:
448,192,107166,1,0,0:0:0:0:
64,192,107223,1,0,0:0:0:0:
320,192,107280,1,0,0:0:0:0:
448,192,107280,1,0,0:0:0:0:
64,192,107338,1,0,0:0:0:0:
320,192,107395,1,0,0:0:0:0:
448,192,107395,1,0,0:0:0:0:
192,192,107452,1,0,0:0:0:0:
64,192,107509,1,0,0:0:0:0:
448,192,107509,1,0,0:0:0:0:
320,192,107566,1,0,0:0:0:0:
64,192,107623,1,0,0:0:0:0:
192,192,107623,1,0,0:0:0:0:
448,192,107680,1,0,0:0:0:0:
320,192,107738,1,0,0:0:0:0:
192,192,107795,1,0,0:0:0:0:
64,192,107852,1,0,0:0:0:0:
448,192,107852,1,0,0:0:0:0:
320,192,107909,1,0,0:0:0:0:
192,192,107966,1,0,0:0:0:0:
448,192,107966,1,0,0:0:0:0:
320,192,108023,1,0,0:0:0:0:
64,192,108080,1,0,0:0:0:0:
192,192,108080,1,0,0:0:0:0:
448,192,108138,1,0,0:0:0:0:
64,192,108195,1,0,0:0:0:0:
192,192,108195,1,0,0:0:0:0:
320,192,108252,1,0,0:0:0:0:
64,192,108309,1,0,0:0:0:0:
192,192,108309,1,0,0:0:0:0:
448,192,108366,1,0,0:0:0:0:
64,192,108423,1,0,0:0:0:0:
320,192,108423,1,0,0:0:0:0:
192,192,108480,1,0,0:0:0:0:
320,192,108538,1,0,0:0:0:0:
448,192,108538,1,0,0:0:0:0:
64,192,108595,1,0,0:0:0:0:
320,192,108652,1,0,0:0:0:0:
448,192,108652,1,0,0:0:0:0:
192,192,108709,1,0,0:0:0:0:
320,192,108766,1,0,0:0:0:0:
448,192,108766,1,0,0:0:0:0:
64,192,108823,1,0,0:0:0:0:
192,192,108880,1,0,0:0:0:0:
320,192,108880,1,0,0:0:0:0:
64,192,108938,1,0,0:0:0:0:
192,192,108995,1,0,0:0:0:0:
448,192,108995,1,0,0:0:0:0:
320,192,109052,1,0,0:0:0:0:
192,192,109109,1,0,0:0:0:0:
448,192,109109,1,0,0:0:0:0:
64,192,109166,1,0,0:0:0:0:
192,192,109223,1,0,0:0:0:0:
448,192,109223,1,0,0:0:0:0:
320,192,109280,1,0,0:0:0:0:
64,192,109338,1,0,0:0:0:0:
192,192,109338,1,0,0:0:0:0:
320,192,109395,1,0,0:0:0:0:
64,192,109452,1,0,0:0:0:0:
448,192,109452,1,0,0:0:0:0:
320,192,109509,1,0,0:0:0:0:
192,192,109566,1,0,0:0:0:0:
64,192,109623,1,0,0:0:0:0:
320,192,109680,1,0,0:0:0:0:
448,192,109680,1,0,0:0:0:0:
192,192,109738,1,0,0:0:0:0:
64,192,109795,1,0,0:0:0:0:
320,192,109795,1,0,0:0:0:0:
448,192,109852,1,0,0:0:0:0:
64,192,109909,1,0,0:0:0:0:
192,192,109909,1,0,0:0:0:0:
320,192,109966,1,0,0:0:0:0:
64,192,110023,1,0,0:0:0:0:
192,192,110023,1,0,0:0:0:0:
448,192,110080,1,0,0:0:0:0:
64,192,110138,1,0,0:0:0:0:
192,192,110138,1,0,0:0:0:0:
320,192,110195,1,0,0:0:0:0:
192,192,110252,1,0,0:0:0:0:
448,192,110252,1,0,0:0:0:0:
64,192,110309,1,0,0:0:0:0:
320,192,110366,1,0,0:0:0:0:
448,192,110366,1,0,0:0:0:0:
192,192,110423,1,0,0:0:0:0:
320,192,110480,1,0,0:0:0:0:
448,192,110480,1,0,0:0:0:0:
64,192,110538,1,0,0:0:0:0:
320,192,110595,1,0,0:0:0:0:
448,192,110595,1,0,0:0:0:0:
192,192,110652,1,0,0:0:0:0:
64,192,110709,1,0,0:0:0:0:
320,192,110709,1,0,0:0:0:0:
192,192,110766,1,0,0:0:0:0:
64,192,110823,1,0,0:0:0:0:
448,192,110823,1,0,0:0:0:0:
320,192,110880,1,0,0:0:0:0:
64,192,110938,1,0,0:0:0:0:
448,192,110938,1,0,0:0:0:0:
192,192,110995,1,0,0:0:0:0:
64,192,111052,1,0,0:0:0:0:
448,192,111052,1,0,0:0:0:0:
320,192,111109,1,0,0:0:0:0:
64,192,111166,1,0,0:0:0:0:
192,192,111166,1,0,0:0:0:0:
320,192,111223,1,0,0:0:0:0:
192,192,111280,1,0,0:0:0:0:
448,192,111280,1,0,0:0:0:0:
64,192,111338,1,0,0:0:0:0:
320,192,111395,1,0,0:0:0:0:
192,192,111452,1,0,0:0:0:0:
448,192,111509,1,0,0:0:0:0:
320,192,111566,1,0,0:0:0:0:
192,192,111623,1,0,0:0:0:0:
64,192,111680,1,0,0:0:0:0:
320,192,111738,1,0,0:0:0:0:
192,192,111795,1,0,0:0:0:0:
64,192,111852,1,0,0:0:0:0:
448,192,111909,1,0,0:0:0:0:
192,192,111966,1,0,0:0:0:0:
64,192,112023,1,0,0:0:0:0:
448,192,112080,1,0,0:0:0:0:
320,192,112138,1,0,0:0:0:0:
192,192,112195,1,0,0:0:0:0:
448,192,112252,1,0,0:0:0:0:
320,192,112309,1,0,0:0:0:0:
192,192,112366,1,0,0:0:0:0:
64,192,112423,1,0,0:0:0:0:
320,192,112480,1,0,0:0:0:0:
192,192,112538,1,0,0:0:0:0:
64,192,112595,1,0,0:0:0:0:
448,192,112652,1,0,0:0:0:0:
192,192,112709,1,0,0:0:0:0:
64,192,112766,1,0,0:0:0:0:
448,192,112823,1,0,0:0:0:0:
320,192,112880,1,0,0:0:0:0:
64,192,112938,1,0,0:0:0:0:
448,192,112995,1,0,0:0:0:0:
192,192,113052,1,0,0:0:0:0:
320,192,113109,1,0,0:0:0:0:
448,192,113166,1,0,0:0:0:0:
64,192,113223,128,0,114306:0:0:0:0:
192,192,113223,1,0,0:0:0:0:
448,192,113629,1,0,0:0:0:0:
448,192,114035,1,0,0:0:0:0:
192,192,114306,128,0,115300:0:0:0:0:
320,192,114306,1,0,0:0:0:0:
64,192,115300,1,0,0:0:0:0:
448,192,115300,128,0,116315:0:0:0:0:
64,192,115680,1,0,0:0:0:0:
64,192,116061,1,0,0:0:0:0:
192,192,116315,1,0,0:0:0:0:
320,192,116315,128,0,117321:0:0:0:0:
64,192,116823,1,0,0:0:0:0:
448,192,116887,1,0,0:0:0:0:
192,192,116950,1,0,0:0:0:0:
64,192,117078,1,0,0:0:0:0:
448,192,117199,1,0,0:0:0:0:
64,192,117321,1,0,0:0:0:0:
192,192,117321,128,0,118306:0:0:0:0:
320,192,117690,1,0,0:0:0:0:
64,192,118059,1,0,0:0:0:0:
320,192,118306,128,0,119306:0:0:0:0:
448,192,118306,1,0,0:0:0:0:
448,192,118803,1,0,0:0:0:0:
192,192,119054,1,0,0:0:0:0:
192,192,119180,1,0,0:0:0:0:
64,192,119306,128,0,120291:0:0:0:0:
448,192,119552,1,0,0:0:0:0:
448,192,119675,1,0,0:0:0:0:
192,192,119798,1,0,0:0:0:0:
192,192,119921,1,0,0:0:0:0:
320,192,120044,1,0,0:0:0:0:
320,192,120168,1,0,0:0:0:0:
448,192,120291,1,0,0:0:0:0:
320,192,120414,1,0,0:0:0:0:
192,192,120537,1,0,0:0:0:0:
64,192,120660,1,0,0:0:0:0:
320,192,120783,1,0,0:0:0:0:
448,192,120783,1,0,0:0:0:0:
192,192,120906,1,0,0:0:0:0:
448,192,120906,1,0,0:0:0:0:
64,192,121030,1,0,0:0:0:0:
448,192,121030,1,0,0:0:0:0:
192,192,121153,1,0,0:0:0:0:
320,192,121153,1,0,0:0:0:0:
64,192,121277,128,0,122258:0:0:0:0:
192,192,121277,1,0,0:0:0:0:
448,192,121277,1,0,0:0:0:0:
448,192,121644,1,0,0:0:0:0:
448,192,122012,1,0,0:0:0:0:
192,192,122258,128,0,123269:0:0:0:0:
320,192,122258,1,0,0:0:0:0:
320,192,122763,1,0,0:0:0:0:
64,192,123269,1,0,0:0:0:0:
320,192,123269,1,0,0:0:0:0:
448,192,123352,128,0,124277:0:0:0:0:
320,192,123646,1,0,0:0:0:0:
64,192,124024,1,0,0:0:0:0:
192,192,124277,1,0,0:0:0:0:
320,192,124277,128,0,125274:0:0:0:0:
64,192,124778,1,0,0:0:0:0:
448,192,124902,1,0,0:0:0:0:
192,192,125027,1,0,0:0:0:0:
64,192,125150,1,0,0:0:0:0:
192,192,125274,128,0,126257:0:0:0:0:
448,192,125274,1,0,0:0:0:0:
448,192,125638,1,0,0:0:0:0:
64,192,126003,1,0,0:0:0:0:
320,192,126257,128,0,127246:0:0:0:0:
448,192,126257,1,0,0:0:0:0:
64,192,126754,1,0,0:0:0:0:
192,192,127000,1,0,0:0:0:0:
64,192,127123,1,0,0:0:0:0:
448,192,127246,128,0,127739:0:0:0:0:
64,192,127616,1,0,0:0:0:0:
192,192,127739,1,0,0:0:0:0:
320,192,127821,1,0,0:0:0:0:
448,192,127903,1,0,0:0:0:0:
64,192,127985,1,0,0:0:0:0:
320,192,127985,1,0,0:0:0:0:
192,192,128067,1,0,0:0:0:0:
320,192,128149,1,0,0:0:0:0:
192,192,128231,1,0,0:0:0:0:
448,192,128231,1,0,0:0:0:0:
64,192,128313,1,0,0:0:0:0:
320,192,128396,1,0,0:0:0:0:
192,192,128478,1,0,0:0:0:0:
448,192,128560,1,0,0:0:0:0:
64,192,128642,1,0,0:0:0:0:
192,192,128724,1,0,0:0:0:0:
320,192,128806,1,0,0:0:0:0:
64,192,128888,1,0,0:0:0:0:
448,192,128970,1,0,0:0:0:0:
320,192,129011,1,0,0:0:0:0:
192,192,129052,1,0,0:0:0:0:
64,192,129093,1,0,0:0:0:0:
448,192,129134,1,0,0:0:0:0:
320,192,129176,1,0,0:0:0:0:
64,192,129217,1,0,0:0:0:0:
192,192,129217,128,0,130217:0:0:0:0:
448,192,129467,1,0,0:0:0:0:
64,192,129592,1,0,0:0:0:0:
320,192,129592,1,0,0:0:0:0:
448,192,129967,1,0,0:0:0:0:
64,192,130092,1,0,0:0:0:0:
64,192,130217,1,0,0:0:0:0:
320,192,130217,128,0,131217:0:0:0:0:
448,192,130217,1,0,0:0:0:0:
448,192,130717,1,0,0:0:0:0:
64,192,130842,1,0,0:0:0:0:
192,192,131123,1,0,0:0:0:0:
64,192,131217,128,0,132217:0:0:0:0:
192,192,131217,1,0,0:0:0:0:
448,192,131217,1,0,0:0:0:0:
448,192,131467,1,0,0:0:0:0:
192,192,131592,1,0,0:0:0:0:
320,192,131592,1,0,0:0:0:0:
320,192,131967,1,0,0:0:0:0:
448,192,131967,1,0,0:0:0:0:
320,192,132092,1,0,0:0:0:0:
192,192,132217,1,0,0:0:0:0:
448,192,132217,128,0,133218:0:0:0:0:
320,192,132342,1,0,0:0:0:0:
64,192,132468,1,0,0:0:0:0:
192,192,132593,1,0,0:0:0:0:
64,192,132718,1,0,0:0:0:0:
320,192,132718,1,0,0:0:0:0:
192,192,132843,1,0,0:0:0:0:
320,192,132968,1,0,0:0:0:0:
64,192,133093,1,0,0:0:0:0:
64,192,133218,1,0,0:0:0:0:
192,192,133218,128,0,134218:0:0:0:0:
320,192,133218,1,0,0:0:0:0:
64,192,133593,1,0,0:0:0:0:
320,192,133718,1,0,0:0:0:0:
448,192,133718,1,0,0:0:0:0:
448,192,133968,1,0,0:0:0:0:
64,192,134218,128,0,135218:0:0:0:0:
320,192,134218,1,0,0:0:0:0:
448,192,134218,1,0,0:0:0:0:
320,192,134718,1,0,0:0:0:0:
448,192,134718,1,0,0:0:0:0:
192,192,134843,1,0,0:0:0:0:
320,192,134968,1,0,0:0:0:0:
448,192,134968,1,0,0:0:0:0:
192,192,135031,1,0,0:0:0:0:
320,192,135093,1,0,0:0:0:0:
448,192,135156,1,0,0:0:0:0:
192,192,135218,1,0,0:0:0:0:
320,192,135218,128,0,136219:0:0:0:0:
64,192,135593,1,0,0:0:0:0:
192,192,135593,1,0,0:0:0:0:
64,192,135844,1,0,0:0:0:0:
448,192,135844,1,0,0:0:0:0:
64,192,135969,1,0,0:0:0:0:
192,192,135969,1,0,0:0:0:0:
448,192,136094,1,0,0:0:0:0:
64,192,136219,1,0,0:0:0:0:
192,192,136219,1,0,0:0:0:0:
448,192,136344,1,0,0:0:0:0:
320,192,136469,1,0,0:0:0:0:
192,192,136594,1,0,0:0:0:0:
320,192,136719,1,0,0:0:0:0:
64,192,136844,1,0,0:0:0:0:
448,192,136969,128,0,137219:0:0:0:0:
320,192,137011,1,0,0:0:0:0:
64,192,137052,1,0,0:0:0:0:
192,192,137094,1,0,0:0:0:0:
320,192,137156,1,0,0:0:0:0:
64,192,137219,128,0,138219:0:0:0:0:
192,192,137219,1,0,0:0:0:0:
192,192,137594,1,0,0:0:0:0:
448,192,137594,1,0,0:0:0:0:
320,192,137969,1,0,0:0:0:0:
448,192,137969,1,0,0:0:0:0:
192,192,138219,128,0,139220:0:0:0:0:
448,192,138219,1,0,0:0:0:0:
448,192,138719,1,0,0:0:0:0:
320,192,138845,1,0,0:0:0:0:
64,192,138970,1,0,0:0:0:0:
448,192,138970,1,0,0:0:0:0:
64,192,139095,1,0,0:0:0:0:
320,192,139095,1,0,0:0:0:0:
320,192,139220,1,0,0:0:0:0:
448,192,139220,128,0,140220:0:0:0:0:
192,192,139595,1,0,0:0:0:0:
320,192,139595,1,0,0:0:0:0:
64,192,139720,1,0,0:0:0:0:
320,192,139782,1,0,0:0:0:0:
192,192,139845,1,0,0:0:0:0:
64,192,139907,1,0,0:0:0:0:
320,192,139970,1,0,0:0:0:0:
64,192,140053,1,0,0:0:0:0:
192,192,140137,1,0,0:0:0:0:
320,192,140220,128,0,141595:0:0:0:0:
64,192,140303,1,0,0:0:0:0:
192,192,140387,1,0,0:0:0:0:
448,192,140470,1,0,0:0:0:0:
64,192,140553,1,0,0:0:0:0:
448,192,140637,1,0,0:0:0:0:
192,192,140720,1,0,0:0:0:0:
64,192,140783,1,0,0:0:0:0:
192,192,140845,1,0,0:0:0:0:
448,192,140908,1,0,0:0:0:0:
64,192,140970,1,0,0:0:0:0:
448,192,141054,128,0,143184:0:0:0:0:
192,192,141137,128,0,143723:0:0:0:0:
64,192,141220,128,0,142645:0:0:0:0:
320,192,141721,128,0,142110:0:0:0:0:
320,192,142241,128,0,145904:0:0:0:0:
64,192,142780,128,0,144801:0:0:0:0:
448,192,143319,128,0,145340:0:0:0:0:
192,192,143858,128,0,144262:0:0:0:0:
192,192,144397,128,0,145340:0:0:0:0:
64,192,144936,128,0,147110:0:0:0:0:
192,192,145476,128,0,146486:0:0:0:0:
448,192,145476,128,0,147787:0:0:0:0:
320,192,146047,128,0,149103:0:0:0:0:
192,192,146634,128,0,148495:0:0:0:0:
64,192,147268,128,0,149781:0:0:0:0:
448,192,147960,128,0,152161:0:0:0:0:
192,192,148675,128,0,150436:0:0:0:0:
320,192,149246,128,0,152161:0:0:0:0:
64,192,149960,128,0,152161:0:0:0:0:
192,192,150596,128,0,152161:0:0:0:0:
448,192,152422,1,0,0:0:0:0:
64,192,152536,1,0,0:0:0:0:
448,192,152650,1,0,0:0:0:0:
448,192,152764,1,0,0:0:0:0:
320,192,152879,1,0,0:0:0:0:
320,192,152993,1,0,0:0:0:0:
192,192,153107,1,0,0:0:0:0:
192,192,153222,1,0,0:0:0:0:
64,192,153336,1,0,0:0:0:0:
64,192,153450,1,0,0:0:0:0:
192,192,153564,1,0,0:0:0:0:
192,192,153679,1,0,0:0:0:0:
320,192,153793,1,0,0:0:0:0:
320,192,153907,1,0,0:0:0:0:
192,192,154022,1,0,0:0:0:0:
192,192,154136,1,0,0:0:0:0:
448,192,154250,1,0,0:0:0:0:
320,192,154365,1,0,0:0:0:0:
448,192,154365,1,0,0:0:0:0:
64,192,154441,1,0,0:0:0:0:
192,192,154441,1,0,0:0:0:0:
448,192,154517,1,0,0:0:0:0:
64,192,154593,1,0,0:0:0:0:
320,192,154593,1,0,0:0:0:0:
192,192,154669,1,0,0:0:0:0:
448,192,154669,1,0,0:0:0:0:
320,192,154745,1,0,0:0:0:0:
64,192,154822,1,0,0:0:0:0:
448,192,154822,1,0,0:0:0:0:
192,192,154898,1,0,0:0:0:0:
320,192,154898,1,0,0:0:0:0:
448,192,154974,1,0,0:0:0:0:
64,192,155050,1,0,0:0:0:0:
192,192,155050,1,0,0:0:0:0:
320,192,155126,1,0,0:0:0:0:
448,192,155126,1,0,0:0:0:0:
192,192,155203,1,0,0:0:0:0:
64,192,155279,1,0,0:0:0:0:
448,192,155279,1,0,0:0:0:0:
192,192,155355,1,0,0:0:0:0:
320,192,155355,1,0,0:0:0:0:
448,192,155431,1,0,0:0:0:0:
64,192,155507,1,0,0:0:0:0:
192,192,155507,1,0,0:0:0:0:
320,192,155584,1,0,0:0:0:0:
448,192,155584,1,0,0:0:0:0:
192,192,155660,1,0,0:0:0:0:
64,192,155736,1,0,0:0:0:0:
320,192,155736,1,0,0:0:0:0:
192,192,155812,1,0,0:0:0:0:
448,192,155812,1,0,0:0:0:0:
64,192,155888,1,0,0:0:0:0:
320,192,155965,1,0,0:0:0:0:
448,192,155965,1,0,0:0:0:0:
192,192,156022,1,0,0:0:0:0:
64,192,156079,1,0,0:0:0:0:
320,192,156079,1,0,0:0:0:0:
448,192,156079,1,0,0:0:0:0:
64,192,156307,1,0,0:0:0:0:
448,192,156365,1,0,0:0:0:0:
64,192,156422,1,0,0:0:0:0:
192,192,156422,1,0,0:0:0:0:
320,192,156422,1,0,0:0:0:0:
448,192,156479,1,0,0:0:0:0:
320,192,156536,1,0,0:0:0:0:
192,192,156593,1,0,0:0:0:0:
64,192,156650,1,0,0:0:0:0:
320,192,156707,1,0,0:0:0:0:
448,192,156765,1,0,0:0:0:0:
64,192,156822,1,0,0:0:0:0:
192,192,156879,1,0,0:0:0:0:
320,192,156879,1,0,0:0:0:0:
448,192,156879,1,0,0:0:0:0:
64,192,156936,1,0,0:0:0:0:
320,192,156993,1,0,0:0:0:0:
192,192,157050,1,0,0:0:0:0:
64,192,157107,1,0,0:0:0:0:
448,192,157107,1,0,0:0:0:0:
192,192,157165,1,0,0:0:0:0:
320,192,157222,1,0,0:0:0:0:
448,192,157279,1,0,0:0:0:0:
64,192,157336,1,0,0:0:0:0:
192,192,157336,1,0,0:0:0:0:
320,192,157336,1,0,0:0:0:0:
448,192,157393,1,0,0:0:0:0:
320,192,157450,1,0,0:0:0:0:
192,192,157507,1,0,0:0:0:0:
64,192,157565,1,0,0:0:0:0:
320,192,157622,1,0,0:0:0:0:
192,192,157679,1,0,0:0:0:0:
448,192,157736,1,0,0:0:0:0:
64,192,157793,1,0,0:0:0:0:
192,192,157793,1,0,0:0:0:0:
320,192,157793,1,0,0:0:0:0:
448,192,157850,1,0,0:0:0:0:
192,192,157907,1,0,0:0:0:0:
320,192,157907,1,0,0:0:0:0:
64,192,157965,1,0,0:0:0:0:
448,192,158022,1,0,0:0:0:0:
192,192,158079,1,0,0:0:0:0:
320,192,158136,1,0,0:0:0:0:
64,192,158193,1,0,0:0:0:0:
192,192,158250,1,0,0:0:0:0:
320,192,158250,1,0,0:0:0:0:
448,192,158250,1,0,0:0:0:0:
64,192,158307,1,0,0:0:0:0:
320,192,158365,1,0,0:0:0:0:
192,192,158422,1,0,0:0:0:0:
448,192,158479,1,0,0:0:0:0:
64,192,158536,1,0,0:0:0:0:
192,192,158593,1,0,0:0:0:0:
320,192,158650,1,0,0:0:0:0:
64,192,158707,1,0,0:0:0:0:
192,192,158707,1,0,0:0:0:0:
448,192,158707,1,0,0:0:0:0:
320,192,158765,1,0,0:0:0:0:
192,192,158822,1,0,0:0:0:0:
448,192,158879,1,0,0:0:0:0:
64,192,158936,1,0,0:0:0:0:
192,192,158936,1,0,0:0:0:0:
448,192,158993,1,0,0:0:0:0:
320,192,159050,1,0,0:0:0:0:
64,192,159107,1,0,0:0:0:0:
192,192,159165,1,0,0:0:0:0:
320,192,159165,1,0,0:0:0:0:
448,192,159165,1,0,0:0:0:0:
64,192,159222,1,0,0:0:0:0:
192,192,159279,1,0,0:0:0:0:
320,192,159336,1,0,0:0:0:0:
448,192,159393,1,0,0:0:0:0:
192,192,159450,1,0,0:0:0:0:
320,192,159507,1,0,0:0:0:0:
448,192,159565,1,0,0:0:0:0:
64,192,159622,1,0,0:0:0:0:
192,192,159622,1,0,0:0:0:0:
320,192,159622,1,0,0:0:0:0:
448,192,159679,1,0,0:0:0:0:
320,192,159736,1,0,0:0:0:0:
192,192,159793,1,0,0:0:0:0:
320,192,159850,1,0,0:0:0:0:
448,192,159850,1,0,0:0:0:0:
64,192,159907,1,0,0:0:0:0:
192,192,159926,1,0,0:0:0:0:
320,192,159965,1,0,0:0:0:0:
448,192,160003,1,0,0:0:0:0:
64,192,160022,1,0,0:0:0:0:
192,192,160079,1,0,0:0:0:0:
320,192,160079,1,0,0:0:0:0:
448,192,160079,1,0,0:0:0:0:
64,192,160136,1,0,0:0:0:0:
192,192,160193,1,0,0:0:0:0:
320,192,160193,1,0,0:0:0:0:
448,192,160250,1,0,0:0:0:0:
64,192,160307,1,0,0:0:0:0:
192,192,160307,1,0,0:0:0:0:
320,192,160365,1,0,0:0:0:0:
192,192,160422,1,0,0:0:0:0:
448,192,160422,1,0,0:0:0:0:
320,192,160479,1,0,0:0:0:0:
64,192,160536,1,0,0:0:0:0:
192,192,160536,1,0,0:0:0:0:
448,192,160536,1,0,0:0:0:0:
320,192,160593,1,0,0:0:0:0:
64,192,160650,1,0,0:0:0:0:
192,192,160650,1,0,0:0:0:0:
448,192,160707,1,0,0:0:0:0:
192,192,160765,1,0,0:0:0:0:
320,192,160765,1,0,0:0:0:0:
64,192,160822,1,0,0:0:0:0:
320,192,160879,1,0,0:0:0:0:
448,192,160879,1,0,0:0:0:0:
64,192,160936,1,0,0:0:0:0:
192,192,160993,1,0,0:0:0:0:
320,192,160993,1,0,0:0:0:0:
448,192,160993,1,0,0:0:0:0:
64,192,161050,1,0,0:0:0:0:
192,192,161107,1,0,0:0:0:0:
448,192,161107,1,0,0:0:0:0:
64,192,161165,1,0,0:0:0:0:
320,192,161222,1,0,0:0:0:0:
448,192,161222,1,0,0:0:0:0:
192,192,161279,1,0,0:0:0:0:
64,192,161336,1,0,0:0:0:0:
448,192,161336,1,0,0:0:0:0:
320,192,161393,1,0,0:0:0:0:
64,192,161450,1,0,0:0:0:0:
192,192,161450,1,0,0:0:0:0:
448,192,161450,1,0,0:0:0:0:
320,192,161507,1,0,0:0:0:0:
64,192,161565,1,0,0:0:0:0:
448,192,161565,1,0,0:0:0:0:
192,192,161622,1,0,0:0:0:0:
320,192,161641,1,0,0:0:0:0:
448,192,161679,1,0,0:0:0:0:
192,192,161717,1,0,0:0:0:0:
64,192,161736,1,0,0:0:0:0:
320,192,161793,1,0,0:0:0:0:
448,192,161850,1,0,0:0:0:0:
64,192,161907,1,0,0:0:0:0:
192,192,161907,1,0,0:0:0:0:
320,192,161907,1,0,0:0:0:0:
448,192,161965,1,0,0:0:0:0:
64,192,162022,1,0,0:0:0:0:
192,192,162022,1,0,0:0:0:0:
448,192,162079,1,0,0:0:0:0:
192,192,162136,1,0,0:0:0:0:
320,192,162136,1,0,0:0:0:0:
64,192,162193,1,0,0:0:0:0:
320,192,162250,1,0,0:0:0:0:
448,192,162250,1,0,0:0:0:0:
192,192,162307,1,0,0:0:0:0:
64,192,162365,1,0,0:0:0:0:
320,192,162365,1,0,0:0:0:0:
448,192,162365,1,0,0:0:0:0:
192,192,162422,1,0,0:0:0:0:
320,192,162479,1,0,0:0:0:0:
448,192,162479,1,0,0:0:0:0:
64,192,162536,1,0,0:0:0:0:
192,192,162593,1,0,0:0:0:0:
320,192,162593,1,0,0:0:0:0:
448,192,162650,1,0,0:0:0:0:
64,192,162707,1,0,0:0:0:0:
192,192,162707,1,0,0:0:0:0:
448,192,162765,1,0,0:0:0:0:
64,192,162822,1,0,0:0:0:0:
192,192,162822,1,0,0:0:0:0:
320,192,162822,1,0,0:0:0:0:
448,192,162879,1,0,0:0:0:0:
192,192,162936,1,0,0:0:0:0:
320,192,162936,1,0,0:0:0:0:
64,192,162993,1,0,0:0:0:0:
192,192,163050,1,0,0:0:0:0:
320,192,163050,1,0,0:0:0:0:
448,192,163050,1,0,0:0:0:0:
192,192,163165,1,0,0:0:0:0:
320,192,163165,1,0,0:0:0:0:
64,192,163279,1,0,0:0:0:0:
192,192,163279,1,0,0:0:0:0:
64,192,163393,1,0,0:0:0:0:
192,192,163393,1,0,0:0:0:0:
320,192,163393,1,0,0:0:0:0:
448,192,163393,1,0,0:0:0:0:
448,192,163622,1,0,0:0:0:0:
192,192,163679,1,0,0:0:0:0:
64,192,163736,1,0,0:0:0:0:
320,192,163736,1,0,0:0:0:0:
448,192,163736,1,0,0:0:0:0:
192,192,163793,1,0,0:0:0:0:
320,192,163850,1,0,0:0:0:0:
448,192,163907,1,0,0:0:0:0:
64,192,163965,1,0,0:0:0:0:
192,192,163965,1,0,0:0:0:0:
448,192,164022,1,0,0:0:0:0:
320,192,164079,1,0,0:0:0:0:
64,192,164136,1,0,0:0:0:0:
192,192,164193,1,0,0:0:0:0:
320,192,164193,1,0,0:0:0:0:
448,192,164193,1,0,0:0:0:0:
64,192,164250,1,0,0:0:0:0:
192,192,164307,1,0,0:0:0:0:
320,192,164365,1,0,0:0:0:0:
64,192,164422,1,0,0:0:0:0:
448,192,164422,1,0,0:0:0:0:
320,192,164479,1,0,0:0:0:0:
192,192,164536,1,0,0:0:0:0:
448,192,164593,1,0,0:0:0:0:
64,192,164650,1,0,0:0:0:0:
192,192,164650,1,0,0:0:0:0:
320,192,164650,1,0,0:0:0:0:
448,192,164707,1,0,0:0:0:0:
320,192,164765,1,0,0:0:0:0:
192,192,164822,1,0,0:0:0:0:
448,192,164879,1,0,0:0:0:0:
320,192,164936,1,0,0:0:0:0:
64,192,164993,1,0,0:0:0:0:
192,192,164993,1,0,0:0:0:0:
448,192,165050,1,0,0:0:0:0:
64,192,165107,1,0,0:0:0:0:
192,192,165107,1,0,0:0:0:0:
320,192,165107,1,0,0:0:0:0:
448,192,165165,1,0,0:0:0:0:
64,192,165222,1,0,0:0:0:0:
192,192,165222,1,0,0:0:0:0:
320,192,165279,1,0,0:0:0:0:
448,192,165279,1,0,0:0:0:0:
64,192,165336,1,0,0:0:0:0:
192,192,165336,1,0,0:0:0:0:
448,192,165393,1,0,0:0:0:0:
320,192,165450,1,0,0:0:0:0:
192,192,165507,1,0,0:0:0:0:
64,192,165565,1,0,0:0:0:0:
320,192,165565,1,0,0:0:0:0:
448,192,165565,1,0,0:0:0:0:
192,192,165622,1,0,0:0:0:0:
448,192,165679,1,0,0:0:0:0:
320,192,165736,1,0,0:0:0:0:
64,192,165793,1,0,0:0:0:0:
192,192,165793,1,0,0:0:0:0:
320,192,165850,1,0,0:0:0:0:
448,192,165907,1,0,0:0:0:0:
64,192,165965,1,0,0:0:0:0:
192,192,166022,1,0,0:0:0:0:
320,192,166022,1,0,0:0:0:0:
448,192,166022,1,0,0:0:0:0:
64,192,166079,1,0,0:0:0:0:
320,192,166136,1,0,0:0:0:0:
192,192,166193,1,0,0:0:0:0:
64,192,166250,1,0,0:0:0:0:
448,192,166250,1,0,0:0:0:0:
320,192,166307,1,0,0:0:0:0:
448,192,166365,1,0,0:0:0:0:
192,192,166422,1,0,0:0:0:0:
64,192,166479,1,0,0:0:0:0:
320,192,166479,1,0,0:0:0:0:
448,192,166479,1,0,0:0:0:0:
192,192,166536,1,0,0:0:0:0:
320,192,166593,1,0,0:0:0:0:
448,192,166650,1,0,0:0:0:0:
64,192,166707,1,0,0:0:0:0:
448,192,166765,1,0,0:0:0:0:
192,192,166822,1,0,0:0:0:0:
320,192,166879,1,0,0:0:0:0:
64,192,166936,1,0,0:0:0:0:
192,192,166936,1,0,0:0:0:0:
448,192,166936,1,0,0:0:0:0:
64,192,167050,1,0,0:0:0:0:
320,192,167050,1,0,0:0:0:0:
448,192,167050,1,0,0:0:0:0:
320,192,167279,1,0,0:0:0:0:
64,192,167336,1,0,0:0:0:0:
192,192,167393,1,0,0:0:0:0:
320,192,167393,1,0,0:0:0:0:
448,192,167393,1,0,0:0:0:0:
64,192,167450,1,0,0:0:0:0:
192,192,167507,1,0,0:0:0:0:
320,192,167507,1,0,0:0:0:0:
448,192,167565,1,0,0:0:0:0:
64,192,167622,1,0,0:0:0:0:
192,192,167622,1,0,0:0:0:0:
448,192,167679,1,0,0:0:0:0:
64,192,167736,1,0,0:0:0:0:
320,192,167736,1,0,0:0:0:0:
192,192,167793,1,0,0:0:0:0:
64,192,167850,1,0,0:0:0:0:
320,192,167850,1,0,0:0:0:0:
448,192,167850,1,0,0:0:0:0:
192,192,167907,1,0,0:0:0:0:
320,192,167965,1,0,0:0:0:0:
448,192,167965,1,0,0:0:0:0:
64,192,168022,1,0,0:0:0:0:
192,192,168079,1,0,0:0:0:0:
320,192,168079,1,0,0:0:0:0:
448,192,168136,1,0,0:0:0:0:
64,192,168193,1,0,0:0:0:0:
192,192,168193,1,0,0:0:0:0:
320,192,168250,1,0,0:0:0:0:
64,192,168307,1,0,0:0:0:0:
192,192,168307,1,0,0:0:0:0:
448,192,168307,1,0,0:0:0:0:
320,192,168365,1,0,0:0:0:0:
64,192,168422,1,0,0:0:0:0:
448,192,168422,1,0,0:0:0:0:
192,192,168479,1,0,0:0:0:0:
64,192,168536,1,0,0:0:0:0:
320,192,168536,1,0,0:0:0:0:
448,192,168593,1,0,0:0:0:0:
192,192,168650,1,0,0:0:0:0:
320,192,168650,1,0,0:0:0:0:
64,192,168707,1,0,0:0:0:0:
192,192,168765,1,0,0:0:0:0:
320,192,168765,1,0,0:0:0:0:
448,192,168765,1,0,0:0:0:0:
64,192,168822,1,0,0:0:0:0:
320,192,168879,1,0,0:0:0:0:
448,192,168879,1,0,0:0:0:0:
64,192,168936,1,0,0:0:0:0:
192,192,168993,1,0,0:0:0:0:
320,192,169050,1,0,0:0:0:0:
448,192,169107,1,0,0:0:0:0:
192,192,169165,1,0,0:0:0:0:
64,192,169222,1,0,0:0:0:0:
320,192,169222,1,0,0:0:0:0:
448,192,169222,1,0,0:0:0:0:
192,192,169279,1,0,0:0:0:0:
320,192,169336,1,0,0:0:0:0:
448,192,169336,1,0,0:0:0:0:
64,192,169393,1,0,0:0:0:0:
192,192,169450,1,0,0:0:0:0:
448,192,169507,1,0,0:0:0:0:
320,192,169565,1,0,0:0:0:0:
64,192,169622,1,0,0:0:0:0:
192,192,169679,1,0,0:0:0:0:
320,192,169679,1,0,0:0:0:0:
448,192,169679,1,0,0:0:0:0:
64,192,169736,1,0,0:0:0:0:
320,192,169793,1,0,0:0:0:0:
448,192,169793,1,0,0:0:0:0:
192,192,169850,1,0,0:0:0:0:
64,192,169907,1,0,0:0:0:0:
448,192,169907,1,0,0:0:0:0:
320,192,169965,1,0,0:0:0:0:
192,192,169984,1,0,0:0:0:0:
64,192,170022,1,0,0:0:0:0:
320,192,170060,1,0,0:0:0:0:
448,192,170079,1,0,0:0:0:0:
64,192,170136,1,0,0:0:0:0:
192,192,170136,1,0,0:0:0:0:
448,192,170193,1,0,0:0:0:0:
320,192,170212,1,0,0:0:0:0:
64,192,170250,1,0,0:0:0:0:
192,192,170288,1,0,0:0:0:0:
448,192,170307,1,0,0:0:0:0:
64,192,170365,1,0,0:0:0:0:
320,192,170365,1,0,0:0:0:0:
192,192,170422,1,0,0:0:0:0:
320,192,170479,1,0,0:0:0:0:
448,192,170479,1,0,0:0:0:0:
64,192,170536,1,0,0:0:0:0:
192,192,170593,1,0,0:0:0:0:
320,192,170593,1,0,0:0:0:0:
448,192,170650,1,0,0:0:0:0:
64,192,170707,1,0,0:0:0:0:
320,192,170707,1,0,0:0:0:0:
192,192,170765,1,0,0:0:0:0:
320,192,170822,1,0,0:0:0:0:
448,192,170822,1,0,0:0:0:0:
192,192,170898,1,0,0:0:0:0:
64,192,170974,1,0,0:0:0:0:
192,192,171050,1,0,0:0:0:0:
64,192,171126,1,0,0:0:0:0:
192,192,171203,1,0,0:0:0:0:
64,192,171279,1,0,0:0:0:0:
448,192,171279,1,0,0:0:0:0:
320,192,171355,1,0,0:0:0:0:
448,192,171431,1,0,0:0:0:0:
320,192,171507,1,0,0:0:0:0:
448,192,171584,1,0,0:0:0:0:
320,192,171660,1,0,0:0:0:0:
64,192,171736,1,0,0:0:0:0:
192,192,171736,1,0,0:0:0:0:
448,192,171736,1,0,0:0:0:0:
320,192,171793,1,0,0:0:0:0:
64,192,171850,1,0,0:0:0:0:
192,192,171850,1,0,0:0:0:0:
320,192,171907,1,0,0:0:0:0:
448,192,171907,1,0,0:0:0:0:
64,192,171965,1,0,0:0:0:0:
192,192,171965,1,0,0:0:0:0:
320,192,172022,1,0,0:0:0:0:
448,192,172022,1,0,0:0:0:0:
64,192,172079,1,0,0:0:0:0:
192,192,172079,1,0,0:0:0:0:
320,192,172136,1,0,0:0:0:0:
448,192,172136,1,0,0:0:0:0:
64,192,172193,1,0,0:0:0:0:
192,192,172193,1,0,0:0:0:0:
64,192,172536,1,0,0:0:0:0:
192,192,172536,1,0,0:0:0:0:
320,192,172536,1,0,0:0:0:0:
448,192,172536,1,0,0:0:0:0:
64,192,172765,1,0,0:0:0:0:
192,192,172765,1,0,0:0:0:0:
320,192,172822,1,0,0:0:0:0:
64,192,172879,1,0,0:0:0:0:
448,192,172879,1,0,0:0:0:0:
192,192,172936,1,0,0:0:0:0:
64,192,172993,1,0,0:0:0:0:
320,192,172993,1,0,0:0:0:0:
192,192,173050,1,0,0:0:0:0:
64,192,173107,1,0,0:0:0:0:
320,192,173107,1,0,0:0:0:0:
448,192,173165,1,0,0:0:0:0:
64,192,173222,1,0,0:0:0:0:
320,192,173222,1,0,0:0:0:0:
192,192,173279,1,0,0:0:0:0:
320,192,173336,1,0,0:0:0:0:
448,192,173336,1,0,0:0:0:0:
64,192,173393,1,0,0:0:0:0:
192,192,173450,1,0,0:0:0:0:
448,192,173450,1,0,0:0:0:0:
320,192,173507,1,0,0:0:0:0:
192,192,173565,1,0,0:0:0:0:
448,192,173565,1,0,0:0:0:0:
64,192,173622,1,0,0:0:0:0:
192,192,173679,1,0,0:0:0:0:
448,192,173679,1,0,0:0:0:0:
320,192,173736,1,0,0:0:0:0:
64,192,173793,1,0,0:0:0:0:
192,192,173793,1,0,0:0:0:0:
448,192,173850,1,0,0:0:0:0:
192,192,173907,1,0,0:0:0:0:
320,192,173907,1,0,0:0:0:0:
64,192,173965,1,0,0:0:0:0:
192,192,174022,1,0,0:0:0:0:
320,192,174022,1,0,0:0:0:0:
448,192,174079,1,0,0:0:0:0:
192,192,174136,1,0,0:0:0:0:
320,192,174136,1,0,0:0:0:0:
64,192,174193,1,0,0:0:0:0:
320,192,174250,1,0,0:0:0:0:
448,192,174250,1,0,0:0:0:0:
192,192,174307,1,0,0:0:0:0:
64,192,174365,1,0,0:0:0:0:
320,192,174365,1,0,0:0:0:0:
192,192,174422,1,0,0:0:0:0:
448,192,174479,1,0,0:0:0:0:
192,192,174536,1,0,0:0:0:0:
64,192,174593,1,0,0:0:0:0:
320,192,174593,1,0,0:0:0:0:
192,192,174650,1,0,0:0:0:0:
64,192,174707,1,0,0:0:0:0:
448,192,174707,1,0,0:0:0:0:
192,192,174765,1,0,0:0:0:0:
320,192,174822,1,0,0:0:0:0:
448,192,174822,1,0,0:0:0:0:
64,192,174879,1,0,0:0:0:0:
320,192,174936,1,0,0:0:0:0:
448,192,174936,1,0,0:0:0:0:
192,192,174993,1,0,0:0:0:0:
320,192,175050,1,0,0:0:0:0:
448,192,175050,1,0,0:0:0:0:
64,192,175107,1,0,0:0:0:0:
192,192,175165,1,0,0:0:0:0:
320,192,175165,1,0,0:0:0:0:
448,192,175222,1,0,0:0:0:0:
64,192,175279,1,0,0:0:0:0:
192,192,175279,1,0,0:0:0:0:
320,192,175336,1,0,0:0:0:0:
64,192,175393,1,0,0:0:0:0:
192,192,175393,1,0,0:0:0:0:
448,192,175450,1,0,0:0:0:0:
64,192,175507,1,0,0:0:0:0:
192,192,175507,1,0,0:0:0:0:
320,192,175565,1,0,0:0:0:0:
64,192,175622,1,0,0:0:0:0:
448,192,175622,1,0,0:0:0:0:
320,192,175679,1,0,0:0:0:0:
192,192,175736,1,0,0:0:0:0:
448,192,175736,1,0,0:0:0:0:
64,192,175793,1,0,0:0:0:0:
192,192,175850,1,0,0:0:0:0:
448,192,175850,1,0,0:0:0:0:
320,192,175907,1,0,0:0:0:0:
192,192,175965,1,0,0:0:0:0:
448,192,175965,1,0,0:0:0:0:
64,192,176022,1,0,0:0:0:0:
320,192,176079,1,0,0:0:0:0:
448,192,176079,1,0,0:0:0:0:
192,192,176136,1,0,0:0:0:0:
64,192,176193,1,0,0:0:0:0:
448,192,176193,1,0,0:0:0:0:
320,192,176250,1,0,0:0:0:0:
192,192,176307,1,0,0:0:0:0:
448,192,176365,1,0,0:0:0:0:
64,192,176422,1,0,0:0:0:0:
320,192,176422,1,0,0:0:0:0:
192,192,176479,1,0,0:0:0:0:
64,192,176536,1,0,0:0:0:0:
448,192,176536,1,0,0:0:0:0:
320,192,176593,1,0,0:0:0:0:
192,192,176650,1,0,0:0:0:0:
448,192,176650,1,0,0:0:0:0:
64,192,176707,1,0,0:0:0:0:
192,192,176765,1,0,0:0:0:0:
448,192,176765,1,0,0:0:0:0:
320,192,176822,1,0,0:0:0:0:
192,192,176879,1,0,0:0:0:0:
448,192,176879,1,0,0:0:0:0:
64,192,176936,1,0,0:0:0:0:
320,192,176993,1,0,0:0:0:0:
448,192,176993,1,0,0:0:0:0:
192,192,177050,1,0,0:0:0:0:
64,192,177107,1,0,0:0:0:0:
320,192,177107,1,0,0:0:0:0:
192,192,177165,1,0,0:0:0:0:
64,192,177222,1,0,0:0:0:0:
320,192,177222,1,0,0:0:0:0:
448,192,177279,1,0,0:0:0:0:
64,192,177336,1,0,0:0:0:0:
320,192,177336,1,0,0:0:0:0:
192,192,177393,1,0,0:0:0:0:
64,192,177450,1,0,0:0:0:0:
448,192,177450,1,0,0:0:0:0:
320,192,177507,1,0,0:0:0:0:
192,192,177565,1,0,0:0:0:0:
448,192,177565,1,0,0:0:0:0:
64,192,177622,1,0,0:0:0:0:
192,192,177679,1,0,0:0:0:0:
448,192,177679,1,0,0:0:0:0:
320,192,177736,1,0,0:0:0:0:
192,192,177793,1,0,0:0:0:0:
448,192,177793,1,0,0:0:0:0:
64,192,177850,1,0,0:0:0:0:
320,192,177907,1,0,0:0:0:0:
448,192,177907,1,0,0:0:0:0:
192,192,177965,1,0,0:0:0:0:
64,192,178022,1,0,0:0:0:0:
320,192,178022,1,0,0:0:0:0:
448,192,178079,1,0,0:0:0:0:
192,192,178136,1,0,0:0:0:0:
320,192,178193,1,0,0:0:0:0:
64,192,178250,1,0,0:0:0:0:
448,192,178250,1,0,0:0:0:0:
192,192,178307,1,0,0:0:0:0:
64,192,178365,1,0,0:0:0:0:
320,192,178365,1,0,0:0:0:0:
448,192,178422,1,0,0:0:0:0:
64,192,178479,1,0,0:0:0:0:
192,192,178479,1,0,0:0:0:0:
320,192,178536,1,0,0:0:0:0:
64,192,178593,1,0,0:0:0:0:
192,192,178593,1,0,0:0:0:0:
448,192,178650,1,0,0:0:0:0:
64,192,178707,1,0,0:0:0:0:
192,192,178707,1,0,0:0:0:0:
448,192,178765,1,0,0:0:0:0:
192,192,178822,1,0,0:0:0:0:
320,192,178822,1,0,0:0:0:0:
64,192,178879,1,0,0:0:0:0:
192,192,178936,1,0,0:0:0:0:
448,192,178936,1,0,0:0:0:0:
320,192,178993,1,0,0:0:0:0:
192,192,179050,1,0,0:0:0:0:
448,192,179050,1,0,0:0:0:0:
64,192,179107,1,0,0:0:0:0:
192,192,179165,1,0,0:0:0:0:
448,192,179165,1,0,0:0:0:0:
320,192,179222,1,0,0:0:0:0:
64,192,179279,1,0,0:0:0:0:
192,192,179279,1,0,0:0:0:0:
448,192,179336,1,0,0:0:0:0:
64,192,179393,1,0,0:0:0:0:
320,192,179393,1,0,0:0:0:0:
192,192,179450,1,0,0:0:0:0:
64,192,179507,1,0,0:0:0:0:
320,192,179507,1,0,0:0:0:0:
448,192,179507,1,0,0:0:0:0:
64,192,179622,1,0,0:0:0:0:
192,192,179622,1,0,0:0:0:0:
320,192,179622,1,0,0:0:0:0:
64,192,179736,1,0,0:0:0:0:
192,192,179736,1,0,0:0:0:0:
448,192,179736,1,0,0:0:0:0:
64,192,179850,1,0,0:0:0:0:
192,192,179850,1,0,0:0:0:0:
320,192,179850,1,0,0:0:0:0:
448,192,179850,1,0,0:0:0:0:
320,192,180079,1,0,0:0:0:0:
448,192,180079,1,0,0:0:0:0:
64,192,180136,1,0,0:0:0:0:
192,192,180193,1,0,0:0:0:0:
320,192,180193,1,0,0:0:0:0:
448,192,180250,1,0,0:0:0:0:
64,192,180307,1,0,0:0:0:0:
320,192,180307,1,0,0:0:0:0:
192,192,180365,1,0,0:0:0:0:
64,192,180422,1,0,0:0:0:0:
320,192,180422,1,0,0:0:0:0:
448,192,180479,1,0,0:0:0:0:
64,192,180536,1,0,0:0:0:0:
320,192,180536,1,0,0:0:0:0:
192,192,180593,1,0,0:0:0:0:
320,192,180650,1,0,0:0:0:0:
448,192,180650,1,0,0:0:0:0:
192,192,180707,1,0,0:0:0:0:
64,192,180765,1,0,0:0:0:0:
448,192,180765,1,0,0:0:0:0:
320,192,180822,1,0,0:0:0:0:
64,192,180879,1,0,0:0:0:0:
448,192,180879,1,0,0:0:0:0:
192,192,180936,1,0,0:0:0:0:
64,192,180993,1,0,0:0:0:0:
448,192,180993,1,0,0:0:0:0:
320,192,181050,1,0,0:0:0:0:
192,192,181107,1,0,0:0:0:0:
448,192,181107,1,0,0:0:0:0:
320,192,181165,1,0,0:0:0:0:
64,192,181222,1,0,0:0:0:0:
192,192,181222,1,0,0:0:0:0:
448,192,181279,1,0,0:0:0:0:
64,192,181336,1,0,0:0:0:0:
192,192,181336,1,0,0:0:0:0:
448,192,181393,1,0,0:0:0:0:
64,192,181450,1,0,0:0:0:0:
192,192,181450,1,0,0:0:0:0:
320,192,181507,1,0,0:0:0:0:
64,192,181565,1,0,0:0:0:0:
448,192,181565,1,0,0:0:0:0:
192,192,181622,1,0,0:0:0:0:
320,192,181679,1,0,0:0:0:0:
448,192,181679,1,0,0:0:0:0:
64,192,181736,1,0,0:0:0:0:
192,192,181793,1,0,0:0:0:0:
320,192,181850,1,0,0:0:0:0:
64,192,181907,1,0,0:0:0:0:
448,192,181907,1,0,0:0:0:0:
192,192,181965,1,0,0:0:0:0:
64,192,182022,1,0,0:0:0:0:
320,192,182022,1,0,0:0:0:0:
192,192,182079,1,0,0:0:0:0:
320,192,182136,1,0,0:0:0:0:
448,192,182136,1,0,0:0:0:0:
64,192,182193,1,0,0:0:0:0:
320,192,182250,1,0,0:0:0:0:
448,192,182250,1,0,0:0:0:0:
192,192,182307,1,0,0:0:0:0:
320,192,182365,1,0,0:0:0:0:
448,192,182365,1,0,0:0:0:0:
64,192,182422,1,0,0:0:0:0:
192,192,182479,1,0,0:0:0:0:
448,192,182479,1,0,0:0:0:0:
320,192,182536,1,0,0:0:0:0:
64,192,182593,1,0,0:0:0:0:
192,192,182593,1,0,0:0:0:0:
448,192,182650,1,0,0:0:0:0:
64,192,182707,1,0,0:0:0:0:
192,192,182707,1,0,0:0:0:0:
320,192,182765,1,0,0:0:0:0:
64,192,182822,1,0,0:0:0:0:
192,192,182822,1,0,0:0:0:0:
448,192,182879,1,0,0:0:0:0:
192,192,182936,1,0,0:0:0:0:
320,192,182936,1,0,0:0:0:0:
448,192,182993,1,0,0:0:0:0:
64,192,183050,1,0,0:0:0:0:
320,192,183050,1,0,0:0:0:0:
192,192,183107,1,0,0:0:0:0:
64,192,183165,1,0,0:0:0:0:
320,192,183165,1,0,0:0:0:0:
448,192,183222,1,0,0:0:0:0:
64,192,183279,1,0,0:0:0:0:
320,192,183279,1,0,0:0:0:0:
192,192,183336,1,0,0:0:0:0:
320,192,183393,1,0,0:0:0:0:
448,192,183393,1,0,0:0:0:0:
192,192,183450,1,0,0:0:0:0:
64,192,183507,1,0,0:0:0:0:
448,192,183507,1,0,0:0:0:0:
192,192,183565,1,0,0:0:0:0:
320,192,183622,1,0,0:0:0:0:
448,192,183679,1,0,0:0:0:0:
64,192,183736,1,0,0:0:0:0:
192,192,183736,1,0,0:0:0:0:
320,192,183793,1,0,0:0:0:0:
192,192,183850,1,0,0:0:0:0:
448,192,183850,1,0,0:0:0:0:
64,192,183907,1,0,0:0:0:0:
320,192,183965,1,0,0:0:0:0:
448,192,183965,1,0,0:0:0:0:
192,192,184022,1,0,0:0:0:0:
320,192,184079,1,0,0:0:0:0:
448,192,184079,1,0,0:0:0:0:
64,192,184136,1,0,0:0:0:0:
320,192,184193,1,0,0:0:0:0:
448,192,184193,1,0,0:0:0:0:
192,192,184250,1,0,0:0:0:0:
64,192,184307,1,0,0:0:0:0:
320,192,184307,1,0,0:0:0:0:
448,192,184365,1,0,0:0:0:0:
64,192,184422,1,0,0:0:0:0:
192,192,184422,1,0,0:0:0:0:
320,192,184479,1,0,0:0:0:0:
64,192,184536,1,0,0:0:0:0:
192,192,184536,1,0,0:0:0:0:
448,192,184593,1,0,0:0:0:0:
64,192,184650,1,0,0:0:0:0:
192,192,184650,1,0,0:0:0:0:
320,192,184707,1,0,0:0:0:0:
192,192,184765,1,0,0:0:0:0:
448,192,184765,1,0,0:0:0:0:
320,192,184822,1,0,0:0:0:0:
64,192,184879,1,0,0:0:0:0:
448,192,184879,1,0,0:0:0:0:
192,192,184936,1,0,0:0:0:0:
64,192,184993,1,0,0:0:0:0:
448,192,184993,1,0,0:0:0:0:
320,192,185050,1,0,0:0:0:0:
64,192,185107,1,0,0:0:0:0:
448,192,185107,1,0,0:0:0:0:
192,192,185165,1,0,0:0:0:0:
320,192,185222,1,0,0:0:0:0:
448,192,185222,1,0,0:0:0:0:
192,192,185279,1,0,0:0:0:0:
64,192,185336,1,0,0:0:0:0:
320,192,185336,1,0,0:0:0:0:
448,192,185393,1,0,0:0:0:0:
192,192,185450,1,0,0:0:0:0:
320,192,185507,1,0,0:0:0:0:
64,192,185565,1,0,0:0:0:0:
192,192,185622,1,0,0:0:0:0:
320,192,185679,1,0,0:0:0:0:
448,192,185736,1,0,0:0:0:0:
192,192,185793,1,0,0:0:0:0:
320,192,185850,1,0,0:0:0:0:
448,192,185907,1,0,0:0:0:0:
64,192,185965,1,0,0:0:0:0:
320,192,186022,1,0,0:0:0:0:
448,192,186079,1,0,0:0:0:0:
64,192,186136,1,0,0:0:0:0:
192,192,186193,1,0,0:0:0:0:
320,192,186250,1,0,0:0:0:0:
64,192,186307,1,0,0:0:0:0:
320,192,186365,1,0,0:0:0:0:
448,192,186365,1,0,0:0:0:0:
192,192,186422,1,0,0:0:0:0:
320,192,186479,1,0,0:0:0:0:
448,192,186479,1,0,0:0:0:0:
64,192,186536,1,0,0:0:0:0:
320,192,186593,1,0,0:0:0:0:
448,192,186593,1,0,0:0:0:0:
192,192,186650,1,0,0:0:0:0:
320,192,186707,1,0,0:0:0:0:
448,192,186707,1,0,0:0:0:0:
64,192,186765,1,0,0:0:0:0:
320,192,186822,1,0,0:0:0:0:
448,192,186822,1,0,0:0:0:0:
192,192,186879,1,0,0:0:0:0:
64,192,186936,1,0,0:0:0:0:
320,192,186936,1,0,0:0:0:0:
448,192,186936,1,0,0:0:0:0:
64,192,187050,1,0,0:0:0:0:
320,192,187050,1,0,0:0:0:0:
448,192,187050,1,0,0:0:0:0:
64,192,187165,128,0,187622:0:0:0:0:
192,192,187165,128,0,187622:0:0:0:0:
