osu file format v14

[General]
AudioFilename: audio.mp3
AudioLeadIn: 0
PreviewTime: 43167
Countdown: 0
SampleSet: Soft
StackLeniency: 0.4
Mode: 0
LetterboxInBreaks: 0
WidescreenStoryboard: 0

[Editor]
DistanceSpacing: 1.2
BeatDivisor: 4
GridSize: 4
TimelineZoom: 2

[Metadata]
Title:When It Falls (feat. Casey Lee Williams) (TV Size)
TitleUnicode:When It Falls (feat. Casey Lee Williams) (TV Size)
Artist:Jeff Williams
ArtistUnicode:Jeff Williams
Creator:browiec
Version:Misery
Source:RWBY
Tags:volume 3 opening intro theme short version red ruby white black yellow rose yang xiao long weiss schnee blake belladonna english rock rooster teeth animation
BeatmapID:2281078
BeatmapSetID:1091102

[Difficulty]
HPDrainRate:6
CircleSize:4
OverallDifficulty:9.4
ApproachRate:9.7
SliderMultiplier:1.8
SliderTickRate:1

[Events]
//Background and Video events
0,0,"when she falls.jpg",0,0
//Break Periods
2,8224,9412
//Storyboard Layer 0 (Background)
//Storyboard Layer 1 (Fail)
//Storyboard Layer 2 (Pass)
//Storyboard Layer 3 (Foreground)
//Storyboard Layer 4 (Overlay)
//Storyboard Sound Samples

[TimingPoints]
201,571.428571428571,4,2,1,20,1,0
201,-83.3333333333333,4,2,1,20,0,0
4759,560.747663551402,4,2,1,20,1,0
5934,521.739130434783,4,2,1,20,1,0
7049,600,4,2,1,20,1,0
8024,941.915227629513,4,2,1,20,1,0
9907,259.74025974026,4,2,1,70,1,0
40036,519.480519480519,4,2,1,50,1,0
44061,259.74025974026,4,2,1,70,1,0
44191,259.74025974026,4,2,1,70,1,8
67048,519.480519480519,4,2,1,50,1,0

[Colours]
Combo1 : 255,255,0
Combo2 : 242,0,0
Combo3 : 212,212,212
Combo4 : 63,63,63

[HitObjects]
75,223,201,6,0,P|102:224|128:216,3,53.9999983520508,2|2|2|2,0:2|0:2|0:2|0:2,0:0:0:0:
63,94,772,2,0,P|76:117|96:136,3,53.9999983520508,2|2|2|2,0:2|0:2|0:2|0:2,0:0:0:0:
168,18,1343,2,0,P|154:41|149:68,3,53.9999983520508,2|2|2|2,0:2|0:2|0:2|0:2,0:0:0:0:
286,71,1915,2,0,P|259:70|234:80,3,53.9999983520508,2|2|2|2,0:2|0:2|0:2|0:2,0:0:0:0:
284,216,2486,6,0,L|268:152,3,53.9999983520508,2|2|2|2,0:2|0:2|0:2|0:2,0:0:0:0:
240,296,3058,2,0,L|291:310,3,53.9999983520508,2|2|2|2,0:2|0:2|0:2|0:2,0:0:0:0:
192,217,3629,2,0,L|153:254,3,53.9999983520508,2|2|2|2,0:2|0:2|0:2|0:2,0:0:0:0:
88,76,4759,6,0,P|150:30|220:40,1,135,2|2,0:2|0:2,0:0:0:0:
452,160,5934,6,0,P|390:114|320:124,1,135,2|2,0:2|0:2,0:0:0:0:
64,248,7049,6,0,P|126:202|196:212,1,135,2|2,0:2|0:2,0:0:0:0:
444,304,8024,5,2,0:2:0:0:
444,304,9907,5,10,0:2:0:0:
250,72,10036,1,10,0:2:0:0:
262,338,10166,1,10,0:2:0:0:
468,104,10296,1,10,0:2:0:0:
182,277,10426,1,8,0:2:0:0:
362,46,10556,1,10,0:2:0:0:
361,353,10686,1,8,0:2:0:0:
180,80,10816,6,0,P|128:72|80:92,1,90,6|0,3:2|3:2,0:0:0:0:
28,300,11075,1,2,3:2:0:0:
240,160,11205,2,0,P|272:118|279:67,1,90,8|0,3:2|3:2,0:0:0:0:
96,208,11465,1,0,3:2:0:0:
300,240,11595,1,0,3:2:0:0:
180,80,11725,1,8,3:2:0:0:
168,292,11855,1,0,3:2:0:0:
280,83,11984,5,2,3:2:0:0:
360,320,12114,2,0,L|464:336,1,90,2|8,3:2|3:2,0:0:0:0:
512,136,12374,2,0,L|408:152,1,90,2|0,3:2|3:2,0:0:0:0:
164,112,12634,1,2,3:2:0:0:
376,12,12764,1,8,3:2:0:0:
268,288,12894,6,0,B|156:320|204:248|76:284,1,180,2|0,3:2|3:2,0:0:0:0:
176,132,13283,2,0,P|216:188|224:228,1,90,8|0,3:2|3:2,0:0:0:0:
52,368,13543,1,2,3:2:0:0:
92,176,13673,1,0,3:2:0:0:
228,328,13803,2,0,P|292:340|328:328,1,90,8|0,3:2|3:2,0:0:0:0:
412,116,14062,5,2,3:2:0:0:
276,248,14192,1,0,3:2:0:0:
364,32,14322,2,0,P|416:20|468:36,1,90,8|0,3:2|3:2,0:0:0:0:
376,228,14582,1,2,3:2:0:0:
268,56,14712,1,0,3:2:0:0:
252,264,14842,1,8,3:2:0:0:
412,116,14971,1,0,3:2:0:0:
368,364,15101,5,2,3:2:0:0:
192,188,15231,2,0,L|92:184,1,90,2|8,3:2|3:2,0:0:0:0:
0,352,15491,2,0,L|100:348,1,90,2|0,3:2|3:2,0:0:0:0:
272,292,15751,2,0,L|172:288,1,90,2|8,3:2|3:2,0:0:0:0:
0,144,16010,5,2,3:2:0:0:
89,348,16140,1,0,3:2:0:0:
212,172,16270,2,0,P|264:156|324:172,1,90,2|8,3:2|3:2,0:0:0:0:
400,352,16530,1,2,3:2:0:0:
472,152,16660,1,2,3:2:0:0:
264,256,16790,2,0,P|212:272|152:256,1,90,2|8,3:2|3:2,0:0:0:0:
40,20,17049,6,0,B|-4:60|-4:60|24:180,1,180,2|2,3:2|3:2,0:0:0:0:
120,356,17439,1,8,3:2:0:0:
212,172,17569,1,2,3:2:0:0:
276,360,17699,1,0,3:2:0:0:
120,200,17829,2,0,P|120:144|144:104,1,90,2|8,3:2|3:2,0:0:0:0:
353,249,18088,6,0,L|241:257,1,90,2|0,3:2|3:2,0:0:0:0:
360,72,18348,2,0,L|472:80,1,90,2|8,3:2|3:2,0:0:0:0:
372,280,18608,1,0,3:2:0:0:
220,40,18738,1,2,3:2:0:0:
276,360,18868,1,10,3:2:0:0:
449,78,18997,1,10,3:2:0:0:
104,244,19127,6,0,B|52:248|36:196|36:196|48:140|104:140,1,180,6|0,3:2|3:2,0:0:0:0:
268,272,19517,2,0,L|280:168,1,90,8|0,3:2|3:2,0:0:0:0:
368,0,19777,1,0,3:2:0:0:
412,208,19907,1,0,3:2:0:0:
480,24,20036,2,0,P|432:16|384:32,1,90,8|0,3:2|3:2,0:0:0:0:
192,168,20296,5,0,3:2:0:0:
396,228,20426,1,0,3:2:0:0:
176,312,20556,2,0,L|76:320,1,90,8|0,3:2|3:2,0:0:0:0:
204,144,20816,1,2,3:2:0:0:
268,328,20945,1,0,3:2:0:0:
308,108,21075,1,8,3:2:0:0:
104,208,21205,1,0,3:2:0:0:
380,308,21335,6,0,B|420:272|420:272|400:132,1,180,2|8,3:2|3:2,0:0:0:0:
280,24,21725,1,0,3:2:0:0:
240,248,21855,2,0,P|292:248|336:224,1,90,2|0,3:2|3:2,0:0:0:0:
480,104,22114,1,8,3:2:0:0:
464,280,22244,1,0,3:2:0:0:
304,120,22374,6,0,L|192:112,1,90,2|0,3:2|3:2,0:0:0:0:
48,212,22634,2,0,L|160:204,1,90,8|0,3:2|3:2,0:0:0:0:
328,104,22894,1,2,3:2:0:0:
296,296,23023,1,0,3:2:0:0:
144,84,23153,1,8,3:2:0:0:
192,304,23283,1,0,3:2:0:0:
296,16,23413,6,0,P|360:16|420:120,1,180,2|10,3:2|3:2,0:0:0:0:
220,164,23803,2,0,P|280:148|332:160,1,90,2|0,3:2|3:2,0:0:0:0:
412,320,24062,1,2,3:2:0:0:
421,104,24192,1,8,3:2:0:0:
288,328,24322,6,0,P|280:280|276:236,1,90,2|0,3:2|3:2,0:0:0:0:
224,60,24582,2,0,P|215:107|203:150,1,90,2|8,3:2|3:2,0:0:0:0:
120,320,24842,1,2,3:2:0:0:
20,136,24971,1,0,3:2:0:0:
8,344,25101,1,2,3:2:0:0:
120,104,25231,1,8,3:2:0:0:
220,356,25361,6,0,P|272:360|320:332,1,90,2|0,3:2|3:2,0:0:0:0:
280,156,25621,2,0,P|250:199|250:254,1,90,2|8,3:2|3:2,0:0:0:0:
460,244,25881,2,0,L|348:236,1,90,2|0,3:2|3:2,0:0:0:0:
160,148,26140,1,2,3:2:0:0:
372,96,26270,1,8,3:2:0:0:
176,12,26400,1,2,3:2:0:0:
246,235,26530,6,0,L|254:291,3,45,0|0|2|0,3:2|3:2|3:2|3:2,0:0:0:0:
365,140,26790,2,0,L|373:84,3,45,8|8|10|8,3:2|3:2|3:2|3:2,0:0:0:0:
304,348,27049,1,0,3:2:0:0:
262,364,27113,1,0,3:2:0:0:
218,358,27178,1,2,3:2:0:0:
182,332,27243,1,0,3:2:0:0:
164,291,27309,1,8,3:2:0:0:
146,251,27373,1,8,3:2:0:0:
110,224,27438,1,8,3:2:0:0:
66,218,27503,1,8,3:2:0:0:
25,235,27569,6,0,P|0:300|92:368,1,180,12|0,3:2|3:2,0:0:0:0:
268,196,27958,1,8,0:2:0:0:
48,112,28088,1,0,0:2:0:0:
200,312,28218,1,0,3:2:0:0:
36,96,28348,1,8,0:2:0:0:
71,369,28478,1,0,3:2:0:0:
276,72,28608,5,10,0:2:0:0:
320,360,28738,1,0,3:2:0:0:
88,208,28868,1,0,3:2:0:0:
408,136,28997,1,10,0:2:0:0:
186,334,29127,1,0,3:2:0:0:
296,48,29257,1,0,3:2:0:0:
408,344,29387,1,10,0:2:0:0:
476,68,29517,1,0,3:2:0:0:
200,248,29647,6,0,B|164:264|128:252|128:252|88:268|88:268|52:260|9:273,1,180,14|0,0:2|3:2,0:0:0:0:
108,4,30036,2,0,B|144:20|180:8|180:8|220:24|220:24|256:16|299:29,1,180,8|0,0:2|3:2,0:0:0:0:
456,288,30426,1,8,0:2:0:0:
364,64,30556,1,0,3:2:0:0:
232,348,30686,6,0,P|168:364|72:296,1,180,10|0,0:2|3:2,0:0:0:0:
264,124,31075,2,0,P|309:171|298:288,1,180,8|0,0:2|3:2,0:0:0:0:
168,168,31465,2,0,P|164:104|156:64,1,90,10|0,0:2|0:2,0:0:0:0:
88,300,31725,5,4,3:2:0:0:
28,60,31855,1,0,3:2:0:0:
204,264,31984,1,8,3:2:0:0:
240,16,32114,2,0,P|296:0|380:96,1,180,0|0,3:2|3:2,0:0:0:0:
308,288,32504,1,8,3:2:0:0:
224,108,32634,1,0,3:2:0:0:
168,336,32764,6,0,P|120:344|72:328,2,90,2|0|8,3:2|3:2|3:2,0:0:0:0:
312,176,33153,2,0,P|360:168|408:184,2,90,2|0|0,3:2|3:2|3:2,0:0:0:0:
128,248,33543,1,10,3:2:0:0:
304,380,33673,1,0,3:2:0:0:
164,152,33803,6,0,B|120:148|120:148|60:164,2,90,2|0|8,3:2|3:2|3:2,0:0:0:0:
364,272,34192,2,0,B|408:276|408:276|468:260,2,90,2|0|0,3:2|3:2|3:2,0:0:0:0:
288,64,34582,1,10,3:2:0:0:
204,260,34712,1,0,3:2:0:0:
412,88,34842,6,0,P|412:132|404:180,1,90,2|0,3:2|3:2,0:0:0:0:
231,368,35101,5,8,0:2:0:0:
206,336,35187,5,8,0:2:0:0:
196,298,35274,5,8,0:2:0:0:
204,260,35361,6,0,L|216:168,1,90,8|0,0:2|3:2,0:0:0:0:
396,76,35621,1,0,3:2:0:0:
296,260,35751,1,0,3:2:0:0:
512,180,35881,6,0,B|468:152|468:152|332:180,1,180,12|0,0:2|3:2,0:0:0:0:
136,80,36270,2,0,B|180:52|180:52|316:80,1,180,8|0,0:2|3:2,0:0:0:0:
344,336,36660,1,10,0:2:0:0:
196,152,36790,1,0,3:2:0:0:
84,384,36919,5,10,0:2:0:0:
300,196,37049,1,0,3:2:0:0:
24,288,37179,1,0,3:2:0:0:
252,68,37309,1,10,0:2:0:0:
180,372,37439,1,0,3:2:0:0:
136,80,37569,1,0,3:2:0:0:
276,360,37699,1,10,0:2:0:0:
368,56,37829,1,0,3:2:0:0:
156,264,37958,6,0,P|100:280|-4:204,1,180,14|0,0:2|3:2,0:0:0:0:
215,12,38348,2,0,P|271:-4|375:72,1,180,8|0,0:2|3:2,0:0:0:0:
340,328,38738,1,8,0:2:0:0:
272,104,38868,1,0,3:2:0:0:
504,212,38997,6,0,B|388:184|388:184|320:212,1,180,10|0,0:2|3:2,0:0:0:0:
172,384,39387,1,8,0:2:0:0:
172,148,39517,1,8,0:2:0:0:
340,328,39647,1,0,3:2:0:0:
212,52,39907,5,0,3:2:0:0:
212,52,39971,1,0,3:2:0:0:
212,52,40036,2,0,B|292:24|348:76|348:76|300:144|364:204|364:204,1,270,6|0,3:2|0:2,0:0:0:0:
296,320,41074,6,0,B|300:252|216:224|216:224|156:300|196:356,1,270,12|0,0:2|3:2,0:0:0:0:
112,136,42113,6,0,L|248:128,1,135,4|0,3:2|3:2,0:0:0:0:
348,68,42633,1,4,3:2:0:0:
168,12,42893,2,0,L|124:8,3,30,0|0|0|8,3:2|3:2|3:2|3:2,0:0:0:0:
40,200,44061,6,0,B|108:188|108:188|148:204|148:204|240:192,1,180,6|0,3:2|3:2,0:0:0:0:
392,328,44450,2,0,L|272:316,1,90,8|0,3:2|3:2,0:0:0:0:
160,96,44710,1,0,3:2:0:0:
176,344,44840,1,0,3:2:0:0:
320,152,44970,2,0,L|440:140,1,90,8|0,3:2|3:2,0:0:0:0:
292,12,45229,5,0,3:2:0:0:
224,232,45359,2,0,P|172:232|116:208,1,90,2|8,3:2|3:2,0:0:0:0:
144,0,45619,2,0,P|189:26|225:74,1,90,2|0,3:2|3:2,0:0:0:0:
16,248,45879,2,0,P|15:195|39:140,1,90,2|8,3:2|3:2,0:0:0:0:
308,96,46139,6,0,L|300:196,1,90,2|0,3:2|3:2,0:0:0:0:
232,380,46398,1,0,3:2:0:0:
164,140,46528,1,8,3:2:0:0:
60,356,46658,1,2,3:2:0:0:
60,100,46788,1,0,3:2:0:0:
252,284,46918,1,0,3:2:0:0:
0,224,47048,1,8,3:2:0:0:
288,148,47178,6,0,B|388:176|368:108|464:136,1,180,0|0,3:2|3:2,0:0:0:0:
320,52,47567,1,10,3:2:0:0:
424,232,47697,2,0,P|412:287|391:322,1,90,2|0,3:2|3:2,0:0:0:0:
164,156,47957,1,2,3:2:0:0:
228,380,48087,1,8,3:2:0:0:
372,136,48216,6,0,L|484:128,1,90,2|0,3:2|3:2,0:0:0:0:
512,336,48476,2,0,L|400:328,1,90,2|8,3:2|3:2,0:0:0:0:
253,149,48736,2,0,L|141:157,1,90,2|0,3:2|3:2,0:0:0:0:
88,380,48996,1,2,3:2:0:0:
60,136,49126,1,8,3:2:0:0:
304,244,49255,6,0,P|348:196|328:72,1,180,2|0,3:2|3:2,0:0:0:0:
76,16,49645,1,8,3:2:0:0:
253,149,49775,1,0,3:2:0:0:
12,252,49905,1,2,3:2:0:0:
176,48,50035,1,2,3:2:0:0:
184,324,50165,1,8,3:2:0:0:
0,108,50294,6,0,P|48:104|100:124,1,90,2|0,3:2|3:2,0:0:0:0:
296,240,50554,2,0,P|248:244|196:224,1,90,2|8,3:2|3:2,0:0:0:0:
280,32,50814,2,0,L|268:132,1,90,2|0,3:2|3:2,0:0:0:0:
272,352,51074,1,0,3:2:0:0:
396,156,51203,1,8,3:2:0:0:
424,372,51333,1,0,3:2:0:0:
232,196,51463,6,0,L|128:188,1,90,0|0,3:2|3:2,0:0:0:0:
352,64,51723,2,0,L|456:56,1,90,10|0,3:2|3:2,0:0:0:0:
336,272,51983,1,2,3:2:0:0:
248,40,52113,1,2,3:2:0:0:
448,160,52242,1,8,3:2:0:0:
168,104,52372,1,2,3:2:0:0:
288,356,52502,5,0,3:2:0:0:
330,368,52566,1,0,3:2:0:0:
374,359,52631,1,0,3:2:0:0:
409,332,52696,1,0,3:2:0:0:
428,291,52762,2,0,L|420:192,1,90,8|0,3:2|3:2,0:0:0:0:
196,88,53022,1,0,3:2:0:0:
336,272,53152,1,0,3:2:0:0:
356,28,53281,2,0,P|352:92|336:136,1,90,8|0,3:2|3:2,0:0:0:0:
244,332,53541,5,0,3:2:0:0:
172,88,53671,1,0,3:2:0:0:
76,320,53801,1,8,3:2:0:0:
300,136,53931,2,0,P|341:120|386:121,1,90,2|0,3:2|3:2,0:0:0:0:
432,356,54191,2,0,P|387:356|345:340,1,90,2|8,3:2|3:2,0:0:0:0:
276,116,54450,1,2,3:2:0:0:
156,360,54580,5,0,3:2:0:0:
113,372,54644,1,0,3:2:0:0:
69,363,54709,1,0,3:2:0:0:
34,336,54774,1,0,3:2:0:0:
15,295,54840,2,0,L|23:195,1,90,8|0,3:2|3:2,0:0:0:0:
256,96,55100,1,2,3:2:0:0:
108,276,55230,1,0,3:2:0:0:
88,32,55359,2,0,P|92:96|108:140,1,90,8|0,3:2|3:2,0:0:0:0:
224,336,55619,5,0,3:2:0:0:
280,116,55749,1,0,3:2:0:0:
360,360,55879,1,8,3:2:0:0:
204,208,56009,1,0,3:2:0:0:
456,160,56139,1,0,3:2:0:0:
192,224,56268,1,0,3:2:0:0:
476,292,56398,1,10,3:2:0:0:
244,80,56528,6,0,P|188:68|136:88,1,90,2|0,3:2|3:2,0:0:0:0:
144,297,56788,2,0,P|182:254|191:199,1,90,2|8,3:2|3:2,0:0:0:0:
6,101,57048,2,0,P|24:155|67:190,1,90,2|0,3:2|3:2,0:0:0:0:
284,200,57307,1,2,3:2:0:0:
40,284,57437,1,8,3:2:0:0:
268,352,57567,6,0,B|340:360|340:360|380:340|380:340|472:348,1,180,2|2,3:2|3:2,0:0:0:0:
400,116,57957,1,8,3:2:0:0:
208,256,58087,2,0,L|112:248,1,90,2|0,3:2|3:2,0:0:0:0:
24,36,58346,2,0,L|120:28,1,90,2|8,3:2|3:2,0:0:0:0:
385,150,58606,6,0,P|427:165|472:160,1,90,2|0,3:2|3:2,0:0:0:0:
184,88,58866,2,0,P|218:146|215:190,1,90,2|8,3:2|3:2,0:0:0:0:
266,374,59126,2,0,P|300:315|338:295,1,90,2|0,3:2|3:2,0:0:0:0:
344,40,59385,1,2,3:2:0:0:
240,252,59515,1,8,3:2:0:0:
124,24,59645,6,0,B|76:-12|12:20|12:20|4:72|32:112,1,180,2|2,3:2|3:2,0:0:0:0:
132,260,60035,1,8,3:2:0:0:
236,52,60165,2,0,P|240:112|232:164,1,90,2|0,3:2|3:2,0:0:0:0:
152,368,60424,2,0,P|148:308|156:256,1,90,2|8,3:2|3:2,0:0:0:0:
364,68,60684,6,0,B|408:60|408:60|484:72,1,90,2|0,3:2|3:2,0:0:0:0:
344,292,60944,2,0,B|300:300|300:300|224:288,1,90,2|8,3:2|3:2,0:0:0:0:
380,52,61203,2,0,B|424:44|424:44|500:56,1,90,2|0,3:2|3:2,0:0:0:0:
208,148,61463,1,2,3:2:0:0:
432,232,61593,1,8,3:2:0:0:
232,48,61723,6,0,L|132:40,2,90,2|0|0,3:2|3:2|3:2,0:0:0:0:
404,144,62113,1,8,3:2:0:0:
168,232,62242,1,0,3:2:0:0:
368,344,62372,2,0,P|416:356|468:344,1,90,2|0,3:2|3:2,0:0:0:0:
308,128,62632,1,8,3:2:0:0:
228,328,62762,1,0,3:2:0:0:
132,104,62892,6,0,P|84:100|32:124,1,90,2|0,3:2|3:2,0:0:0:0:
64,292,63152,2,0,P|112:296|164:272,1,90,8|0,3:2|3:2,0:0:0:0:
328,104,63411,1,0,3:2:0:0:
312,308,63541,1,0,3:2:0:0:
220,80,63671,1,8,3:2:0:0:
360,232,63801,1,0,3:2:0:0:
440,4,63931,6,0,B|444:56|444:56|428:104,1,90,0|0,3:2|3:2,0:0:0:0:
204,60,64191,2,0,B|247:30|247:30|296:20,1,90,8|0,3:2|3:2,0:0:0:0:
464,208,64450,1,0,3:2:0:0:
284,120,64580,1,0,3:2:0:0:
428,304,64710,1,8,3:2:0:0:
432,91,64840,1,0,3:2:0:0:
272,328,64970,6,0,P|220:336|176:320,1,90,2|0,3:2|3:2,0:0:0:0:
240,128,65229,2,0,P|247:180|232:224,1,90,8|0,3:2|3:2,0:0:0:0:
40,160,65489,2,0,P|92:152|136:168,1,90,0|0,3:2|3:2,0:0:0:0:
72,360,65749,2,0,P|64:308|80:264,1,90,8|0,3:2|3:2,0:0:0:0:
160,48,66009,5,2,3:2:0:0:
229,268,66139,1,0,3:2:0:0:
320,71,66268,2,0,P|376:55|428:67,1,90,8|0,3:2|3:2,0:0:0:0:
356,338,66528,1,0,3:2:0:0:
232,128,66658,1,0,3:2:0:0:
164,364,66788,1,8,3:2:0:0:
356,208,66918,1,0,3:2:0:0:
40,200,67048,6,0,L|192:212,1,135,6|0,3:2|0:2,0:0:0:0:
248,320,67567,2,0,L|348:312,1,90,0|0,0:2|3:2,0:0:0:0:
412,148,68086,1,12,0:2:0:0:
428,132,68606,1,0,0:2:0:0:
444,116,69125,6,0,L|292:128,1,135,4|0,3:2|0:2,0:0:0:0:
236,236,69645,2,0,L|135:228,1,90,0|0,0:2|3:2,0:0:0:0:
72,64,70163,1,12,0:2:0:0:
56,48,70684,1,0,0:2:0:0:
60,272,70944,5,8,0:2:0:0:
168,152,71073,1,0,3:2:0:0:
208,328,71203,6,0,P|264:348|340:296,1,135,4|0,3:2|0:2,0:0:0:0:
288,184,71723,2,0,P|280:136|288:92,1,90,0|0,0:2|3:2,0:0:0:0:
472,24,72242,1,12,0:2:0:0:
488,40,72762,1,0,0:2:0:0:
504,56,73281,6,0,P|448:36|372:88,1,135,4|0,3:2|0:2,0:0:0:0:
424,200,73801,2,0,P|432:248|424:292,1,90,0|0,0:2|3:2,0:0:0:0:
240,360,74320,1,12,0:2:0:0:
257,344,74710,5,8,0:2:0:0:
260,152,74840,1,0,3:2:0:0:
370,309,74970,1,8,3:2:0:0:
188,246,75099,1,0,3:2:0:0:
373,189,75229,1,0,3:2:0:0:
144,136,75359,6,0,B|92:140|92:140|64:156|64:156|-12:160,1,135,4|0,3:2|0:2,0:0:0:0:
84,280,75879,2,0,L|176:284,1,90,0|0,0:2|3:2,0:0:0:0:
264,176,76268,1,0,3:2:0:0:
264,176,76333,1,0,3:2:0:0:
264,176,76398,1,8,3:2:0:0:
