osu file format v14

[General]
AudioFilename: audio.mp3
AudioLeadIn: 0
PreviewTime: 43167
Countdown: 0
SampleSet: Soft
StackLeniency: 0.4
Mode: 0
LetterboxInBreaks: 0
WidescreenStoryboard: 1

[Editor]
DistanceSpacing: 1.1
BeatDivisor: 4
GridSize: 4
TimelineZoom: 2

[Metadata]
Title:When It Falls (feat. Casey Lee Williams) (TV Size)
TitleUnicode:When It Falls (feat. Casey Lee Williams) (TV Size)
Artist:Jeff Williams
ArtistUnicode:Jeff Williams
Creator:browiec
Version:Insane
Source:RWBY
Tags:volume 3 opening intro theme short version red ruby white black yellow rose yang xiao long weiss schnee blake belladonna english rock rooster teeth animation
BeatmapID:2281077
BeatmapSetID:1091102

[Difficulty]
HPDrainRate:4.6
CircleSize:3.6
OverallDifficulty:8.2
ApproachRate:9.1
SliderMultiplier:1.52
SliderTickRate:1

[Events]
//Background and Video events
0,0,"when she falls.jpg",0,0
//Break Periods
2,8224,9323
//Storyboard Layer 0 (Background)
//Storyboard Layer 1 (Fail)
//Storyboard Layer 2 (Pass)
//Storyboard Layer 3 (Foreground)
//Storyboard Layer 4 (Overlay)
//Storyboard Sound Samples

[TimingPoints]
201,571.428571428571,4,2,1,20,1,0
201,-83.3333333333333,4,2,1,20,0,0
4759,560.747663551402,4,2,1,20,1,0
5934,521.739130434783,4,2,1,20,1,0
7049,600,4,2,1,20,1,0
8024,941.915227629513,4,2,1,20,1,0
9907,259.74025974026,4,2,1,70,1,0
40036,519.480519480519,4,2,1,50,1,0
44061,259.74025974026,4,2,1,70,1,0
44191,259.74025974026,4,2,1,70,1,8
67048,519.480519480519,4,2,1,50,1,0

[Colours]
Combo1 : 255,255,0
Combo2 : 242,0,0
Combo3 : 212,212,212
Combo4 : 63,63,63

[HitObjects]
122,68,201,6,0,L|168:64,3,45.5999986083985,2|2|2|2,0:2|0:2|0:2|0:2,0:0:0:0:
142,156,772,2,0,L|188:152,3,45.5999986083985,2|2|2|2,0:2|0:2|0:2|0:2,0:0:0:0:
162,244,1343,2,0,L|208:240,3,45.5999986083985,2|2|2|2,0:2|0:2|0:2|0:2,0:0:0:0:
182,332,1915,2,0,L|228:328,3,45.5999986083985,2|2|2|2,0:2|0:2|0:2|0:2,0:0:0:0:
340,276,2486,6,0,P|308:268|288:248,3,45.5999986083985,2|2|2|2,0:2|0:2|0:2|0:2,0:0:0:0:
348,140,3058,2,0,P|357:171|349:199,3,45.5999986083985,2|2|2|2,0:2|0:2|0:2|0:2,0:0:0:0:
227,202,3629,2,0,P|249:178|277:170,3,45.5999986083985,2|2|2|2,0:2|0:2|0:2|0:2,0:0:0:0:
424,48,4759,6,0,B|392:80|392:80|416:176,1,114,2|2,0:2|0:2,0:0:0:0:
164,124,5934,6,0,B|196:156|196:156|172:252,1,114,2|2,0:2|0:2,0:0:0:0:
416,208,7049,6,0,B|384:240|384:240|408:336,1,114,2|2,0:2|0:2,0:0:0:0:
216,352,8024,5,2,0:2:0:0:
216,352,9907,5,10,0:2:0:0:
168,232,10036,1,10,0:2:0:0:
104,352,10166,1,10,0:2:0:0:
60,232,10296,2,0,L|56:152,1,76,10|8,0:2|0:2,0:0:0:0:
192,100,10556,1,10,0:2:0:0:
60,48,10686,1,8,0:2:0:0:
156,188,10816,6,0,P|220:192|284:120,1,152,6|2,3:2|3:2,0:0:0:0:
364,52,11205,2,0,P|364:112|384:148,1,76,8|0,3:2|3:2,0:0:0:0:
512,112,11465,2,0,P|460:82|418:81,1,76,0|0,3:2|3:2,0:0:0:0:
436,248,11725,2,0,L|448:160,1,76,8|0,3:2|3:2,0:0:0:0:
296,172,11984,5,2,3:2:0:0:
296,172,12114,2,0,L|306:247,1,76,2|8,3:2|3:2,0:0:0:0:
240,344,12374,2,0,P|184:352|148:336,1,76,2|0,3:2|3:2,0:0:0:0:
108,240,12634,1,2,3:2:0:0:
80,360,12764,1,8,3:2:0:0:
200,260,12894,6,0,B|176:164|176:164|200:100,1,152,2|0,3:2|3:2,0:0:0:0:
348,168,13283,2,0,L|264:172,1,76,8|0,3:2|3:2,0:0:0:0:
348,68,13543,2,0,L|432:72,1,76,2|0,3:2|3:2,0:0:0:0:
512,160,13803,2,0,L|428:164,1,76,8|0,3:2|3:2,0:0:0:0:
328,260,14062,6,0,P|380:272|408:308,1,76,2|0,3:2|3:2,0:0:0:0:
248,308,14322,2,0,P|232:256|249:214,1,76,8|0,3:2|3:2,0:0:0:0:
308,144,14582,1,2,3:2:0:0:
308,144,14712,1,0,3:2:0:0:
212,80,14842,2,0,L|136:72,1,76,8|0,3:2|3:2,0:0:0:0:
12,140,15101,5,2,3:2:0:0:
128,176,15231,2,0,P|148:224|144:264,1,76,2|8,3:2|3:2,0:0:0:0:
200,336,15491,2,0,P|231:294|268:278,1,76,2|0,3:2|3:2,0:0:0:0:
303,194,15751,2,0,P|251:187|218:163,1,76,2|8,3:2|3:2,0:0:0:0:
296,32,16010,6,0,L|288:116,1,76,2|0,3:2|3:2,0:0:0:0:
384,56,16270,2,0,L|376:140,1,76,2|8,3:2|3:2,0:0:0:0:
480,256,16530,1,2,3:2:0:0:
480,120,16660,1,2,3:2:0:0:
388,228,16790,2,0,L|380:312,1,76,2|8,3:2|3:2,0:0:0:0:
244,384,17049,6,0,B|276:332|276:332|248:228,1,152,2|2,3:2|3:2,0:0:0:0:
216,112,17439,1,8,3:2:0:0:
156,216,17569,2,0,B|120:220|120:220|68:212,1,76,2|0,3:2|3:2,0:0:0:0:
2,112,17829,2,0,B|45:117|45:117|90:108,1,76,2|8,3:2|3:2,0:0:0:0:
211,37,18088,6,0,P|219:89|211:125,1,76,2|0,3:2|3:2,0:0:0:0:
260,204,18348,2,0,P|301:171|336:160,1,76,2|8,3:2|3:2,0:0:0:0:
448,276,18608,1,0,3:2:0:0:
416,116,18738,1,2,3:2:0:0:
340,260,18868,1,10,3:2:0:0:
492,184,18997,1,10,3:2:0:0:
322,162,19127,6,0,L|156:152,1,152,6|0,3:2|3:2,0:0:0:0:
100,252,19517,2,0,L|184:248,1,76,8|0,3:2|3:2,0:0:0:0:
256,344,19777,2,0,L|172:340,1,76,0|0,3:2|3:2,0:0:0:0:
268,256,20036,2,0,L|352:252,1,76,8|0,3:2|3:2,0:0:0:0:
344,92,20296,6,0,P|316:131|312:179,1,76,0|0,3:2|3:2,0:0:0:0:
449,228,20556,2,0,P|428:184|388:156,1,76,8|0,3:2|3:2,0:0:0:0:
220,172,20816,1,2,3:2:0:0:
343,252,20945,1,0,3:2:0:0:
192,280,21075,2,0,L|100:276,1,76,8|0,3:2|3:2,0:0:0:0:
44,140,21335,6,0,B|100:132|100:132|132:144|132:144|196:136,1,152,2|8,3:2|3:2,0:0:0:0:
288,232,21725,1,0,3:2:0:0:
400,120,21855,2,0,B|368:160|368:160|396:268,1,152,2|8,3:2|3:2,0:0:0:0:
344,356,22244,1,0,3:2:0:0:
272,256,22374,6,0,L|276:172,1,76,2|0,3:2|3:2,0:0:0:0:
168,112,22634,2,0,L|171:187,1,76,8|0,3:2|3:2,0:0:0:0:
128,312,22894,1,2,3:2:0:0:
76,188,23023,1,0,3:2:0:0:
32,308,23153,2,0,P|40:352|68:388,1,76,8|0,3:2|3:2,0:0:0:0:
220,320,23413,6,0,B|316:312|272:368|368:356,1,152,2|10,3:2|3:2,0:0:0:0:
436,256,23803,2,0,P|384:264|348:256,1,76,2|0,3:2|3:2,0:0:0:0:
300,160,24062,2,0,P|352:168|388:160,1,76,2|8,3:2|3:2,0:0:0:0:
220,68,24322,6,0,L|212:156,1,76,2|0,3:2|3:2,0:0:0:0:
128,52,24582,2,0,L|120:140,1,76,2|8,3:2|3:2,0:0:0:0:
36,248,24842,1,2,3:2:0:0:
20,112,24971,1,0,3:2:0:0:
124,216,25101,2,0,P|172:228|212:220,1,76,2|8,3:2|3:2,0:0:0:0:
304,116,25361,6,0,B|344:80|344:80|328:200,1,152,2|2,3:2|3:2,0:0:0:0:
316,284,25751,1,8,3:2:0:0:
416,200,25881,2,0,P|464:196|496:216,1,76,2|0,3:2|3:2,0:0:0:0:
472,320,26140,2,0,P|424:324|392:304,1,76,2|8,3:2|3:2,0:0:0:0:
328,192,26400,1,2,3:2:0:0:
232,296,26530,6,0,L|228:352,3,38,0|0|2|0,3:2|3:2|3:2|3:2,0:0:0:0:
144,288,26790,2,0,L|140:344,3,38,8|8|10|8,3:2|3:2|3:2|3:2,0:0:0:0:
56,280,27049,2,0,L|52:336,3,38,0|0|2|0,3:2|3:2|3:2|3:2,0:0:0:0:
104,200,27309,1,8,3:2:0:0:
104,181,27373,1,8,3:2:0:0:
105,162,27438,1,8,3:2:0:0:
106,143,27503,1,8,3:2:0:0:
107,124,27569,6,0,P|143:76|235:100,1,152,12|0,3:2|3:2,0:0:0:0:
260,200,27958,1,8,0:2:0:0:
360,88,28088,2,0,L|352:176,1,76,0|0,0:2|3:2,0:0:0:0:
456,116,28348,2,0,L|448:204,1,76,8|0,0:2|3:2,0:0:0:0:
388,336,28608,5,10,0:2:0:0:
352,192,28738,1,0,3:2:0:0:
292,324,28868,1,0,3:2:0:0:
248,188,28997,2,0,P|208:176|164:188,1,76,10|0,0:2|3:2,0:0:0:0:
136,324,29257,1,0,3:2:0:0:
52,208,29387,2,0,P|44:252|56:304,1,76,10|0,0:2|3:2,0:0:0:0:
160,172,29647,6,0,L|164:12,1,152,14|0,0:2|3:2,0:0:0:0:
336,100,30036,2,0,L|340:260,1,152,8|0,0:2|3:2,0:0:0:0:
480,340,30426,1,8,0:2:0:0:
436,200,30556,1,0,3:2:0:0:
368,344,30686,6,0,B|296:368|296:312|212:344,1,152,10|0,0:2|3:2,0:0:0:0:
100,240,31075,2,0,B|172:264|172:208|256:240,1,152,8|0,0:2|3:2,0:0:0:0:
348,144,31465,2,0,P|300:148|256:136,1,76,10|0,0:2|0:2,0:0:0:0:
176,40,31725,6,0,P|132:24|48:104,1,152,4|8,3:2|3:2,0:0:0:0:
64,200,32114,2,0,P|92:164|132:148,1,76,0|0,3:2|0:0,0:0:0:0:
196,212,32374,1,0,3:2:0:0:
273,142,32504,2,0,L|265:54,1,76,8|0,3:2|3:2,0:0:0:0:
400,24,32764,6,0,L|396:108,2,76,2|0|8,3:2|3:2|3:2,0:0:0:0:
508,100,33153,2,0,L|512:184,2,76,2|0|0,3:2|3:2|3:2,0:0:0:0:
424,184,33543,2,0,P|376:188|336:168,1,76,10|0,3:2|3:2,0:0:0:0:
212,88,33803,6,0,L|216:172,2,76,2|0|8,3:2|3:2|3:2,0:0:0:0:
104,164,34192,2,0,L|100:248,2,76,2|0|0,3:2|3:2|3:2,0:0:0:0:
188,248,34582,2,0,P|236:252|276:232,1,76,10|0,3:2|3:2,0:0:0:0:
336,136,34842,6,0,P|384:132|424:152,1,76,2|0,3:2|3:2,0:0:0:0:
492,240,35101,2,0,L|441:243,3,50.6666666666667,8|8|8|8,0:2|0:2|0:2|0:2,0:0:0:0:
400,348,35491,1,0,3:2:0:0:
400,348,35621,2,0,L|320:340,1,76,0|0,3:2|3:2,0:0:0:0:
180,264,35881,6,0,P|240:272|308:208,1,152,12|0,0:2|3:2,0:0:0:0:
240,48,36270,2,0,P|203:95|224:186,1,152,8|0,0:2|3:2,0:0:0:0:
364,132,36660,2,0,L|276:124,1,76,10|0,0:2|3:2,0:0:0:0:
128,188,36919,5,10,0:2:0:0:
305,215,37049,1,0,3:2:0:0:
112,284,37179,1,0,3:2:0:0:
289,311,37309,2,0,L|376:304,1,76,10|0,0:2|3:2,0:0:0:0:
305,215,37569,1,0,3:2:0:0:
206,345,37699,2,0,P|199:308|208:272,1,76,10|0,0:2|3:2,0:0:0:0:
396,228,37958,6,0,L|385:379,1,152,14|0,0:2|3:2,0:0:0:0:
510,251,38348,2,0,L|500:100,1,152,8|0,0:2|3:2,0:0:0:0:
399,56,38738,2,0,L|396:132,1,76,8|0,0:2|3:2,0:0:0:0:
232,80,38997,6,0,P|276:100|300:224,1,152,10|0,0:2|3:2,0:0:0:0:
176,236,39387,2,0,P|196:196|236:168,2,76,8|8|0,0:2|0:2|3:2,0:0:0:0:
40,348,39907,5,0,3:2:0:0:
40,348,39971,1,0,3:2:0:0:
40,348,40036,2,0,B|76:268|28:196|28:196|60:240|104:236,1,228,6|0,3:2|0:2,0:0:0:0:
208,192,41074,6,0,P|204:104|108:156,1,228,12|0,0:2|3:2,0:0:0:0:
168,280,42113,6,0,L|292:288,1,114,4|0,3:2|3:2,0:0:0:0:
380,296,42633,1,4,3:2:0:0:
340,184,42893,2,0,L|336:228,3,25.3333333333333,0|0|0|8,3:2|3:2|3:2|3:2,0:0:0:0:
340,184,44061,6,0,B|268:196|268:196|176:168,1,152,6|0,3:2|3:2,0:0:0:0:
100,68,44450,2,0,L|104:172,1,76,8|0,3:2|3:2,0:0:0:0:
56,288,44710,1,0,3:2:0:0:
4,160,44840,1,0,3:2:0:0:
136,236,44970,2,0,P|152:296|144:328,1,76,8|0,3:2|3:2,0:0:0:0:
24,264,45229,5,0,3:2:0:0:
102,143,45359,2,0,L|198:139,1,76,2|8,3:2|3:2,0:0:0:0:
272,48,45619,2,0,L|176:44,1,76,2|0,3:2|3:2,0:0:0:0:
276,148,45879,2,0,L|372:144,1,76,2|8,3:2|3:2,0:0:0:0:
468,88,46139,6,0,P|464:44|488:-4,2,76,2|0|0,3:2|3:2|3:2,0:0:0:0:
452,240,46528,1,8,3:2:0:0:
376,128,46658,1,2,3:2:0:0:
352,256,46788,2,0,L|348:344,1,76,0|0,3:2|3:2,0:0:0:0:
468,264,47048,1,8,3:2:0:0:
384,160,47178,6,0,P|332:156|260:228,1,152,0|0,3:2|3:2,0:0:0:0:
224,352,47567,1,10,3:2:0:0:
168,232,47697,2,0,L|164:152,1,76,2|0,3:2|3:2,0:0:0:0:
68,264,47957,2,0,L|64:184,1,76,2|8,3:2|3:2,0:0:0:0:
132,52,48216,6,0,P|180:48|228:76,1,76,2|0,3:2|3:2,0:0:0:0:
288,156,48476,2,0,P|284:108|312:60,1,76,2|8,3:2|3:2,0:0:0:0:
448,124,48736,2,0,L|364:128,1,76,2|0,3:2|3:2,0:0:0:0:
248,244,48996,1,2,3:2:0:0:
396,232,49126,1,8,3:2:0:0:
288,336,49255,6,0,B|224:340|224:340|200:328|200:328|120:332,1,152,2|0,3:2|3:2,0:0:0:0:
60,232,49645,2,0,L|148:240,1,76,8|0,3:2|3:2,0:0:0:0:
216,108,49905,1,2,3:2:0:0:
248,244,50035,1,2,3:2:0:0:
128,144,50165,1,8,3:2:0:0:
296,160,50294,6,0,P|340:156|376:124,1,76,2|0,3:2|3:2,0:0:0:0:
320,4,50554,2,0,P|301:44|311:91,1,76,2|8,3:2|3:2,0:0:0:0:
448,120,50814,2,0,P|449:157|431:190,1,76,2|0,3:2|3:2,0:0:0:0:
316,248,51074,1,0,3:2:0:0:
436,324,51203,2,0,L|340:328,1,76,8|0,3:2|3:2,0:0:0:0:
228,260,51463,6,0,P|236:208|260:176,1,76,0|0,3:2|3:2,0:0:0:0:
272,80,51723,2,0,P|222:99|183:94,1,76,10|0,3:2|3:2,0:0:0:0:
92,24,51983,1,2,3:2:0:0:
104,172,52113,2,0,L|112:276,1,76,2|8,3:2|3:2,0:0:0:0:
12,144,52372,1,2,3:2:0:0:
160,92,52502,5,0,3:2:0:0:
178,92,52566,1,0,3:2:0:0:
197,93,52631,1,0,3:2:0:0:
216,94,52696,1,0,3:2:0:0:
235,95,52762,2,0,L|324:100,1,76,8|0,3:2|3:2,0:0:0:0:
384,192,53022,2,0,L|292:196,1,76,0|0,3:2|3:2,0:0:0:0:
276,336,53281,2,0,P|313:309|328:270,1,76,8|0,3:2|3:2,0:0:0:0:
221,185,53541,6,0,P|225:230|251:263,1,76,0|0,3:2|3:2,0:0:0:0:
384,192,53801,1,8,3:2:0:0:
268,96,53931,2,0,B|212:84|212:84|172:100|172:100|104:88,1,152,2|2,3:2|3:2,0:0:0:0:
44,216,54320,1,8,3:2:0:0:
24,72,54450,1,2,3:2:0:0:
140,192,54580,5,0,3:2:0:0:
140,210,54644,1,0,3:2:0:0:
141,229,54709,1,0,3:2:0:0:
142,248,54774,1,0,3:2:0:0:
143,267,54840,2,0,L|148:356,1,76,8|0,3:2|3:2,0:0:0:0:
256,300,55100,2,0,L|260:208,1,76,2|0,3:2|3:2,0:0:0:0:
400,192,55359,2,0,P|373:229|334:244,1,76,8|0,3:2|3:2,0:0:0:0:
249,137,55619,6,0,P|294:141|327:167,1,76,0|0,3:2|3:2,0:0:0:0:
480,240,55879,2,0,L|488:144,1,76,8|0,3:2|3:2,0:0:0:0:
420,28,56139,2,0,L|428:124,1,76,0|0,3:2|3:2,0:0:0:0:
346,241,56398,1,10,3:2:0:0:
288,92,56528,6,0,B|244:64|192:72|192:72|172:108|196:152,1,152,2|2,3:2|3:2,0:0:0:0:
200,252,56918,1,8,3:2:0:0:
104,164,57048,2,0,L|16:156,1,76,2|0,3:2|3:2,0:0:0:0:
36,304,57307,2,0,L|120:300,1,76,2|8,3:2|3:2,0:0:0:0:
200,156,57567,6,0,B|288:152|256:216|352:208,1,152,2|2,3:2|3:2,0:0:0:0:
480,140,57957,1,8,3:2:0:0:
428,288,58087,2,0,L|420:200,1,76,2|0,3:2|3:2,0:0:0:0:
336,312,58346,2,0,L|328:224,1,76,2|8,3:2|3:2,0:0:0:0:
252,80,58606,6,0,P|188:64|116:120,1,152,2|2,3:2|3:2,0:0:0:0:
96,240,58996,1,8,3:2:0:0:
200,156,59126,2,0,P|208:200|204:240,1,76,2|0,3:2|3:2,0:0:0:0:
212,348,59385,2,0,P|246:319|282:302,1,76,2|8,3:2|3:2,0:0:0:0:
400,224,59645,6,0,B|300:216|300:216|336:212|356:192,1,152,2|2,3:2|3:2,0:0:0:0:
420,104,60035,1,8,3:2:0:0:
292,48,60165,2,0,L|296:128,1,76,2|0,3:2|3:2,0:0:0:0:
196,231,60424,2,0,L|200:151,1,76,2|8,3:2|3:2,0:0:0:0:
40,80,60684,6,0,B|4:128|4:128|40:236,1,152,2|2,3:2|3:2,0:0:0:0:
80,312,61074,1,8,3:2:0:0:
196,231,61203,2,0,P|236:220|284:232,1,76,2|0,3:2|3:2,0:0:0:0:
280,372,61463,2,0,P|250:342|236:295,1,76,2|8,3:2|3:2,0:0:0:0:
364,200,61723,6,0,L|360:304,2,76,2|0|0,3:2|3:2|3:2,0:0:0:0:
292,80,62113,1,8,3:2:0:0:
269,225,62242,1,0,3:2:0:0:
396,108,62372,2,0,P|472:108|504:180,1,152,2|8,3:2|3:2,0:0:0:0:
472,300,62762,1,0,3:2:0:0:
364,200,62892,6,0,L|272:204,1,76,2|0,3:2|3:2,0:0:0:0:
208,320,63152,2,0,L|300:324,1,76,8|0,3:2|3:2,0:0:0:0:
184,216,63411,2,0,L|16:224,1,152,0|8,3:2|3:2,0:0:0:0:
112,316,63801,1,0,3:2:0:0:
160,124,63931,6,0,P|212:124|252:152,1,76,0|0,3:2|3:2,0:0:0:0:
312,236,64191,2,0,P|312:184|339:143,1,76,8|0,3:2|3:2,0:0:0:0:
460,88,64450,2,0,L|464:256,1,152,0|8,3:2|3:2,0:0:0:0:
404,352,64840,1,0,3:2:0:0:
312,236,64970,6,0,B|276:224|276:224|224:232,1,76,2|0,3:2|3:2,0:0:0:0:
226,376,65229,2,0,B|254:350|254:350|273:301,1,76,8|0,3:2|3:2,0:0:0:0:
147,231,65489,2,0,B|154:268|154:268|187:309,1,76,0|0,3:2|3:2,0:0:0:0:
312,236,65749,2,0,B|304:198|304:198|271:157,1,76,8|0,3:2|3:2,0:0:0:0:
172,64,66009,5,2,3:2:0:0:
147,231,66139,1,0,3:2:0:0:
76,80,66268,2,0,P|36:76|-12:100,1,76,8|0,3:2|3:2,0:0:0:0:
68,272,66528,1,0,3:2:0:0:
132,144,66658,1,0,3:2:0:0:
204,296,66788,2,0,L|296:300,1,76,8|0,3:2|3:2,0:0:0:0:
376,212,67048,6,0,P|320:196|288:140,1,114,6|0,3:2|0:2,0:0:0:0:
380,48,67567,2,0,L|376:132,1,76,0|0,0:2|3:2,0:0:0:0:
464,228,68086,1,12,0:2:0:0:
480,244,68606,1,0,0:2:0:0:
496,260,69125,6,0,L|364:252,1,114,4|0,3:2|0:2,0:0:0:0:
360,340,69645,2,0,L|276:344,1,76,0|0,0:2|3:2,0:0:0:0:
192,264,70164,1,12,0:2:0:0:
176,248,70684,1,0,0:2:0:0:
332,192,70944,5,8,0:2:0:0:
288,288,71073,1,0,3:2:0:0:
232,160,71203,6,0,P|206:107|145:85,1,114,4|0,3:2|0:2,0:0:0:0:
68,180,71723,2,0,L|157:173,1,76,0|0,0:2|3:2,0:0:0:0:
308,212,72241,1,12,0:2:0:0:
324,228,72762,1,0,0:2:0:0:
340,244,73281,6,0,L|344:120,1,114,4|0,3:2|0:2,0:0:0:0:
248,68,73801,2,0,L|252:168,1,76,0|0,0:2|3:2,0:0:0:0:
168,240,74320,1,12,0:2:0:0:
152,256,74710,5,8,0:2:0:0:
64,192,74840,2,0,L|60:124,1,38,0|8,3:2|3:2,0:0:0:0:
148,116,75099,2,0,L|152:48,1,38,0|0,3:2|3:2,0:0:0:0:
272,28,75359,6,0,P|308:60|304:144,1,114,4|0,3:2|0:2,0:0:0:0:
280,216,75879,2,0,L|368:208,1,76,0|0,0:2|3:2,0:0:0:0:
416,132,76268,1,0,3:2:0:0:
416,132,76333,1,0,3:2:0:0:
416,132,76398,1,8,3:2:0:0:
