osu file format v14

[General]
AudioFilename: audio.mp3
AudioLeadIn: 0
PreviewTime: 43167
Countdown: 0
SampleSet: Soft
StackLeniency: 0.4
Mode: 0
LetterboxInBreaks: 0
WidescreenStoryboard: 1

[Editor]
DistanceSpacing: 1.5
BeatDivisor: 4
GridSize: 4
TimelineZoom: 2

[Metadata]
Title:When It Falls (feat. Casey Lee Williams) (TV Size)
TitleUnicode:When It Falls (feat. Casey Lee Williams) (TV Size)
Artist:Jeff Williams
ArtistUnicode:Jeff Williams
Creator:browiec
Version:Hard
Source:RWBY
Tags:volume 3 opening intro theme short version red ruby white black yellow rose yang xiao long weiss schnee blake belladonna english rock rooster teeth animation
BeatmapID:2281076
BeatmapSetID:1091102

[Difficulty]
HPDrainRate:4
CircleSize:3.6
OverallDifficulty:6.5
ApproachRate:7.8
SliderMultiplier:1.2
SliderTickRate:1

[Events]
//Background and Video events
0,0,"when she falls.jpg",0,0
//Break Periods
2,8224,9097
//Storyboard Layer 0 (Background)
//Storyboard Layer 1 (Fail)
//Storyboard Layer 2 (Pass)
//Storyboard Layer 3 (Foreground)
//Storyboard Layer 4 (Overlay)
//Storyboard Sound Samples

[TimingPoints]
201,571.428571428571,4,2,1,20,1,0
201,-66.6666666666667,4,2,1,20,0,0
4759,560.747663551402,4,2,1,20,1,0
4759,-66.6666666666667,4,2,1,20,0,0
5934,521.739130434783,4,2,1,20,1,0
5934,-66.6666666666667,4,2,1,20,0,0
7049,600,4,2,1,20,1,0
7049,-66.6666666666667,4,2,1,20,0,0
8024,941.915227629513,4,2,1,20,1,0
9907,259.74025974026,4,2,1,70,1,0
40036,519.480519480519,4,2,1,50,1,0
40036,-83.3333333333333,4,2,1,50,0,0
44061,259.74025974026,4,2,1,70,1,0
44191,259.74025974026,4,2,1,70,1,8
67048,519.480519480519,4,2,1,50,1,0
67048,-83.3333333333333,4,2,1,50,0,0

[Colours]
Combo1 : 255,255,0
Combo2 : 242,0,0
Combo3 : 212,212,212
Combo4 : 63,63,63

[HitObjects]
48,292,201,6,0,L|40:232,3,45.0000017166138,2|2|2|2,0:2|0:2|0:2|0:2,0:0:0:0:
124,252,772,2,0,L|116:192,3,45.0000017166138,2|2|2|2,0:2|0:2|0:2|0:2,0:0:0:0:
200,212,1343,2,0,L|192:152,3,45.0000017166138,2|2|2|2,0:2|0:2|0:2|0:2,0:0:0:0:
276,172,1915,2,0,L|268:112,3,45.0000017166138,2|2|2|2,0:2|0:2|0:2|0:2,0:0:0:0:
340,88,2486,6,0,P|384:80|416:92,3,45.0000017166138,2|2|2|2,0:2|0:2|0:2|0:2,0:0:0:0:
448,132,3058,2,0,P|456:176|444:208,3,45.0000017166138,2|2|2|2,0:2|0:2|0:2|0:2,0:0:0:0:
404,240,3629,2,0,P|360:248|328:236,3,45.0000017166138,2|2|2|2,0:2|0:2|0:2|0:2,0:0:0:0:
172,80,4759,6,0,L|312:88,1,135.000005149841,2|2,0:2|0:2,0:0:0:0:
468,200,5934,6,0,L|328:208,1,135.000005149841,2|2,0:2|0:2,0:0:0:0:
172,320,7049,6,0,L|312:328,1,135.000005149841,2|2,0:2|0:2,0:0:0:0:
472,360,8024,5,2,0:2:0:0:
452,348,9907,6,0,L|456:264,1,60,10|10,0:2|0:2,0:0:0:0:
380,240,10166,1,10,0:2:0:0:
360,328,10296,2,0,L|288:332,1,60,10|8,0:2|0:2,0:0:0:0:
244,260,10556,1,10,0:2:0:0:
212,344,10686,1,8,0:2:0:0:
146,257,10816,6,0,P|110:269|34:229,1,120,6|2,3:2|3:2,0:0:0:0:
6,153,11205,2,0,L|-2:85,1,60,8|0,3:2|3:2,0:0:0:0:
54,29,11465,2,0,P|90:21|126:33,1,60,0|0,3:2|3:2,0:0:0:0:
154,109,11725,2,0,L|146:168,1,60,8|0,3:2|3:2,0:0:0:0:
226,213,11984,5,2,3:2:0:0:
226,213,12114,2,0,P|262:225|298:221,1,60,2|8,3:2|3:2,0:0:0:0:
350,165,12374,2,0,L|346:97,1,60,2|0,3:2|3:2,0:0:0:0:
406,37,12634,1,2,3:2:0:0:
498,196,12894,6,0,B|518:236|518:236|490:328,1,120,2|0,3:2|3:2,0:0:0:0:
450,384,13283,1,8,3:2:0:0:
450,384,13413,1,0,3:2:0:0:
410,304,13543,2,0,P|370:296|342:304,1,60,2|0,3:2|3:2,0:0:0:0:
290,364,13803,1,8,3:2:0:0:
290,364,13932,1,0,3:2:0:0:
266,276,14062,6,0,B|283:216|283:216|254:148,1,120,2|8,3:2|3:2,0:0:0:0:
175,148,14452,1,0,3:2:0:0:
175,148,14582,2,0,L|178:88,1,60,2|0,3:2|3:2,0:0:0:0:
99,44,14842,1,8,3:2:0:0:
56,230,15101,6,0,L|60:310,1,60,2|2,3:2|3:2,0:0:0:0:
135,347,15361,1,8,3:2:0:0:
135,347,15491,2,0,P|183:355|243:311,1,120,2|2,3:2|3:2,0:0:0:0:
323,268,15881,1,8,3:2:0:0:
323,268,16010,6,0,B|299:224|299:224|315:144,1,120,2|2,3:2|3:2,0:0:0:0:
383,96,16400,1,8,3:2:0:0:
383,96,16530,2,0,L|375:36,2,60,2|2|2,3:2|3:2|3:2,0:0:0:0:
463,136,16919,1,8,3:2:0:0:
445,224,17049,6,0,L|441:352,1,120,2|2,3:2|3:2,0:0:0:0:
358,369,17439,1,8,3:2:0:0:
358,369,17569,2,0,P|318:377|286:369,1,60,2|0,3:2|3:2,0:0:0:0:
233,311,17829,2,0,P|225:271|233:239,1,60,2|8,3:2|3:2,0:0:0:0:
291,184,18088,6,0,P|293:154|285:125,1,60,2|0,3:2|3:2,0:0:0:0:
228,56,18348,2,0,P|198:53|169:61,1,60,2|8,3:2|3:2,0:0:0:0:
28,168,18738,1,2,3:2:0:0:
76,244,18868,1,10,3:2:0:0:
76,244,18997,1,10,3:2:0:0:
25,339,19127,6,0,P|65:355|149:319,1,120,6|0,3:2|3:2,0:0:0:0:
225,351,19517,2,0,L|293:347,1,60,8|0,3:2|3:2,0:0:0:0:
305,259,19777,2,0,L|373:263,1,60,0|0,3:2|3:2,0:0:0:0:
381,351,20036,2,0,L|449:347,1,60,8|0,3:2|3:2,0:0:0:0:
489,271,20296,5,0,3:2:0:0:
489,271,20426,1,0,3:2:0:0:
433,199,20556,2,0,P|437:163|429:131,1,60,8|0,3:2|3:2,0:0:0:0:
373,71,20816,1,2,3:2:0:0:
373,71,20945,1,0,3:2:0:0:
313,139,21075,1,8,3:2:0:0:
152,40,21335,6,0,B|96:24|96:24|16:48,1,120,2|8,3:2|3:2,0:0:0:0:
8,132,21725,1,0,3:2:0:0:
8,132,21855,2,0,P|32:176|112:196,1,120,2|8,3:2|3:2,0:0:0:0:
184,168,22244,1,0,3:2:0:0:
184,168,22374,6,0,L|188:244,1,60,2|0,3:2|3:2,0:0:0:0:
116,284,22634,2,0,L|112:360,1,60,8|0,3:2|3:2,0:0:0:0:
200,384,22894,1,2,3:2:0:0:
200,384,23023,1,0,3:2:0:0:
272,328,23153,1,8,3:2:0:0:
452,316,23413,6,0,B|428:276|428:276|440:196,1,120,2|10,3:2|3:2,0:0:0:0:
488,124,23803,2,0,P|456:112|424:112,1,60,2|0,3:2|3:2,0:0:0:0:
356,164,24062,2,0,P|326:162|298:151,1,60,2|8,3:2|3:2,0:0:0:0:
236,84,24322,6,0,P|204:64|132:112,1,120,2|2,3:2|3:2,0:0:0:0:
72,164,24712,1,8,3:2:0:0:
72,164,24842,2,0,B|60:240|60:240|76:292,1,120,2|2,3:2|3:2,0:0:0:0:
232,368,25361,6,0,B|300:348|284:388|356:372,1,120,2|2,3:2|3:2,0:0:0:0:
328,288,25751,1,8,3:2:0:0:
328,288,25881,2,0,L|332:220,1,60,2|0,3:2|3:2,0:0:0:0:
256,180,26140,2,0,L|252:112,1,60,2|8,3:2|3:2,0:0:0:0:
312,48,26400,1,2,3:2:0:0:
312,48,26530,6,0,L|320:8,6,30,0|0|2|0|8|8|10,3:2|3:2|3:2|3:2|3:2|3:2|3:2,0:0:0:0:
396,76,27049,2,0,L|404:36,6,30,0|0|2|0|8|8|8,3:2|3:2|3:2|3:2|3:2|3:2|3:2,0:0:0:0:
472,144,27569,6,0,P|492:196|468:264,1,120,12|0,3:2|3:2,0:0:0:0:
404,204,27958,1,8,0:2:0:0:
404,204,28088,2,0,P|372:208|336:200,1,60,0|0,0:2|3:2,0:0:0:0:
288,132,28348,2,0,P|260:128|220:136,1,60,8|0,0:2|3:2,0:0:0:0:
176,208,28608,6,0,L|172:268,2,60,10|0|0,0:2|3:2|3:2,0:0:0:0:
88,200,28997,2,0,L|84:260,2,60,10|0|0,0:2|3:2|3:2,0:0:0:0:
32,128,29387,1,10,0:2:0:0:
120,108,29517,1,0,3:2:0:0:
224,79,29647,6,0,L|364:71,1,120,14|0,0:2|3:2,0:0:0:0:
416,15,30036,2,0,P|432:55|412:135,1,120,8|0,0:2|3:2,0:0:0:0:
340,171,30426,1,8,0:2:0:0:
340,171,30556,1,0,3:2:0:0:
416,219,30686,6,0,B|392:263|392:263|416:343,1,120,10|0,0:2|3:2,0:0:0:0:
328,367,31075,2,0,L|196:351,1,120,8|0,0:2|3:2,0:0:0:0:
120,371,31465,1,10,0:2:0:0:
12,212,31725,6,0,B|76:192|76:192|144:212,1,120,4|8,3:2|3:2,0:0:0:0:
200,152,32114,2,0,L|208:64,1,60,0|0,3:2|0:0,0:0:0:0:
292,60,32374,1,0,3:2:0:0:
292,60,32504,2,0,L|300:148,1,60,8|0,3:2|3:2,0:0:0:0:
356,188,32764,6,0,P|404:172|472:228,1,120,2|8,3:2|3:2,0:0:0:0:
448,292,33153,2,0,P|400:308|332:252,1,120,2|0,3:2|3:2,0:0:0:0:
272,220,33543,1,10,3:2:0:0:
272,220,33673,1,0,3:2:0:0:
188,252,33803,6,0,P|140:268|72:212,1,120,2|8,3:2|3:2,0:0:0:0:
96,148,34192,2,0,P|144:132|212:188,1,120,2|0,3:2|3:2,0:0:0:0:
272,220,34582,1,10,3:2:0:0:
272,220,34712,1,0,3:2:0:0:
356,188,34842,6,0,L|364:64,1,120,2|8,3:2|0:2,0:0:0:0:
440,20,35231,1,8,0:2:0:0:
440,20,35361,2,0,P|476:16|512:32,1,60,8|0,0:2|3:2,0:0:0:0:
512,112,35621,1,0,3:2:0:0:
420,268,35881,6,0,P|360:300|292:276,1,120,12|0,0:2|3:2,0:0:0:0:
224,276,36270,2,0,B|244:224|244:224|224:140,1,120,8|0,0:2|3:2,0:0:0:0:
168,100,36660,1,10,0:2:0:0:
168,100,36790,1,0,3:2:0:0:
64,129,36919,6,0,L|-4:133,2,60,10|0|0,0:2|3:2|3:2,0:0:0:0:
76,221,37309,2,0,L|8:225,2,60,10|0|0,0:2|3:2|3:2,0:0:0:0:
124,297,37699,1,10,0:2:0:0:
168,217,37829,1,0,3:2:0:0:
227,305,37958,6,0,B|287:321|287:321|355:301,1,120,14|0,0:2|3:2,0:0:0:0:
415,361,38348,2,0,B|431:301|431:301|411:233,1,120,8|0,0:2|3:2,0:0:0:0:
335,217,38738,1,8,0:2:0:0:
335,217,38868,1,0,3:2:0:0:
347,129,38997,6,0,B|279:113|303:157|223:141,1,120,10|0,0:2|3:2,0:0:0:0:
147,173,39387,2,0,L|143:113,2,60,8|8|0,0:2|0:2|3:2,0:0:0:0:
40,272,40036,6,0,B|124:268|152:348|152:348|176:268|260:272,1,287.999991210938,6|12,3:2|0:2,0:0:0:0:
420,360,41854,5,0,3:2:0:0:
420,360,42113,2,0,L|428:224,1,107.999996704102,4|0,3:2|3:2,0:0:0:0:
384,216,42633,2,0,L|380:120,1,71.9999978027344,4|0,3:2|3:2,0:0:0:0:
440,52,43152,1,8,3:2:0:0:
424,36,44061,6,0,L|280:24,1,120,6|0,3:2|3:2,0:0:0:0:
220,56,44450,2,0,P|212:92|220:132,1,60,8|0,3:2|3:2,0:0:0:0:
276,184,44710,1,0,3:2:0:0:
276,184,44840,1,0,3:2:0:0:
188,204,44970,2,0,L|112:208,1,60,8|0,3:2|3:2,0:0:0:0:
52,168,45229,5,0,3:2:0:0:
52,168,45359,2,0,P|44:204|52:244,1,60,2|8,3:2|3:2,0:0:0:0:
12,312,45619,2,0,P|48:320|88:312,1,60,2|0,3:2|3:2,0:0:0:0:
152,360,45879,1,2,3:2:0:0:
320,292,46139,6,0,L|392:300,2,60,2|0|0,3:2|3:2|3:2,0:0:0:0:
260,212,46528,1,8,3:2:0:0:
332,156,46658,1,2,3:2:0:0:
332,156,46788,2,0,P|376:164|412:156,1,60,0|0,3:2|3:2,0:0:0:0:
432,84,47048,1,8,3:2:0:0:
432,84,47178,6,0,P|392:48|312:64,1,120,0|0,3:2|3:2,0:0:0:0:
254,100,47567,1,10,3:2:0:0:
254,100,47697,2,0,B|192:109|192:109|128:82,1,120,2|2,3:2|3:2,0:0:0:0:
6,208,48216,6,0,L|2:288,1,60,2|0,3:2|3:2,0:0:0:0:
90,290,48476,2,0,L|94:370,1,60,2|8,3:2|3:2,0:0:0:0:
179,377,48736,2,0,L|238:374,1,60,2|0,3:2|3:2,0:0:0:0:
271,291,48996,1,2,3:2:0:0:
271,291,49126,1,8,3:2:0:0:
357,353,49255,6,0,P|413:369|481:329,1,120,2|0,3:2|3:2,0:0:0:0:
405,277,49645,1,8,3:2:0:0:
280,154,49905,1,2,3:2:0:0:
280,154,50035,1,2,3:2:0:0:
288,64,50165,1,8,3:2:0:0:
387,45,50294,6,0,L|463:49,1,60,2|0,3:2|3:2,0:0:0:0:
483,133,50554,2,0,L|407:137,1,60,2|8,3:2|3:2,0:0:0:0:
387,221,50814,2,0,P|427:233|455:305,1,120,2|0,3:2|3:2,0:0:0:0:
391,365,51203,1,8,3:2:0:0:
291,214,51463,6,0,P|263:222|219:218,1,60,0|0,3:2|3:2,0:0:0:0:
151,262,51723,2,0,P|143:234|147:190,1,60,10|0,3:2|3:2,0:0:0:0:
207,138,51983,1,2,3:2:0:0:
207,138,52113,2,0,P|215:110|211:66,1,60,2|8,3:2|3:2,0:0:0:0:
134,48,52372,1,2,3:2:0:0:
134,48,52502,6,0,L|142:-4,4,30,0|0|0|0|8,3:2|3:2|3:2|3:2|3:2,0:0:0:0:
103,135,52892,1,0,3:2:0:0:
103,135,53022,2,0,P|63:127|27:135,1,60,0|0,3:2|3:2,0:0:0:0:
1,208,53281,2,0,P|14:246|39:273,1,60,8|0,3:2|3:2,0:0:0:0:
116,268,53541,5,0,3:2:0:0:
257,156,53801,1,8,3:2:0:0:
257,156,53931,2,0,B|321:144|321:144|393:164,1,120,2|2,3:2|3:2,0:0:0:0:
429,235,54320,1,8,3:2:0:0:
429,235,54450,1,2,3:2:0:0:
351,311,54580,6,0,L|355:359,4,30,0|0|0|0|8,3:2|3:2|3:2|3:2|3:2,0:0:0:0:
263,299,54970,1,0,3:2:0:0:
263,299,55100,2,0,P|219:303|187:295,1,60,2|0,3:2|3:2,0:0:0:0:
131,251,55359,2,0,P|113:210|111:177,1,60,8|0,3:2|3:2,0:0:0:0:
135,110,55619,6,0,P|168:80|198:68,1,60,0|0,3:2|3:2,0:0:0:0:
270,70,55879,2,0,P|307:92|329:117,1,60,8|0,3:2|3:2,0:0:0:0:
349,186,56139,1,0,3:2:0:0:
248,312,56398,1,10,3:2:0:0:
248,312,56528,6,0,P|300:292|372:328,1,120,2|2,3:2|3:2,0:0:0:0:
444,360,56918,1,8,3:2:0:0:
444,360,57048,2,0,L|448:296,1,60,2|0,3:2|3:2,0:0:0:0:
508,232,57307,2,0,L|504:172,1,60,2|8,3:2|3:2,0:0:0:0:
472,88,57567,6,0,B|420:104|420:104|340:84,1,120,2|2,3:2|3:2,0:0:0:0:
284,44,57957,1,8,3:2:0:0:
284,44,58087,2,0,P|272:84|280:124,1,60,2|0,3:2|3:2,0:0:0:0:
224,176,58346,1,2,3:2:0:0:
44,152,58606,6,0,L|52:288,1,120,2|2,3:2|3:2,0:0:0:0:
8,352,58996,1,8,3:2:0:0:
8,352,59126,2,0,P|56:364|80:360,1,60,2|0,3:2|3:2,0:0:0:0:
148,328,59385,2,0,P|177:328|205:339,1,60,2|8,3:2|3:2,0:0:0:0:
288,376,59645,6,0,B|292:332|292:332|284:300|284:300|288:248,1,120,2|2,3:2|3:2,0:0:0:0:
208,228,60035,1,8,3:2:0:0:
208,228,60165,2,0,L|204:152,1,60,2|0,3:2|3:2,0:0:0:0:
288,136,60424,1,2,3:2:0:0:
432,32,60684,6,0,P|480:32|508:100,1,120,2|2,3:2|3:2,0:0:0:0:
456,164,61074,1,8,3:2:0:0:
456,164,61203,2,0,L|460:236,1,60,2|0,3:2|3:2,0:0:0:0:
376,260,61463,2,0,L|372:332,1,60,2|8,3:2|3:2,0:0:0:0:
292,360,61723,5,2,3:2:0:0:
292,360,61853,2,0,P|244:368|184:320,1,120,0|8,3:2|3:2,0:0:0:0:
104,316,62242,1,0,3:2:0:0:
104,316,62372,2,0,P|121:270|192:242,1,120,2|8,3:2|3:2,0:0:0:0:
268,284,62762,1,0,3:2:0:0:
268,284,62892,6,0,L|272:212,1,60,2|0,3:2|3:2,0:0:0:0:
212,156,63152,2,0,L|208:84,1,60,8|0,3:2|3:2,0:0:0:0:
268,28,63411,2,0,B|332:12|332:12|404:40,1,120,0|8,3:2|3:2,0:0:0:0:
424,112,63801,1,0,3:2:0:0:
424,112,63931,6,0,L|420:184,1,60,0|0,3:2|3:2,0:0:0:0:
480,240,64191,2,0,L|484:312,1,60,8|0,3:2|3:2,0:0:0:0:
416,360,64450,2,0,B|352:376|352:376|280:348,1,120,0|8,3:2|3:2,0:0:0:0:
168,236,64970,6,0,P|112:220|48:264,1,120,2|8,3:2|3:2,0:0:0:0:
8,320,65359,1,0,3:2:0:0:
8,320,65489,2,0,L|0:192,1,120,0|8,3:2|3:2,0:0:0:0:
68,140,65879,1,0,3:2:0:0:
68,140,66009,6,0,L|140:132,1,60,2|0,3:2|3:2,0:0:0:0:
144,44,66268,2,0,L|216:52,1,60,8|0,3:2|3:2,0:0:0:0:
220,140,66528,2,0,L|292:132,1,60,0|0,3:2|3:2,0:0:0:0:
296,44,66788,2,0,L|368:52,1,60,8|0,3:2|3:2,0:0:0:0:
436,104,67048,6,0,B|416:156|416:156|436:224,1,107.999996704102,6|0,3:2|0:2,0:0:0:0:
444,260,67567,2,0,L|436:332,1,71.9999978027344,0|0,0:2|3:2,0:0:0:0:
340,380,68086,2,0,P|288:384|232:312,1,143.999995605469,12|0,0:2|0:2,0:0:0:0:
308,192,69125,6,0,L|196:184,1,107.999996704102,4|0,3:2|0:2,0:0:0:0:
164,144,69645,2,0,L|80:148,1,71.9999978027344,0|0,0:2|3:2,0:0:0:0:
12,220,70164,2,0,P|22:269|124:308,1,143.999995605469,12|0,0:2|0:2,0:0:0:0:
200,276,70944,2,0,L|264:268,1,35.9999989013672,8|0,0:2|3:2,0:0:0:0:
288,252,71203,6,0,B|272:200|272:200|280:128,1,107.999996704102,4|0,3:2|0:2,0:0:0:0:
308,100,71723,2,0,P|352:80|384:84,1,71.9999978027344,0|0,0:2|3:2,0:0:0:0:
464,144,72242,2,0,L|456:304,1,143.999995605469,12|0,0:2|0:2,0:0:0:0:
252,360,73281,6,0,L|140:352,1,107.999996704102,4|0,3:2|0:2,0:0:0:0:
100,324,73801,2,0,P|88:280|100:232,1,71.9999978027344,0|0,0:2|3:2,0:0:0:0:
152,164,74320,2,0,P|204:148|268:184,1,107.999996704102,12|8,0:2|0:2,0:0:0:0:
284,208,74840,2,0,L|276:276,1,35.9999989013672,0|8,3:2|3:2,0:0:0:0:
316,284,75099,2,0,L|324:352,1,35.9999989013672,0|0,3:2|3:2,0:0:0:0:
364,352,75359,6,0,P|420:368|484:344,2,107.999996704102,4|0|0,3:2|0:2|3:2,0:0:0:0:
416,256,76398,1,8,3:2:0:0:
