osu file format v14

[General]
AudioFilename: RWBY Volume 3 - Opening.mp3
AudioLeadIn: 0
PreviewTime: 43210
Countdown: 0
SampleSet: Soft
StackLeniency: 0.7
Mode: 2
LetterboxInBreaks: 0
WidescreenStoryboard: 1

[Editor]
Bookmarks: 9835,27497,38276,49833,66716
DistanceSpacing: 1.6
BeatDivisor: 4
GridSize: 4
TimelineZoom: 2.4

[Metadata]
Title:When It Falls (feat. Casey Lee Williams)
TitleUnicode:When It Falls (feat. Casey Lee Williams)
Artist:Jeff Williams
ArtistUnicode:Jeff Williams
Creator:Sorcerer
Version:Rain
Source:RWBY
Tags:Withered Lotus JBHyperion - Magic Bomb - Volume Season 3 Opening cut ver
BeatmapID:1464183
BeatmapSetID:366298

[Difficulty]
HPDrainRate:5
CircleSize:3.8
OverallDifficulty:9
ApproachRate:9
SliderMultiplier:1.6
SliderTickRate:2

[Events]
//Background and Video events
0,0,"witbg.jpg",0,0
//Break Periods
//Storyboard Layer 0 (Background)
//Storyboard Layer 1 (Fail)
//Storyboard Layer 2 (Pass)
//Storyboard Layer 3 (Foreground)
//Storyboard Sound Samples

[TimingPoints]
129,569.80056980057,4,2,1,20,1,0
4687,560.747663551402,4,2,1,20,1,0
5852,545.454545454546,4,2,1,20,1,0
6977,600,4,2,1,20,1,0
7952,941.915227629513,4,2,1,20,1,0
9835,259.74025974026,4,2,1,65,1,0
39964,519.480519480519,4,2,1,65,1,0
43989,-50,4,2,1,65,0,1
44119,259.74025974026,4,2,1,65,1,1
56456,-100,4,2,1,65,0,0
66976,519.480519480519,4,2,1,65,1,0

[Colours]
Combo1 : 254,242,16
Combo2 : 157,0,4
Combo3 : 185,217,255
Combo4 : 108,21,100

[HitObjects]
208,272,129,5,2,0:0:0:0:
136,232,271,1,0,0:0:0:0:
136,160,413,1,0,0:0:0:0:
208,112,556,1,0,0:0:0:0:
368,112,698,1,0,0:0:0:0:
320,112,841,1,0,0:0:0:0:
272,112,983,1,0,0:0:0:0:
224,112,1126,1,0,0:0:0:0:
384,272,1268,5,0,0:0:0:0:
456,232,1410,1,0,0:0:0:0:
456,160,1552,1,0,0:0:0:0:
384,112,1695,1,0,0:0:0:0:
224,112,1837,1,0,0:0:0:0:
272,112,1980,1,0,0:0:0:0:
320,112,2122,1,0,0:0:0:0:
368,112,2265,1,0,0:0:0:0:
136,256,2408,5,2,0:0:0:0:
72,240,2550,1,0,0:0:0:0:
72,184,2693,1,0,0:0:0:0:
136,160,2835,1,0,0:0:0:0:
296,184,2978,1,0,0:0:0:0:
360,200,3120,1,0,0:0:0:0:
360,232,3262,1,0,0:0:0:0:
296,248,3405,1,0,0:0:0:0:
136,208,3547,5,0,0:0:0:0:
72,176,3690,1,0,0:0:0:0:
136,144,3832,1,0,0:0:0:0:
340,144,3975,1,2,0:0:0:0:
356,264,4687,6,0,P|384:228|344:164,1,120,2|0,0:0|0:0,0:0:0:0:
156,264,5852,6,0,P|128:228|168:164,1,120,2|0,0:0|0:0,0:0:0:0:
356,264,6977,6,0,P|384:228|344:164,1,120,2|0,0:0|0:0,0:0:0:0:
180,192,7952,1,2,0:0:0:0:
368,272,9835,6,0,L|376:168,1,80,8|0,0:0|0:0,0:0:0:0:
224,200,10094,2,0,L|216:96,1,80,8|0,0:0|0:0,0:0:0:0:
368,96,10354,2,0,L|297:147,2,80,8|0|8,0:0|0:0|0:0,0:0:0:0:
152,96,10744,6,0,P|96:152|96:232,1,160,4|0,0:1|1:0,0:0:0:0:
244,236,11133,2,0,L|328:236,1,80,8|0,0:0|0:0,0:0:0:0:
224,208,11393,2,0,L|212:100,1,80,0|0,1:0|0:0,0:0:0:0:
368,148,11653,2,0,L|376:48,1,80,8|0,0:0|0:0,0:0:0:0:
295,75,11912,6,0,L|387:67,1,80,0|0,1:0|0:0,0:0:0:0:
212,76,12172,2,0,L|120:68,1,80,8|0,0:0|0:0,0:0:0:0:
133,69,12432,2,0,L|212:76,1,80,0|0,1:0|0:0,0:0:0:0:
368,76,12692,1,8,0:0:0:0:
144,104,12822,6,0,P|88:140|68:232,1,160,4|0,0:0|1:0,0:0:0:0:
220,228,13211,2,0,L|232:120,1,80,8|0,0:0|0:0,0:0:0:0:
128,148,13471,2,0,L|116:40,1,80,0|0,1:0|0:0,0:0:0:0:
276,64,13731,1,8,0:0:0:0:
348,88,13860,1,0,0:0:0:0:
348,144,13990,5,0,1:0:0:0:
276,200,14120,1,0,0:0:0:0:
124,204,14250,2,0,L|112:308,1,80,8|0,0:0|0:0,0:0:0:0:
216,212,14510,2,0,L|228:108,1,80,0|0,1:0|0:0,0:0:0:0:
72,144,14770,1,8,0:0:0:0:
296,184,14899,6,0,P|348:156|376:44,1,160,4|0,0:0|1:0,0:0:0:0:
228,64,15289,2,0,L|144:64,1,80,8|0,0:0|0:0,0:0:0:0:
236,84,15549,2,0,L|244:176,1,80,0|0,1:0|0:0,0:0:0:0:
84,168,15809,2,0,L|76:260,1,80,8|0,0:0|0:0,0:0:0:0:
164,244,16068,6,0,L|72:280,1,80,0|0,1:0|0:0,0:0:0:0:
252,192,16328,2,0,L|344:228,1,80,8|0,0:0|0:0,0:0:0:0:
236,204,16588,2,0,L|228:296,1,80,0|0,1:0|0:0,0:0:0:0:
392,272,16847,1,8,0:0:0:0:
180,280,16977,6,0,P|124:252|92:144,1,160,4|0,0:0|1:0,0:0:0:0:
248,168,17367,2,0,L|336:136,1,80,8|0,0:0|0:0,0:0:0:0:
236,136,17627,2,0,L|228:44,1,80,0|0,1:0|0:0,0:0:0:0:
388,60,17886,1,8,0:0:0:0:
452,96,18016,1,0,0:0:0:0:
452,160,18146,5,0,1:0:0:0:
388,212,18276,1,0,0:0:0:0:
228,216,18406,2,0,L|216:128,1,80,8|0,0:0|0:0,0:0:0:0:
356,80,18666,1,8,0:0:0:0:
228,84,18796,1,8,0:0:0:0:
356,124,18925,1,8,0:0:0:0:
144,136,19055,6,0,P|84:172|60:276,1,160,4|0,0:1|1:0,0:0:0:0:
216,256,19445,2,0,L|296:216,1,80,8|0,0:0|0:0,0:0:0:0:
196,220,19705,2,0,L|184:128,1,80,0|0,1:0|0:0,0:0:0:0:
344,168,19964,2,0,L|356:76,1,80,8|0,0:0|0:0,0:0:0:0:
268,128,20224,6,0,L|348:104,1,80,0|0,1:0|0:0,0:0:0:0:
180,72,20484,1,8,0:0:0:0:
116,104,20614,1,0,0:0:0:0:
116,160,20744,1,0,1:0:0:0:
180,192,20873,1,0,0:0:0:0:
340,192,21003,1,8,0:0:0:0:
128,196,21133,6,0,P|72:232|56:340,1,160,4|0,0:0|1:0,0:0:0:0:
212,316,21523,2,0,L|220:216,1,80,8|0,0:0|0:0,0:0:0:0:
132,240,21783,2,0,L|124:140,1,80,0|0,1:0|0:0,0:0:0:0:
284,156,22042,2,0,L|380:128,1,80,8|0,0:0|0:0,0:0:0:0:
272,120,22302,6,0,L|192:80,1,80,0|0,1:0|0:0,0:0:0:0:
356,92,22562,1,8,0:0:0:0:
420,128,22692,1,0,0:0:0:0:
420,188,22822,1,0,1:0:0:0:
356,220,22951,1,0,0:0:0:0:
200,224,23081,1,8,0:0:0:0:
408,220,23211,6,0,P|456:244|488:344,1,160,4|0,0:0|1:0,0:0:0:0:
324,340,23601,2,0,L|232:328,1,80,8|0,0:0|0:0,0:0:0:0:
336,300,23860,2,0,L|344:200,1,80,0|0,1:0|0:0,0:0:0:0:
180,92,24120,1,8,0:0:0:0:
116,128,24250,1,0,0:0:0:0:
116,188,24380,5,0,1:0:0:0:
180,220,24509,1,0,0:0:0:0:
344,224,24640,2,0,L|352:120,1,80,8|0,0:0|0:0,0:0:0:0:
264,144,24899,2,0,L|256:40,1,80,0|0,1:0|0:0,0:0:0:0:
416,72,25159,1,8,0:0:0:0:
200,68,25289,6,0,P|140:100|108:196,1,160,4|0,0:0|1:0,0:0:0:0:
268,192,25679,2,0,L|276:300,1,80,8|0,0:0|0:0,0:0:0:0:
188,192,25938,2,0,L|180:84,1,80,0|0,1:0|0:0,0:0:0:0:
336,108,26198,2,0,L|424:128,1,80,8|0,0:0|0:0,0:0:0:0:
176,108,26458,5,0,1:0:0:0:
139,121,26522,1,0,1:0:0:0:
110,148,26587,1,0,1:0:0:0:
94,184,26652,1,0,1:0:0:0:
94,224,26717,1,8,0:0:0:0:
109,261,26782,1,0,1:0:0:0:
137,288,26847,1,0,1:0:0:0:
175,302,26912,1,0,1:0:0:0:
320,300,26977,5,0,1:0:0:0:
356,288,27041,1,0,1:0:0:0:
388,256,27106,1,0,1:0:0:0:
400,216,27171,1,0,1:0:0:0:
248,216,27236,1,8,0:0:0:0:
212,204,27301,1,0,1:0:0:0:
180,180,27367,1,8,0:0:0:0:
168,152,27432,1,0,1:0:0:0:
328,116,27497,6,0,L|460:210,1,160,4|0,0:1|1:0,0:0:0:0:
296,200,27886,2,0,L|208:200,2,80,8|0|0,0:0|0:0|1:0,0:0:0:0:
452,200,28276,2,0,L|460:108,1,80,8|0,0:0|0:0,0:0:0:0:
236,116,28536,6,0,L|148:116,2,80,8|0|0,0:0|0:0|1:0,0:0:0:0:
392,100,28925,2,0,L|480:100,2,80,8|0|0,0:0|0:0|1:0,0:0:0:0:
228,100,29315,2,0,L|132:100,1,80,8|0,0:0|0:0,0:0:0:0:
372,96,29575,6,0,P|440:116|472:208,1,160,8|0,0:0|1:0,0:0:0:0:
316,208,29964,2,0,L|220:208,2,80,8|0|0,0:0|0:0|1:0,0:0:0:0:
156,208,30354,2,0,L|56:208,1,80,8|0,0:0|0:0,0:0:0:0:
296,124,30614,6,0,L|376:124,2,80,8|0|0,0:0|0:0|1:0,0:0:0:0:
140,132,31003,2,0,L|132:52,1,80,8|0,0:0|0:0,0:0:0:0:
284,140,31263,1,8,0:0:0:0:
380,140,31393,2,0,P|404:116|352:40,1,120,0|0,1:0|0:0,0:0:0:0:
216,60,31653,6,0,P|160:80|116:180,1,160,4|8,0:1|0:0,0:0:0:0:
212,172,32042,1,0,0:0:0:0:
364,176,32172,2,0,L|372:276,1,80,0|0,1:0|0:0,0:0:0:0:
212,240,32432,2,0,L|204:340,1,80,8|0,0:0|0:0,0:0:0:0:
412,320,32692,6,0,P|464:288|480:188,1,160,0|8,1:0|0:0,0:0:0:0:
384,172,33081,1,0,0:0:0:0:
232,176,33211,2,0,L|224:276,1,80,0|0,1:0|0:0,0:0:0:0:
384,240,33471,2,0,L|392:340,1,80,8|0,0:0|0:0,0:0:0:0:
184,320,33731,6,0,L|40:224,1,160,0|8,1:0|0:0,0:0:0:0:
140,200,34120,1,0,0:0:0:0:
292,204,34250,2,0,L|368:144,1,80,0|0,1:0|0:0,0:0:0:0:
196,156,34510,2,0,L|120:96,1,80,8|0,0:0|0:0,0:0:0:0:
340,240,34770,6,0,L|476:152,1,160,0|8,1:0|0:0,0:0:0:0:
496,124,35116,1,0,1:0:0:0:
472,88,35202,1,0,1:0:0:0:
428,68,35289,1,0,1:0:0:0:
276,156,35419,1,0,0:0:0:0:
348,156,35549,1,8,0:0:0:0:
420,156,35679,1,0,0:0:0:0:
204,156,35809,6,0,L|52:252,1,160,8|0,0:0|1:0,0:0:0:0:
228,224,36199,2,0,L|380:320,1,160,8|0,0:0|1:0,0:0:0:0:
204,316,36588,2,0,L|192:220,1,80,8|0,0:0|0:0,0:0:0:0:
352,232,36847,6,0,L|448:204,2,80,8|0|0,0:0|0:0|1:0,0:0:0:0:
192,244,37237,2,0,L|96:216,2,80,8|0|0,0:0|0:0|1:0,0:0:0:0:
344,248,37627,2,0,L|432:224,1,80,8|0,0:0|0:0,0:0:0:0:
204,204,37886,6,0,L|64:112,1,160,8|0,0:0|1:0,0:0:0:0:
224,148,38276,2,0,L|364:56,1,160,8|0,0:0|1:0,0:0:0:0:
200,48,38666,2,0,L|112:84,1,80,8|0,0:0|0:0,0:0:0:0:
340,84,38925,6,0,L|488:160,1,160,8|0,0:0|1:0,0:0:0:0:
324,164,39315,2,0,L|176:240,1,160,8|0,0:0|1:0,0:0:0:0:
256,192,39964,12,8,43080,0:0:0:0:
212,192,43989,6,0,L|408:192,1,160,4|0,0:1|1:0,0:0:0:0:
216,168,44378,2,0,L|208:80,1,80,8|0,0:0|0:0,0:0:0:0:
368,124,44638,2,0,L|376:36,1,80,0|0,1:0|0:0,0:0:0:0:
212,52,44898,1,8,0:0:0:0:
148,92,45028,1,0,0:0:0:0:
148,152,45157,5,0,1:0:0:0:
212,184,45287,1,0,0:0:0:0:
364,192,45417,2,0,L|452:156,1,80,8|0,0:0|0:0,0:0:0:0:
280,160,45677,2,0,L|268:72,1,80,0|0,1:0|0:0,0:0:0:0:
432,84,45937,1,8,0:0:0:0:
228,92,46067,6,0,P|176:116|140:212,1,160,4|0,0:0|1:0,0:0:0:0:
300,208,46456,2,0,L|312:312,1,80,8|0,0:0|0:0,0:0:0:0:
152,304,46716,2,0,L|68:304,1,80,0|0,1:0|0:0,0:0:0:0:
232,240,46976,2,0,L|320:232,1,80,8|0,0:0|0:0,0:0:0:0:
220,220,47235,6,0,L|216:136,1,80,0|0,1:0|0:0,0:0:0:0:
380,148,47495,2,0,L|384:64,1,80,8|0,0:0|0:0,0:0:0:0:
228,152,47755,2,0,L|224:68,1,80,0|0,1:0|0:0,0:0:0:0:
380,64,48015,1,8,0:0:0:0:
180,68,48144,6,0,P|120:100|100:212,1,160,4|0,0:0|1:0,0:0:0:0:
252,188,48534,2,0,L|344:188,1,80,8|0,0:0|0:0,0:0:0:0:
172,192,48794,2,0,L|184:296,1,80,0|0,1:0|0:0,0:0:0:0:
332,264,49054,1,8,0:0:0:0:
140,276,49183,6,0,L|4:168,1,160,4|0,0:0|1:0,0:0:0:0:
180,168,49573,2,0,L|168:80,1,80,8|0,0:0|0:0,0:0:0:0:
12,124,49833,2,0,L|24:36,1,80,0|0,1:0|0:0,0:0:0:0:
172,48,50093,1,8,0:0:0:0:
372,44,50222,6,0,P|424:80|364:144,1,160,4|0,0:0|1:0,0:0:0:0:
216,140,50612,2,0,L|208:240,1,80,8|0,0:0|0:0,0:0:0:0:
364,220,50872,2,0,L|372:320,1,80,0|0,1:0|0:0,0:0:0:0:
208,296,51131,1,8,0:0:0:0:
404,296,51261,6,0,P|444:276|476:164,1,160,4|0,0:0|1:0,0:0:0:0:
324,168,51651,2,0,L|240:168,1,80,8|0,0:0|0:0,0:0:0:0:
392,160,51911,2,0,L|400:68,1,80,0|0,1:0|0:0,0:0:0:0:
244,124,52170,2,0,L|236:40,1,80,8|0,0:0|0:0,0:0:0:0:
396,224,52430,5,0,1:0:0:0:
432,196,52494,1,0,1:0:0:0:
432,156,52559,1,0,1:0:0:0:
396,120,52624,1,0,1:0:0:0:
268,172,52690,2,0,L|172:172,1,80,8|0,0:0|0:0,0:0:0:0:
344,176,52950,2,0,L|356:68,1,80,0|0,1:0|0:0,0:0:0:0:
196,92,53209,1,8,0:0:0:0:
132,124,53339,1,0,0:0:0:0:
132,176,53469,5,0,1:0:0:0:
196,216,53599,1,0,0:0:0:0:
348,216,53729,2,0,L|444:216,1,80,8|0,0:0|0:0,0:0:0:0:
272,160,53989,2,0,L|176:160,1,80,0|0,1:0|0:0,0:0:0:0:
352,160,54248,2,0,L|364:64,1,80,8|0,0:0|0:0,0:0:0:0:
200,224,54508,5,0,1:0:0:0:
164,196,54572,1,0,1:0:0:0:
164,156,54637,1,0,1:0:0:0:
200,120,54702,1,0,1:0:0:0:
328,172,54768,2,0,L|424:172,1,80,8|0,0:0|0:0,0:0:0:0:
252,180,55028,2,0,L|236:80,1,80,0|0,1:0|0:0,0:0:0:0:
396,92,55287,1,8,0:0:0:0:
460,128,55417,1,0,0:0:0:0:
460,184,55547,5,0,1:0:0:0:
396,228,55677,1,0,0:0:0:0:
240,232,55807,2,0,L|236:128,1,80,8|0,0:0|0:0,0:0:0:0:
396,148,56067,2,0,L|400:44,1,80,0|0,1:0|0:0,0:0:0:0:
244,68,56326,1,8,0:0:0:0:
180,100,56456,1,0,0:0:0:0:
180,156,56586,5,0,1:0:0:0:
244,200,56716,1,0,0:0:0:0:
88,144,56846,2,0,L|76:232,1,80,8|0,0:0|0:0,0:0:0:0:
152,224,57106,2,0,L|68:252,1,80,0|0,1:0|0:0,0:0:0:0:
236,232,57365,2,0,L|320:260,1,80,8|0,0:0|0:0,0:0:0:0:
216,216,57625,6,0,L|212:120,1,80,0|0,1:0|0:0,0:0:0:0:
372,144,57885,1,8,0:0:0:0:
436,164,58015,1,0,0:0:0:0:
436,220,58144,1,0,1:0:0:0:
372,248,58274,1,0,0:0:0:0:
212,248,58404,1,8,0:0:0:0:
408,252,58534,6,0,P|460:224|480:112,1,160,4|0,0:0|1:0,0:0:0:0:
328,136,58924,2,0,L|236:128,1,80,8|0,0:0|0:0,0:0:0:0:
340,120,59183,2,0,L|348:28,1,80,0|0,1:0|0:0,0:0:0:0:
188,136,59443,1,8,0:0:0:0:
124,156,59573,1,0,0:0:0:0:
124,212,59702,5,0,1:0:0:0:
188,240,59832,1,0,0:0:0:0:
344,248,59963,2,0,L|332:136,1,80,8|0,0:0|0:0,0:0:0:0:
244,168,60222,2,0,L|256:56,1,80,0|0,1:0|0:0,0:0:0:0:
412,96,60482,1,8,0:0:0:0:
204,92,60612,6,0,L|68:188,1,160,4|0,0:0|1:0,0:0:0:0:
228,192,61002,2,0,L|236:288,1,80,8|0,0:0|0:0,0:0:0:0:
144,264,61261,2,0,L|136:360,1,80,0|0,1:0|0:0,0:0:0:0:
292,344,61521,2,0,L|392:336,1,80,8|0,0:0|0:0,0:0:0:0:
276,316,61781,6,0,L|268:224,1,80,0|0,1:0|0:0,0:0:0:0:
424,232,62041,2,0,L|428:132,1,80,8|0,0:0|0:0,0:0:0:0:
272,152,62300,2,0,L|188:124,1,80,0|0,1:0|0:0,0:0:0:0:
356,112,62560,2,0,L|440:84,1,80,8|0,0:0|0:0,0:0:0:0:
220,96,62820,6,0,L|136:96,1,80,0|0,1:0|0:0,0:0:0:0:
300,120,63080,2,0,L|308:204,1,80,8|0,0:0|0:0,0:0:0:0:
156,224,63339,2,0,L|248:172,1,80,0|0,1:0|0:0,0:0:0:0:
148,184,63599,2,0,L|244:132,1,80,8|0,0:0|0:0,0:0:0:0:
440,184,63859,6,0,L|452:104,1,80,0|0,1:0|0:0,0:0:0:0:
292,108,64119,2,0,L|196:108,1,80,8|0,0:0|0:0,0:0:0:0:
368,184,64378,2,0,L|460:132,1,80,0|0,1:0|0:0,0:0:0:0:
360,144,64638,2,0,L|456:92,1,80,8|0,0:0|0:0,0:0:0:0:
160,128,64898,6,0,L|8:256,1,160,0|8,1:0|0:0,0:0:0:0:
124,252,65287,1,0,0:0:0:0:
276,252,65417,2,0,L|280:140,1,80,0|0,1:0|0:0,0:0:0:0:
124,176,65677,2,0,L|120:64,1,80,8|0,0:0|0:0,0:0:0:0:
328,88,65937,6,0,L|472:176,1,160,0|8,1:0|0:0,0:0:0:0:
372,192,66326,1,0,0:0:0:0:
216,184,66456,2,0,L|228:76,1,80,0|0,1:0|0:0,0:0:0:0:
380,136,66716,2,0,L|368:28,1,80,8|0,0:0|0:0,0:0:0:0:
108,68,66976,6,0,L|240:68,2,120,0|0|0,1:0|1:0|1:0,0:0:0:0:
432,72,68014,1,8,0:0:0:0:
444,212,68534,1,0,0:0:0:0:
404,168,69053,6,0,L|272:168,2,120,0|0|0,1:0|1:0|1:0,0:0:0:0:
80,168,70092,1,8,0:0:0:0:
68,212,70612,1,0,0:0:0:0:
124,232,70872,2,0,L|176:232,1,40
364,160,71131,6,0,L|496:160,2,120,0|0|0,1:0|1:0|1:0,0:0:0:0:
40,164,72170,1,8,0:0:0:0:
44,220,72690,1,0,0:0:0:0:
84,176,73209,6,0,L|216:176,2,120,0|0|0,1:0|1:0|1:0,0:0:0:0:
432,176,74248,1,8,0:0:0:0:
352,240,74638,5,0,0:0:0:0:
284,208,74768,1,0,0:0:0:0:
284,140,74898,1,0,0:0:0:0:
352,96,75027,1,0,0:0:0:0:
124,100,75287,6,0,L|-8:100,2,120,0|0|0,1:0|1:0|1:0,0:0:0:0:
468,104,76326,5,8,0:0:0:0:
