osu file format v14

[General]
AudioFilename: RWBY Volume 3 - Opening.mp3
AudioLeadIn: 0
PreviewTime: 43210
Countdown: 0
SampleSet: Soft
StackLeniency: 0.7
Mode: 2
LetterboxInBreaks: 0
WidescreenStoryboard: 1

[Editor]
Bookmarks: 9835,27497,31653,35809
DistanceSpacing: 1.6
BeatDivisor: 4
GridSize: 4
TimelineZoom: 1.7

[Metadata]
Title:When It Falls (feat. Casey Lee Williams)
TitleUnicode:When It Falls (feat. Casey Lee Williams)
Artist:Jeff Williams
ArtistUnicode:Jeff Williams
Creator:Sorcerer
Version:Overdose
Source:RWBY
Tags:Withered Lotus JBHyperion - Magic Bomb - Volume Season 3 Opening cut ver
BeatmapID:1335698
BeatmapSetID:366298

[Difficulty]
HPDrainRate:7
CircleSize:4.2
OverallDifficulty:9.6
ApproachRate:9.6
SliderMultiplier:1.8
SliderTickRate:2

[Events]
//Background and Video events
0,0,"witbg.jpg",0,0
//Break Periods
//Storyboard Layer 0 (Background)
//Storyboard Layer 1 (Fail)
//Storyboard Layer 2 (Pass)
//Storyboard Layer 3 (Foreground)
//Storyboard Sound Samples

[TimingPoints]
129,569.80056980057,4,2,1,20,1,0
4687,560.747663551402,4,2,1,20,1,0
5852,545.454545454546,4,2,1,20,1,0
6977,600,4,2,1,20,1,0
7952,941.915227629513,4,2,1,20,1,0
9835,259.74025974026,4,2,1,65,1,0
39964,519.480519480519,4,2,1,65,1,0
43989,-50,4,2,1,65,0,1
44119,259.74025974026,4,2,1,65,1,1
56456,-100,4,2,1,65,0,0
66976,519.480519480519,4,2,1,65,1,0

[Colours]
Combo1 : 254,242,16
Combo2 : 157,0,4
Combo3 : 185,217,255
Combo4 : 108,21,100

[HitObjects]
280,256,129,5,2,0:0:0:0:
360,240,271,1,0,0:0:0:0:
368,152,413,1,0,0:0:0:0:
288,152,556,1,0,0:0:0:0:
136,152,698,1,0,0:0:0:0:
56,152,841,1,0,0:0:0:0:
136,88,983,1,0,0:0:0:0:
56,96,1126,1,0,0:0:0:0:
208,152,1268,5,0,0:0:0:0:
288,152,1411,1,0,0:0:0:0:
208,88,1553,1,0,0:0:0:0:
288,96,1695,1,0,0:0:0:0:
136,200,1838,1,0,0:0:0:0:
56,184,1980,1,0,0:0:0:0:
48,96,2122,1,0,0:0:0:0:
128,96,2265,1,0,0:0:0:0:
364,200,2408,5,2,0:0:0:0:
444,184,2550,1,0,0:0:0:0:
452,96,2692,1,0,0:0:0:0:
372,96,2835,1,0,0:0:0:0:
220,96,2978,1,0,0:0:0:0:
300,96,3120,1,0,0:0:0:0:
220,152,3262,1,0,0:0:0:0:
300,152,3405,1,0,0:0:0:0:
148,144,3547,5,0,0:0:0:0:
220,136,3689,1,0,0:0:0:0:
148,88,3831,1,0,0:0:0:0:
352,88,3974,1,2,0:0:0:0:
144,64,4687,6,0,P|112:112|152:176,1,135,2|0,0:0|0:0,0:0:0:0:
368,64,5852,6,0,P|400:104|352:184,1,135,2|0,0:0|0:0,0:0:0:0:
184,192,6977,6,0,L|352:192,1,135,2|0,0:0|0:0,0:0:0:0:
48,192,7952,1,2,0:0:0:0:
280,320,9835,6,0,L|304:216,1,90,8|0,0:0|0:0,0:0:0:0:
160,240,10094,2,0,L|136:136,1,90,8|0,0:0|0:0,0:0:0:0:
328,152,10354,2,0,L|440:152,1,90,8|0,0:0|0:0,0:0:0:0:
112,152,10614,1,8,0:0:0:0:
384,96,10744,6,0,L|200:96,1,180,4|0,0:1|1:0,0:0:0:0:
392,136,11133,2,0,L|496:136,1,90,8|0,0:0|0:0,0:0:0:0:
336,136,11393,2,0,L|216:136,1,90,0|0,1:0|0:0,0:0:0:0:
440,168,11653,2,0,L|456:272,1,90,8|0,0:0|0:0,0:0:0:0:
320,256,11912,6,0,L|416:256,1,90,0|0,1:0|0:0,0:0:0:0:
152,272,12172,2,0,L|136:144,1,90,8|0,0:0|0:0,0:0:0:0:
336,144,12432,2,0,L|440:144,1,90,0|0,1:0|0:0,0:0:0:0:
176,144,12692,1,8,0:0:0:0:
400,144,12822,6,0,P|440:184|384:288,1,180,4|0,0:0|1:0,0:0:0:0:
152,288,13211,2,0,L|128:160,1,90,8|0,0:0|0:0,0:0:0:0:
280,216,13471,2,0,L|304:88,1,90,0|0,1:0|0:0,0:0:0:0:
104,128,13731,2,0,L|0:128,1,90,8|0,0:0|0:0,0:0:0:0:
160,88,13990,6,0,L|64:88,1,90,0|0,1:0|0:0,0:0:0:0:
304,88,14250,2,0,L|328:192,1,90,8|0,0:0|0:0,0:0:0:0:
184,200,14510,2,0,L|160:304,1,90,0|0,1:0|0:0,0:0:0:0:
360,272,14770,1,8,0:0:0:0:
168,184,14899,6,0,L|376:184,1,180,4|0,0:0|1:0,0:0:0:0:
96,192,15289,2,0,L|72:96,1,90,8|0,0:0|0:0,0:0:0:0:
216,104,15549,2,0,L|112:104,1,90,0|0,1:0|0:0,0:0:0:0:
328,56,15809,2,0,L|424:56,1,90,8|0,0:0|0:0,0:0:0:0:
272,64,16068,6,0,L|248:184,1,90,0|0,1:0|0:0,0:0:0:0:
448,160,16328,2,0,L|464:272,1,90,8|0,0:0|0:0,0:0:0:0:
320,248,16588,2,0,L|208:248,1,90,0|0,1:0|0:0,0:0:0:0:
432,288,16847,1,8,0:0:0:0:
160,288,16977,6,0,P|120:248|200:144,1,180,4|0,0:0|1:0,0:0:0:0:
368,152,17367,2,0,L|472:152,1,90,8|0,0:0|0:0,0:0:0:0:
320,104,17627,2,0,L|208:104,1,90,0|0,1:0|0:0,0:0:0:0:
432,104,17886,2,0,L|448:208,1,90,8|0,0:0|0:0,0:0:0:0:
312,200,18146,6,0,L|408:200,1,90,0|0,1:0|0:0,0:0:0:0:
160,200,18406,2,0,L|136:88,1,90,8|0,0:0|0:0,0:0:0:0:
336,96,18666,1,8,0:0:0:0:
141,111,18796,1,8,0:0:0:0:
344,128,18925,1,8,0:0:0:0:
88,144,19055,6,0,P|48:176|120:280,1,180,4|0,0:1|1:0,0:0:0:0:
280,280,19445,2,0,L|384:280,1,90,8|0,0:0|0:0,0:0:0:0:
216,280,19705,2,0,L|200:176,1,90,0|0,1:0|0:0,0:0:0:0:
408,184,19964,2,0,L|424:88,1,90,8|0,0:0|0:0,0:0:0:0:
272,96,20224,6,0,L|362:96,1,90,0|0,1:0|0:0,0:0:0:0:
144,104,20484,2,0,L|128:200,1,90,8|0,0:0|0:0,0:0:0:0:
280,192,20744,2,0,L|184:192,1,90,0|0,1:0|0:0,0:0:0:0:
384,192,21003,1,8,0:0:0:0:
136,160,21133,6,0,P|88:208|144:296,1,180,4|0,0:0|1:0,0:0:0:0:
328,304,21523,2,0,L|456:304,1,90,8|0,0:0|0:0,0:0:0:0:
272,152,21783,2,0,L|176:152,1,90,0|0,1:0|0:0,0:0:0:0:
376,152,22042,2,0,L|392:272,1,90,8|0,0:0|0:0,0:0:0:0:
248,240,22302,6,0,L|368:240,1,90,0|0,1:0|0:0,0:0:0:0:
80,240,22562,2,0,L|64:136,1,90,8|0,0:0|0:0,0:0:0:0:
208,144,22822,2,0,L|304:144,1,90,0|0,1:0|0:0,0:0:0:0:
80,144,23081,1,8,0:0:0:0:
352,136,23211,6,0,P|400:208|344:280,1,180,4|0,0:0|1:0,0:0:0:0:
136,280,23601,2,0,L|120:168,1,90,8|0,0:0|0:0,0:0:0:0:
264,184,23860,2,0,L|360:184,1,90,0|0,1:0|0:0,0:0:0:0:
144,192,24120,2,0,L|32:192,1,90,8|0,0:0|0:0,0:0:0:0:
192,144,24380,6,0,L|88:144,1,90,0|0,1:0|0:0,0:0:0:0:
304,144,24640,2,0,L|408:144,1,90,8|0,0:0|0:0,0:0:0:0:
256,144,24899,2,0,L|240:264,1,90,0|0,1:0|0:0,0:0:0:0:
440,232,25159,1,8,0:0:0:0:
184,256,25289,6,0,P|136:208|216:128,1,180,4|0,0:0|1:0,0:0:0:0:
384,120,25679,2,0,L|496:120,1,90,8|0,0:0|0:0,0:0:0:0:
336,88,25938,2,0,L|426:88,1,90,0|0,1:0|0:0,0:0:0:0:
176,96,26198,2,0,L|160:184,1,90,8|0,0:0|0:0,0:0:0:0:
368,288,26458,5,0,1:0:0:0:
412,256,26523,1,0,1:0:0:0:
412,216,26588,1,0,1:0:0:0:
368,192,26653,1,0,1:0:0:0:
208,264,26718,2,0,L|160:240,1,45,8|0,0:0|1:0,0:0:0:0:
392,176,26847,2,0,L|448:176,1,45,0|0,1:0|1:0,0:0:0:0:
384,144,26977,6,0,L|336:144,1,45,0|0,1:0|1:0,0:0:0:0:
392,120,27107,2,0,L|448:120,1,45,0|0,1:0|1:0,0:0:0:0:
184,120,27237,2,0,L|128:88,1,45,8|0,0:0|1:0,0:0:0:0:
416,56,27367,2,0,L|480:24,1,45,8|0,0:0|1:0,0:0:0:0:
136,48,27497,6,0,P|84:96|160:176,1,180,4|0,0:1|1:0,0:0:0:0:
376,144,27886,2,0,L|272:144,2,90,8|0|0,0:0|0:0|1:0,0:0:0:0:
184,184,28276,2,0,L|72:184,1,90,8|0,0:0|0:0,0:0:0:0:
320,184,28536,6,0,L|440:184,2,90,8|0|0,0:0|0:0|1:0,0:0:0:0:
128,136,28925,2,0,L|32:136,2,90,8|0|0,0:0|0:0|1:0,0:0:0:0:
320,136,29315,2,0,L|416:136,1,90,8|0,0:0|0:0,0:0:0:0:
136,176,29575,6,0,L|240:176,2,90,8|0|0,0:0|0:0|1:0,0:0:0:0:
336,184,29964,2,0,L|440:184,2,90,8|0|0,0:0|0:0|1:0,0:0:0:0:
144,184,30354,2,0,L|40:184,1,90,8|0,0:0|0:0,0:0:0:0:
320,232,30614,6,0,L|224:232,2,90,8|0|0,0:0|0:0|1:0,0:0:0:0:
112,232,31003,2,0,L|16:232,1,90,8|0,0:0|0:0,0:0:0:0:
312,232,31263,1,8,0:0:0:0:
416,232,31393,2,0,P|442:183|408:112,1,135,0|0,1:0|0:0,0:0:0:0:
104,72,31653,6,0,P|45:129|96:193,1,180,4|8,0:1|0:0,0:0:0:0:
200,192,32042,1,0,0:0:0:0:
424,200,32172,2,0,L|448:96,1,90,0|0,1:0|0:0,0:0:0:0:
240,248,32432,2,0,L|360:248,1,90,8|0,0:0|0:0,0:0:0:0:
120,240,32692,6,0,P|88:200|136:80,1,180,0|8,1:0|0:0,0:0:0:0:
224,88,33081,1,0,0:0:0:0:
416,88,33211,2,0,L|312:88,1,90,0|0,1:0|0:0,0:0:0:0:
112,88,33471,2,0,L|96:184,1,90,8|0,0:0|0:0,0:0:0:0:
312,176,33731,6,0,L|496:176,1,180,0|8,1:0|0:0,0:0:0:0:
392,136,34120,1,0,0:0:0:0:
200,144,34250,2,0,L|104:112,1,90,0|0,1:0|0:0,0:0:0:0:
352,88,34510,2,0,L|448:56,1,90,8|0,0:0|0:0,0:0:0:0:
144,104,34770,6,0,L|268:104,1,90,0|0,1:0|0:0,0:0:0:0:
440,212,35029,1,8,0:0:0:0:
492,176,35116,1,0,1:0:0:0:
492,132,35202,1,0,1:0:0:0:
440,112,35289,1,0,1:0:0:0:
176,104,35419,2,0,L|266:104,2,90,0|8|0,0:0|0:0|0:0,0:0:0:0:
432,168,35809,6,0,P|416:120|272:56,1,180,8|0,0:0|1:0,0:0:0:0:
80,168,36198,2,0,P|96:120|240:56,1,180,8|0,0:0|1:0,0:0:0:0:
408,64,36588,2,0,L|432:168,1,90,8|0,0:0|0:0,0:0:0:0:
200,152,36847,6,0,L|96:152,2,90,8|0|0,0:0|0:0|1:0,0:0:0:0:
392,152,37237,2,0,L|520:152,2,90,8|0|0,0:0|0:0|1:0,0:0:0:0:
192,152,37627,2,0,L|80:152,1,90,8|0,0:0|0:0,0:0:0:0:
400,232,37886,6,0,P|440:200|376:96,1,180,8|0,0:0|1:0,0:0:0:0:
112,232,38276,2,0,P|72:200|136:96,1,180,8|0,0:0|1:0,0:0:0:0:
320,104,38666,2,0,L|432:104,1,90,8|0,0:0|0:0,0:0:0:0:
208,88,38925,6,0,L|16:88,1,180,8|0,0:0|1:0,0:0:0:0:
304,88,39315,2,0,L|496:88,1,180,8|0,0:0|1:0,0:0:0:0:
80,192,39899,1,0,0:0:0:0:
256,192,39964,12,8,43080,0:0:0:0:
160,192,43989,6,0,L|352:192,1,180,4|0,0:1|1:0,0:0:0:0:
112,192,44378,2,0,L|88:80,1,90,8|0,0:0|0:0,0:0:0:0:
304,168,44638,2,0,L|328:56,1,90,0|0,1:0|0:0,0:0:0:0:
128,128,44898,2,0,L|32:128,1,90,8|0,0:0|0:0,0:0:0:0:
288,128,45157,6,0,L|416:128,1,90,0|0,1:0|0:0,0:0:0:0:
176,128,45417,2,0,L|160:248,1,90,8|0,0:0|0:0,0:0:0:0:
360,200,45677,2,0,L|376:320,1,90,0|0,1:0|0:0,0:0:0:0:
136,288,45937,1,8,0:0:0:0:
352,192,46067,6,0,L|172:192,1,180,4|0,0:0|1:0,0:0:0:0:
368,128,46456,2,0,L|464:128,1,90,8|0,0:0|0:0,0:0:0:0:
256,128,46716,2,0,L|360:128,1,90,0|0,1:0|0:0,0:0:0:0:
136,136,46976,2,0,L|115:223,1,90,8|0,0:0|0:0,0:0:0:0:
352,216,47235,6,0,L|372:303,1,90,0|0,1:0|0:0,0:0:0:0:
184,304,47495,2,0,L|304:304,1,90,8|0,0:0|0:0,0:0:0:0:
72,304,47755,2,0,L|56:208,1,90,0|0,1:0|0:0,0:0:0:0:
288,200,48015,1,8,0:0:0:0:
96,152,48144,6,0,L|296:152,1,180,4|0,0:0|1:0,0:0:0:0:
64,152,48534,2,0,L|49:240,1,90,8|0,0:0|0:0,0:0:0:0:
376,304,48794,2,0,L|264:304,1,90,0|0,1:0|0:0,0:0:0:0:
96,304,49054,1,8,0:0:0:0:
392,240,49183,6,0,P|424:200|376:80,1,180,4|0,0:0|1:0,0:0:0:0:
192,88,49573,2,0,L|288:88,1,90,8|0,0:0|0:0,0:0:0:0:
88,96,49833,2,0,L|64:200,1,90,0|0,1:0|0:0,0:0:0:0:
320,192,50093,1,8,0:0:0:0:
112,208,50222,6,0,L|304:208,1,180,4|0,0:0|1:0,0:0:0:0:
96,160,50612,2,0,L|0:160,1,90,8|0,0:0|0:0,0:0:0:0:
240,160,50872,2,0,L|352:160,1,90,0|0,1:0|0:0,0:0:0:0:
136,152,51131,1,8,0:0:0:0:
336,160,51261,6,0,P|376:192|328:304,1,180,4|0,0:0|1:0,0:0:0:0:
152,304,51651,2,0,L|56:304,1,90,8|0,0:0|0:0,0:0:0:0:
272,304,51911,2,0,L|288:208,1,90,0|0,1:0|0:0,0:0:0:0:
80,216,52170,2,0,L|208:216,1,90,8|0,0:0|0:0,0:0:0:0:
360,192,52430,6,0,L|416:184,1,45,0|0,1:0|1:0,0:0:0:0:
216,192,52560,2,0,L|171:185,1,45,0|0,1:0|1:0,0:0:0:0:
400,136,52690,2,0,L|512:136,1,90,8|0,0:0|0:0,0:0:0:0:
288,144,52950,2,0,L|384:144,1,90,0|0,1:0|0:0,0:0:0:0:
168,144,53209,2,0,L|144:264,1,90,8|0,0:0|0:0,0:0:0:0:
344,240,53469,6,0,L|248:240,1,90,0|0,1:0|0:0,0:0:0:0:
448,152,53729,2,0,L|472:272,1,90,8|0,0:0|0:0,0:0:0:0:
272,240,53989,2,0,L|160:240,1,90,0|0,1:0|0:0,0:0:0:0:
432,240,54248,2,0,L|304:240,1,90,8|0,0:0|0:0,0:0:0:0:
152,192,54508,6,0,L|96:184,1,45,0|0,1:0|1:0,0:0:0:0:
296,192,54638,2,0,L|340:185,1,45,0|0,1:0|1:0,0:0:0:0:
112,136,54768,2,0,L|0:136,1,90,8|0,0:0|0:0,0:0:0:0:
224,136,55028,2,0,L|240:256,1,90,0|0,1:0|0:0,0:0:0:0:
48,232,55287,2,0,L|32:112,1,90,8|0,0:0|0:0,0:0:0:0:
232,168,55547,6,0,L|128:168,1,90,0|0,1:0|0:0,0:0:0:0:
336,168,55807,2,0,L|352:264,1,90,8|0,0:0|0:0,0:0:0:0:
160,168,56067,2,0,L|144:264,1,90,0|0,1:0|0:0,0:0:0:0:
336,256,56326,2,0,L|232:256,1,90,8|0,0:0|0:0,0:0:0:0:
384,256,56586,6,0,L|408:160,1,90,0|0,1:0|0:0,0:0:0:0:
216,168,56846,2,0,L|320:168,1,90,8|0,0:0|0:0,0:0:0:0:
168,168,57106,2,0,L|152:72,1,90,0|0,1:0|0:0,0:0:0:0:
344,72,57365,2,0,L|456:72,1,90,8|0,0:0|0:0,0:0:0:0:
288,40,57625,6,0,L|184:40,1,90,0|0,1:0|0:0,0:0:0:0:
416,192,57885,2,0,L|440:96,1,90,8|0,0:0|0:0,0:0:0:0:
288,160,58144,2,0,L|384:160,1,90,0|0,1:0|0:0,0:0:0:0:
184,104,58404,2,0,L|88:104,1,90,8|0,0:0|0:0,0:0:0:0:
248,64,58664,6,0,L|344:64,1,90,0|0,1:0|0:0,0:0:0:0:
144,112,58924,2,0,L|128:224,1,90,8|0,0:0|0:0,0:0:0:0:
272,200,59183,2,0,L|285:288,1,90,0|0,1:0|0:0,0:0:0:0:
96,280,59443,2,0,L|0:280,1,90,8|0,0:0|0:0,0:0:0:0:
144,216,59703,6,0,L|40:216,1,90,0|0,1:0|0:0,0:0:0:0:
320,224,59963,2,0,L|344:112,1,90,8|0,0:0|0:0,0:0:0:0:
192,112,60222,2,0,L|288:112,1,90,0|0,1:0|0:0,0:0:0:0:
88,296,60482,2,0,L|64:184,1,90,8|0,0:0|0:0,0:0:0:0:
216,208,60742,6,0,L|312:208,1,90,0|0,1:0|0:0,0:0:0:0:
104,208,61002,2,0,L|88:112,1,90,8|0,0:0|0:0,0:0:0:0:
240,112,61261,2,0,L|120:112,1,90,0|0,1:0|0:0,0:0:0:0:
352,112,61521,2,0,L|442:112,1,90,8|0,0:0|0:0,0:0:0:0:
296,112,61781,6,0,L|280:216,1,90,0|0,1:0|0:0,0:0:0:0:
472,208,62041,2,0,L|488:312,1,90,8|0,0:0|0:0,0:0:0:0:
336,272,62300,2,0,L|448:272,1,90,0|0,1:0|0:0,0:0:0:0:
168,280,62560,2,0,L|160:176,1,90,8|0,0:0|0:0,0:0:0:0:
360,200,62820,6,0,L|368:104,1,90,0|0,1:0|0:0,0:0:0:0:
120,136,63080,2,0,L|240:136,1,90,8|0,0:0|0:0,0:0:0:0:
96,80,63339,2,0,L|186:80,1,90,0|0,1:0|0:0,0:0:0:0:
392,144,63599,2,0,L|296:144,1,90,8|0,0:0|0:0,0:0:0:0:
416,96,63859,6,0,L|320:96,1,90,0|0,1:0|0:0,0:0:0:0:
128,184,64119,2,0,L|32:184,1,90,8|0,0:0|0:0,0:0:0:0:
152,128,64378,2,0,L|56:128,1,90,0|0,1:0|0:0,0:0:0:0:
408,200,64638,2,0,L|424:88,1,90,8|0,0:0|0:0,0:0:0:0:
160,96,64898,6,0,P|112:136|176:240,1,180,0|8,1:0|0:0,0:0:0:0:
248,240,65287,1,0,0:0:0:0:
440,240,65417,2,0,L|464:152,1,90,0|0,1:0|0:0,0:0:0:0:
272,152,65677,2,0,L|168:152,1,90,8|0,0:0|0:0,0:0:0:0:
416,152,65937,6,0,P|448:192|416:320,1,180,0|8,1:0|0:0,0:0:0:0:
328,312,66326,1,0,0:0:0:0:
128,312,66456,2,0,L|232:312,1,90,0|0,1:0|0:0,0:0:0:0:
416,280,66716,2,0,L|312:280,1,90,8|0,0:0|0:0,0:0:0:0:
104,256,66976,6,0,P|80:217|128:193,1,90,0|0,1:0|0:0,0:0:0:0:
296,160,67365,2,0,P|320:208|280:240,1,90,0|0,1:0|0:0,0:0:0:0:
104,216,67755,2,0,P|88:240|112:280,1,67.5,0|0,1:0|0:0,0:0:0:0:
264,272,68014,1,8,0:0:0:0:
336,272,68534,5,0,0:0:0:0:
352,224,69053,6,0,P|376:185|328:161,1,90,0|0,1:0|0:0,0:0:0:0:
160,128,69443,2,0,P|136:176|176:208,1,90,0|0,1:0|0:0,0:0:0:0:
352,184,69832,2,0,P|368:208|344:248,1,67.5,0|0,1:0|0:0,0:0:0:0:
192,240,70091,1,8,0:0:0:0:
136,240,70612,5,0,0:0:0:0:
216,184,70872,1,0,0:0:0:0:
136,184,71001,1,0,0:0:0:0:
424,192,71131,6,0,P|448:153|400:129,1,90,0|0,1:0|0:0,0:0:0:0:
232,96,71521,2,0,P|208:144|248:176,1,90,0|0,1:0|0:0,0:0:0:0:
424,152,71911,2,0,P|440:176|416:216,1,67.5,0|0,1:0|0:0,0:0:0:0:
264,208,72169,1,8,0:0:0:0:
216,208,72690,5,0,0:0:0:0:
208,176,73209,6,0,P|184:137|232:113,1,90,0|0,1:0|0:0,0:0:0:0:
400,80,73599,2,0,P|424:128|384:160,1,90,0|0,1:0|0:0,0:0:0:0:
208,136,73988,2,0,P|192:160|216:200,1,67.5,0|0,1:0|0:0,0:0:0:0:
368,192,74247,1,8,0:0:0:0:
392,208,74638,5,0,0:0:0:0:
80,192,74768,1,0,0:0:0:0:
8,152,74898,1,0,0:0:0:0:
80,112,75027,1,0,0:0:0:0:
432,192,75287,6,0,P|456:153|408:129,1,90,0|0,1:0|0:0,0:0:0:0:
240,96,75677,2,0,P|216:144|256:176,1,90,0|0,1:0|0:0,0:0:0:0:
432,192,76066,1,0,1:0:0:0:
456,152,76196,2,0,L|432:128,1,22.5
224,208,76326,1,8,0:0:0:0:
