osu file format v14

[General]
AudioFilename: RWBY Volume 3 - Opening.mp3
AudioLeadIn: 0
PreviewTime: 43210
Countdown: 0
SampleSet: Soft
StackLeniency: 0.7
Mode: 2
LetterboxInBreaks: 0
WidescreenStoryboard: 0

[Editor]
DistanceSpacing: 1
BeatDivisor: 4
GridSize: 8
TimelineZoom: 1.6

[Metadata]
Title:When It Falls (feat. Casey Lee Williams)
TitleUnicode:When It Falls (feat. Casey Lee Williams)
Artist:Jeff Williams
ArtistUnicode:Jeff Williams
Creator:Sorcerer
Version:MBomb's Cup
Source:RWBY
Tags:Withered Lotus JBHyperion - Magic Bomb - Volume Season 3 Opening cut ver
BeatmapID:1118158
BeatmapSetID:366298

[Difficulty]
HPDrainRate:3
CircleSize:2.5
OverallDifficulty:6
ApproachRate:6
SliderMultiplier:1
SliderTickRate:1

[Events]
//Background and Video events
0,0,"witbg.jpg",0,0
//Break Periods
//Storyboard Layer 0 (Background)
//Storyboard Layer 1 (Fail)
//Storyboard Layer 2 (Pass)
//Storyboard Layer 3 (Foreground)
//Storyboard Sound Samples

[TimingPoints]
129,569.80056980057,4,2,1,20,1,0
4687,560.747663551402,4,2,1,20,1,0
5852,545.454545454546,4,2,1,20,1,0
6977,600,4,2,1,20,1,0
7952,941.915227629513,4,2,1,20,1,0
9835,259.74025974026,4,2,1,60,1,0
39964,519.480519480519,4,2,1,60,1,0
43989,-100,4,2,1,60,0,1
44119,259.74025974026,4,2,1,60,1,1
56456,-100,4,2,1,60,0,0
66976,519.480519480519,4,2,1,60,1,0

[Colours]
Combo1 : 254,242,16
Combo2 : 157,0,4
Combo3 : 185,217,255
Combo4 : 108,21,100

[HitObjects]
104,192,129,5,2,0:0:0:0:
240,192,698,1,0,0:0:0:0:
104,192,1268,1,0,0:0:0:0:
240,192,1837,1,0,0:0:0:0:
448,192,2408,5,2,0:0:0:0:
312,192,2977,1,0,0:0:0:0:
448,192,3547,1,0,0:0:0:0:
344,192,3975,1,2,0:0:0:0:
64,192,4687,6,0,L|144:144,1,75,2|0,2:0|2:0,0:0:0:0:
360,192,5852,2,0,L|264:192,1,75,2|0,2:0|2:0,0:0:0:0:
472,192,6977,2,0,L|384:192,1,75,2|0,2:0|0:0,0:0:0:0:
240,192,7952,5,2,2:0:0:0:
224,192,9835,2,0,L|368:120,1,150,8|8,0:0|0:0,0:0:0:0:
264,192,10484,1,8,0:0:0:0:
152,192,10744,5,4,0:1:0:0:
296,192,11133,2,0,L|192:152,1,100,8|0,0:0|1:0,0:0:0:0:
304,192,11653,2,0,P|368:168|376:120,1,100,8|0,0:0|1:0,0:0:0:0:
288,192,12172,1,8,0:0:0:0:
192,192,12432,2,0,L|104:144,1,100,0|8,1:0|0:0,0:0:0:0:
176,192,12822,5,4,0:0:0:0:
320,192,13211,1,8,0:0:0:0:
464,192,13471,2,0,L|360:136,1,100,0|8,1:0|0:0,0:0:0:0:
272,192,13990,2,0,L|360:144,2,100,0|8|0,1:0|0:0|1:0,0:0:0:0:
192,192,14770,1,8,0:0:0:0:
256,192,14899,5,4,0:0:0:0:
128,192,15289,2,0,L|40:136,2,100,8|0|8,0:0|1:0|0:0,0:0:0:0:
224,192,16068,2,0,L|120:144,1,100,0|8,1:0|0:0,0:0:0:0:
224,192,16588,2,0,L|314:150,1,100,0|8,1:0|0:0,0:0:0:0:
256,192,16977,5,4,0:0:0:0:
400,192,17367,2,0,L|496:136,1,100,8|0,0:0|1:0,0:0:0:0:
384,192,17886,1,8,0:0:0:0:
288,192,18146,2,0,L|184:160,1,100,0|8,1:0|0:0,0:0:0:0:
312,192,18666,2,0,L|400:144,1,100,8|8,0:0|0:0,0:0:0:0:
328,192,19055,5,4,0:1:0:0:
200,192,19445,2,0,L|296:144,1,100,8|0,0:0|1:0,0:0:0:0:
384,192,19964,2,0,L|288:144,2,100,8|0|8,0:0|1:0|0:0,0:0:0:0:
248,128,20744,2,0,P|224:168|272:192,1,100,0|8,1:0|0:0,0:0:0:0:
336,192,21133,1,0,0:0:0:0:
400,192,21263,6,0,L|296:160,1,100,0|8,1:0|0:0,0:0:0:0:
216,192,21783,2,0,L|312:160,1,100,0|8,1:0|0:0,0:0:0:0:
216,192,22302,2,0,L|120:160,1,100,0|8,1:0|0:0,0:0:0:0:
216,192,22822,2,0,L|120:152,1,100,0|8,1:0|0:0,0:0:0:0:
192,192,23211,5,4,0:0:0:0:
328,192,23601,2,0,L|424:144,2,100,8|0|8,0:0|1:0|0:0,0:0:0:0:
224,192,24380,2,0,L|312:144,2,100,0|8|0,1:0|0:0|1:0,0:0:0:0:
128,192,25159,1,8,0:0:0:0:
192,192,25289,5,4,0:0:0:0:
328,192,25679,2,0,L|216:152,1,100,8|0,0:0|1:0,0:0:0:0:
144,192,26198,1,8,0:0:0:0:
256,192,26458,2,0,L|352:160,2,100,0|8|0,1:0|0:0|1:0,0:0:0:0:
344,192,27237,1,8,0:0:0:0:
224,192,27497,6,0,L|80:128,2,150,4|8|8,0:1|0:0|0:0,0:0:0:0:
328,192,28536,2,0,L|472:128,2,150,8|8|8,0:0|0:0|0:0,0:0:0:0:
432,192,29575,5,8,0:0:0:0:
296,192,29964,1,8,0:0:0:0:
160,192,30354,1,8,0:0:0:0:
272,192,30614,2,0,L|128:120,1,150,8|8,0:0|0:0,0:0:0:0:
216,192,31263,1,8,0:0:0:0:
352,192,31653,6,0,L|456:152,1,100,4|8,0:1|0:0,0:0:0:0:
344,192,32172,2,0,L|248:160,1,100,0|8,1:0|0:0,0:0:0:0:
360,192,32692,2,0,P|480:128|488:104,2,150,0|0|8,1:0|0:0|0:0,0:0:0:0:
248,192,33731,5,0,1:0:0:0:
104,192,34120,1,0,0:0:0:0:
232,192,34510,1,8,0:0:0:0:
104,192,34770,2,0,P|32:152|40:88,2,150,0|8|8,1:0|0:0|0:0,0:0:0:0:
248,192,35809,6,0,L|104:120,2,150,8|8|8,0:0|0:0|0:0,0:0:0:0:
376,192,36847,2,0,L|240:112,2,150,8|8|8,0:0|0:0|0:0,0:0:0:0:
256,192,37886,5,8,0:0:0:0:
400,192,38276,1,8,0:0:0:0:
496,192,38666,1,8,0:0:0:0:
376,192,38925,2,0,L|496:96,1,150,8|8,0:0|0:0,0:0:0:0:
256,192,39964,12,8,43080,0:0:0:0:
192,192,43989,5,4,0:1:0:0:
360,192,44378,2,0,L|248:144,2,100,8|0|8,0:0|1:0|0:0,0:0:0:0:
256,192,45157,1,0,1:0:0:0:
160,192,45417,2,0,L|64:152,2,100,8|0|8,0:0|1:0|0:0,0:0:0:0:
224,192,46067,5,4,0:0:0:0:
56,192,46456,2,0,L|168:144,1,100,8|0,0:0|1:0,0:0:0:0:
32,192,46976,1,8,0:0:0:0:
128,192,47235,1,0,1:0:0:0:
248,192,47495,2,0,L|152:136,2,100,8|0|8,0:0|1:0|0:0,0:0:0:0:
320,192,48144,6,0,L|416:152,1,100,4|0,0:0|1:0,0:0:0:0:
296,192,48664,2,0,L|192:160,1,100
320,192,49183,2,0,P|384:128|280:56,1,250,4|0,0:0|1:0,0:0:0:0:
376,192,50093,1,8,0:0:0:0:
440,192,50222,6,0,L|344:152,1,100,4|0,0:0|1:0,0:0:0:0:
248,192,50742,2,0,P|184:128|224:104,1,150,0|8,0:0|0:0,0:0:0:0:
312,192,51391,1,0,1:0:0:0:
200,192,51651,2,0,L|104:144,2,100,8|0|8,0:0|1:0|0:0,0:0:0:0:
264,192,52300,5,4,0:0:0:0:
112,192,52690,2,0,B|224:144|224:144,1,100,8|0,0:0|1:0,0:0:0:0:
312,192,53209,1,8,0:0:0:0:
400,192,53469,2,0,L|312:144,1,100,0|8,1:0|0:0,0:0:0:0:
424,192,53989,2,0,L|336:144,1,100,0|8,1:0|0:0,0:0:0:0:
264,192,54378,5,4,0:0:0:0:
112,192,54768,2,0,L|16:136,1,100,8|0,0:0|1:0,0:0:0:0:
136,192,55287,1,8,0:0:0:0:
232,192,55547,2,0,L|128:128,2,100,0|8|0,1:0|0:0|1:0,0:0:0:0:
96,192,56326,1,8,0:0:0:0:
160,192,56456,6,0,L|256:152,3,100,4|0|2|0,0:0|0:0|0:0|0:0,0:0:0:0:
376,192,57495,2,0,L|272:144,3,100,2|0|2|0,0:0|0:0|0:0|0:0,0:0:0:0:
400,192,58534,6,0,L|496:152,3,100,4|0|2|0,0:0|0:0|0:0|0:0,0:0:0:0:
376,192,59573,2,0,L|472:136,1,100,2|0,0:0|0:0,0:0:0:0:
336,192,60093,2,0,L|232:144,1,100,2|0,0:0|0:0,0:0:0:0:
368,192,60612,6,0,L|280:144,1,100,2|0,0:0|0:0,0:0:0:0:
168,192,61131,2,0,L|272:144,1,100,2|0,0:0|0:0,0:0:0:0:
144,192,61651,2,0,P|72:128|96:88,1,150,2|8,0:0|0:0,0:0:0:0:
200,192,62300,2,0,L|96:144,1,100,0|8,1:0|0:0,0:0:0:0:
232,192,62820,6,0,L|336:160,1,100,0|8,1:0|0:0,0:0:0:0:
224,192,63339,2,0,L|320:152,1,100,0|8,1:0|0:0,0:0:0:0:
208,192,63859,1,0,1:0:0:0:
104,192,64119,2,0,L|16:136,2,100,8|0|8,0:0|1:0|0:0,0:0:0:0:
224,192,64898,6,0,L|112:168,1,100,0|8,1:0|0:0,0:0:0:0:
240,192,65417,2,0,L|352:160,1,100,0|8,1:0|0:0,0:0:0:0:
208,192,65937,6,0,L|112:144,2,100,0|8|0,1:0|0:0|1:0,0:0:0:0:
328,192,66716,1,8,0:0:0:0:
208,192,66976,6,0,L|112:192,2,75,0|0|0,1:0|1:0|1:0,0:0:0:0:
312,192,68014,1,8,0:0:0:0:
488,192,69053,6,0,L|400:192,2,75,0|0|0,1:0|1:0|1:0,0:0:0:0:
384,192,70092,1,8,0:0:0:0:
152,192,71131,6,0,L|64:192,2,75,0|0|0,1:0|1:0|1:0,0:0:0:0:
256,192,72170,1,8,0:0:0:0:
24,192,73209,6,0,L|120:192,2,75,0|0|0,1:0|1:0|1:0,0:0:0:0:
128,192,74248,1,8,0:0:0:0:
280,192,74768,1,0,0:0:0:0:
424,192,75287,6,0,L|336:192,2,75,0|0|0,1:0|1:0|1:0,0:0:0:0:
320,192,76326,1,8,0:0:0:0:
