osu file format v14

[General]
AudioFilename: RWBY Volume 3 - Opening.mp3
AudioLeadIn: 0
PreviewTime: 43210
Countdown: 0
SampleSet: Soft
StackLeniency: 0.7
Mode: 2
LetterboxInBreaks: 0
WidescreenStoryboard: 0

[Editor]
Bookmarks: 9835,66716
DistanceSpacing: 0.8
BeatDivisor: 4
GridSize: 8
TimelineZoom: 2.3

[Metadata]
Title:When It Falls (feat. Casey Lee Williams)
TitleUnicode:When It Falls (feat. Casey Lee Williams)
Artist:Jeff Williams
ArtistUnicode:Jeff Williams
Creator:Sorcerer
Version:Platter
Source:RWBY
Tags:Withered Lotus JBHyperion - Magic Bomb - Volume Season 3 Opening cut ver
BeatmapID:938027
BeatmapSetID:366298

[Difficulty]
HPDrainRate:5
CircleSize:3.4
OverallDifficulty:8.2
ApproachRate:8.2
SliderMultiplier:1.4
SliderTickRate:2

[Events]
//Background and Video events
0,0,"witbg.jpg",0,0
//Break Periods
//Storyboard Layer 0 (Background)
//Storyboard Layer 1 (Fail)
//Storyboard Layer 2 (Pass)
//Storyboard Layer 3 (Foreground)
//Storyboard Sound Samples

[TimingPoints]
129,569.80056980057,4,2,1,20,1,0
4687,560.747663551402,4,2,1,20,1,0
5852,545.454545454546,4,2,1,20,1,0
6977,600,4,2,1,20,1,0
7952,941.915227629513,4,2,1,20,1,0
9835,259.74025974026,4,2,1,65,1,0
39964,519.480519480519,4,2,1,65,1,0
43989,-50,4,2,1,65,0,1
44119,259.74025974026,4,2,1,65,1,1
56456,-100,4,2,1,65,0,0
66976,519.480519480519,4,2,1,65,1,0
66976,-66.6666666666667,4,2,1,65,0,0
67755,-100,4,2,1,65,0,0

[Colours]
Combo1 : 254,242,16
Combo2 : 157,0,4
Combo3 : 185,217,255
Combo4 : 108,21,100

[HitObjects]
336,272,129,5,2,0:0:0:0:
400,232,271,1,0,0:0:0:0:
400,160,413,1,0,0:0:0:0:
336,112,556,1,0,0:0:0:0:
176,112,698,1,0,0:0:0:0:
224,128,841,1,0,0:0:0:0:
264,160,983,1,0,0:0:0:0:
288,208,1126,1,0,0:0:0:0:
128,240,1268,5,0,0:0:0:0:
80,208,1411,1,0,0:0:0:0:
80,144,1553,1,0,0:0:0:0:
128,96,1695,1,0,0:0:0:0:
288,96,1838,1,0,0:0:0:0:
240,112,1980,1,0,0:0:0:0:
208,160,2123,1,0,0:0:0:0:
184,216,2265,1,0,0:0:0:0:
392,216,2408,5,2,0:0:0:0:
456,200,2550,1,0,0:0:0:0:
456,144,2693,1,0,0:0:0:0:
392,120,2835,1,0,0:0:0:0:
232,120,2978,1,0,0:0:0:0:
168,136,3120,1,0,0:0:0:0:
168,168,3262,1,0,0:0:0:0:
232,184,3405,1,0,0:0:0:0:
392,184,3547,5,0,0:0:0:0:
456,152,3690,1,0,0:0:0:0:
392,136,3832,1,0,0:0:0:0:
232,136,3975,1,2,0:0:0:0:
408,208,4687,6,0,P|369:248|322:280,1,105,2|0,0:0|0:0,0:0:0:0:
136,176,5852,6,0,P|168:222|216:248,1,105,2|0,0:0|0:0,0:0:0:0:
376,192,6977,6,0,L|271:192,1,105,2|0,0:0|0:0,0:0:0:0:
424,192,7952,1,2,0:0:0:0:
352,240,9835,6,0,L|376:160,1,70,8|0,0:0|0:0,0:0:0:0:
288,160,10094,2,0,L|264:80,1,70,8|0,0:0|0:0,0:0:0:0:
416,88,10354,2,0,L|480:144,2,70,8|0|8,0:0|0:0|0:0,0:0:0:0:
216,88,10744,6,0,P|176:128|176:208,1,140,4|0,0:1|1:0,0:0:0:0:
328,208,11133,1,8,0:0:0:0:
376,248,11263,1,0,0:0:0:0:
376,304,11393,1,0,1:0:0:0:
328,336,11523,1,0,0:0:0:0:
177,338,11653,2,0,L|81:338,1,70,8|0,0:0|0:0,0:0:0:0:
201,298,11912,6,0,L|225:226,1,70,0|0,1:0|0:0,0:0:0:0:
129,226,12172,2,0,L|153:154,1,70,8|0,0:0|0:0,0:0:0:0:
304,160,12432,2,0,L|368:224,2,70,0|0|8,1:0|0:0|0:0,0:0:0:0:
144,160,12822,6,0,P|80:208|128:312,1,210,4|8,0:0|0:0,0:0:0:0:
208,320,13341,1,0,0:0:0:0:
368,240,13471,2,0,P|408:200|344:144,1,140,0|8,1:0|0:0,0:0:0:0:
288,144,13860,1,0,0:0:0:0:
128,152,13990,6,0,P|96:240|136:264,1,140,0|8,1:0|0:0,0:0:0:0:
208,256,14380,2,0,L|224:352,1,70,0|0,0:0|1:0,0:0:0:0:
128,272,14640,2,0,L|112:368,1,70,0|8,0:0|0:0,0:0:0:0:
312,288,14899,6,0,P|344:272|296:192,1,140,4|0,0:0|1:0,0:0:0:0:
168,192,15289,1,8,0:0:0:0:
104,176,15419,1,0,0:0:0:0:
192,144,15549,1,0,1:0:0:0:
248,104,15679,1,0,0:0:0:0:
192,72,15809,1,8,0:0:0:0:
48,72,15938,6,0,P|16:120|56:192,1,140,4|0,0:0|0:0,0:0:0:0:
200,200,16328,1,8,0:0:0:0:
264,184,16458,1,0,0:0:0:0:
176,152,16588,1,0,1:0:0:0:
120,112,16718,1,0,0:0:0:0:
176,80,16848,1,8,0:0:0:0:
328,80,16977,6,0,P|360:128|320:200,1,140,4|0,0:0|1:0,0:0:0:0:
176,200,17367,1,8,0:0:0:0:
112,176,17497,1,0,0:0:0:0:
112,120,17627,1,0,1:0:0:0:
176,104,17757,1,0,0:0:0:0:
320,208,17886,1,8,0:0:0:0:
384,184,18016,1,0,0:0:0:0:
384,128,18146,5,0,1:0:0:0:
320,112,18276,1,0,0:0:0:0:
168,136,18406,2,0,L|80:136,1,70,8|0,0:0|0:0,0:0:0:0:
192,96,18666,2,0,L|240:152,2,70,8|8|8,0:0|0:0|0:0,0:0:0:0:
400,96,19055,6,0,P|448:128|472:216,1,140,4|0,0:1|1:0,0:0:0:0:
320,208,19445,2,0,L|280:136,1,70,8|0,0:0|0:0,0:0:0:0:
208,144,19705,2,0,L|241:205,1,70,0|0,1:0|0:0,0:0:0:0:
392,192,19964,1,8,0:0:0:0:
456,224,20094,1,0,0:0:0:0:
456,288,20224,5,0,1:0:0:0:
392,312,20354,1,0,0:0:0:0:
240,312,20484,2,0,L|152:312,1,70,8|0,0:0|0:0,0:0:0:0:
256,264,20744,2,0,L|240:168,1,70,0|0,1:0|0:0,0:0:0:0:
152,200,21003,2,0,L|136:104,1,70,8|0,0:0|0:0,0:0:0:0:
296,128,21263,6,0,L|464:128,1,140,0|8,1:0|0:0,0:0:0:0:
488,96,21653,1,0,0:0:0:0:
488,56,21783,1,0,1:0:0:0:
440,40,21912,1,0,0:0:0:0:
376,72,22042,2,0,L|440:112,1,70,8|0,0:0|0:0,0:0:0:0:
280,168,22302,6,0,L|112:168,1,140,0|8,1:0|0:0,0:0:0:0:
88,152,22692,1,0,0:0:0:0:
56,112,22822,1,0,1:0:0:0:
80,80,22951,1,0,0:0:0:0:
120,80,23081,1,8,0:0:0:0:
344,96,23211,6,0,P|416:136|456:208,1,140,4|0,0:0|1:0,0:0:0:0:
296,200,23601,2,0,L|216:200,1,70,8|0,0:0|0:0,0:0:0:0:
312,160,23860,2,0,L|360:96,2,70,0|0|8,1:0|0:0|0:0,0:0:0:0:
160,160,24250,6,0,P|112:176|48:256,1,140,4|0,0:0|0:0,0:0:0:0:
208,264,24640,2,0,L|288:264,1,70,8|0,0:0|0:0,0:0:0:0:
192,224,24899,2,0,L|144:160,2,70,0|0|8,1:0|0:0|0:0,0:0:0:0:
344,160,25289,6,0,P|392:176|440:264,1,140,4|0,0:0|1:0,0:0:0:0:
288,256,25679,2,0,L|200:256,1,70,8|0,0:0|0:0,0:0:0:0:
304,200,25938,2,0,L|320:128,1,70,0|0,1:0|0:0,0:0:0:0:
232,136,26198,2,0,L|216:64,1,70,8|0,0:0|0:0,0:0:0:0:
368,328,26458,5,0,1:0:0:0:
400,304,26523,1,0,1:0:0:0:
408,264,26588,1,0,1:0:0:0:
400,232,26653,1,0,1:0:0:0:
368,208,26718,1,8,0:0:0:0:
240,216,26847,5,0,1:0:0:0:
208,192,26912,1,0,1:0:0:0:
200,152,26977,1,0,1:0:0:0:
208,120,27042,1,0,1:0:0:0:
240,96,27107,1,0,1:0:0:0:
400,96,27237,2,0,L|424:184,1,70,8|8,0:0|0:0,0:0:0:0:
168,152,27497,6,0,P|128:184|96:280,1,140,4|0,0:1|1:0,0:0:0:0:
248,264,27886,2,0,L|320:264,2,70,8|0|0,0:0|0:0|1:0,0:0:0:0:
96,272,28276,2,0,L|80:192,1,70,8|0,0:0|0:0,0:0:0:0:
240,192,28536,6,0,L|328:192,1,70,8|0,0:0|0:0,0:0:0:0:
380,192,28796,1,0,1:0:0:0:
232,144,28925,2,0,L|136:144,2,70,8|0|0,0:0|0:0|1:0,0:0:0:0:
368,144,29315,2,0,L|384:72,1,70,8|0,0:0|0:0,0:0:0:0:
176,64,29575,6,0,P|136:88|192:160,1,140,8|0,0:0|1:0,0:0:0:0:
280,176,29964,2,0,L|368:176,2,70,8|0|0,0:0|0:0|1:0,0:0:0:0:
128,176,30354,2,0,L|108:100,1,70,8|0,0:0|0:0,0:0:0:0:
264,128,30614,5,8,0:0:0:0:
328,128,30744,1,0,0:0:0:0:
392,128,30873,1,0,1:0:0:0:
232,64,31003,2,0,L|80:64,1,140,8|8,0:0|0:0,0:0:0:0:
432,88,31653,6,0,P|472:120|416:184,1,140,4|8,0:1|0:0,0:0:0:0:
352,184,32042,1,0,0:0:0:0:
200,176,32172,2,0,L|184:96,1,70,0|0,1:0|0:0,0:0:0:0:
336,80,32432,2,0,L|349:148,1,70,8|0,0:0|0:0,0:0:0:0:
200,224,32692,6,0,L|72:160,1,140,0|8,1:0|0:0,0:0:0:0:
152,128,33081,1,0,0:0:0:0:
304,120,33211,2,0,L|320:40,1,70,0|0,1:0|0:0,0:0:0:0:
168,24,33471,2,0,L|154:92,1,70,8|0,0:0|0:0,0:0:0:0:
304,168,33731,6,0,L|424:96,1,140,0|8,1:0|0:0,0:0:0:0:
344,136,34120,1,0,0:0:0:0:
192,80,34250,2,0,L|205:148,1,70,0|0,1:0|0:0,0:0:0:0:
352,96,34510,2,0,L|338:28,1,70,8|0,0:0|0:0,0:0:0:0:
184,208,34770,6,0,P|160:168|208:80,1,140,0|8,1:0|0:0,0:0:0:0:
240,80,35116,1,0,1:0:0:0:
296,80,35202,1,0,1:0:0:0:
352,80,35289,2,0,L|264:80,1,70,0|0,1:0|0:0,0:0:0:0:
200,80,35549,2,0,L|112:80,1,70,8|0,0:0|0:0,0:0:0:0:
360,160,35809,6,0,P|408:192|408:272,1,140,8|0,0:0|1:0,0:0:0:0:
256,272,36198,2,0,P|208:248|192:160,1,140,8|0,0:0|1:0,0:0:0:0:
344,104,36588,2,0,L|416:72,1,70,8|0,0:0|0:0,0:0:0:0:
216,104,36847,6,0,L|128:104,2,70,8|0|0,0:0|0:0|1:0,0:0:0:0:
376,104,37237,1,8,0:0:0:0:
431,145,37366,1,0,0:0:0:0:
451,210,37496,1,0,1:0:0:0:
429,276,37627,1,8,0:0:0:0:
373,316,37756,1,0,0:0:0:0:
152,208,37886,6,0,P|120:168|104:80,1,140,8|0,0:0|1:0,0:0:0:0:
264,200,38276,2,0,P|296:160|312:72,1,140,8|0,0:0|1:0,0:0:0:0:
152,72,38666,2,0,L|56:72,1,70,8|0,0:0|0:0,0:0:0:0:
240,72,38925,6,0,P|272:104|240:192,1,140,8|0,0:0|1:0,0:0:0:0:
88,184,39315,2,0,P|56:216|88:304,1,140,8|0,0:0|1:0,0:0:0:0:
256,192,39964,12,8,43080,0:0:0:0:
176,192,43989,6,0,L|344:192,1,140,4|0,0:1|1:0,0:0:0:0:
160,152,44378,2,0,L|128:64,1,70,8|0,0:0|0:0,0:0:0:0:
64,104,44638,2,0,L|80:16,1,70,0|0,1:0|0:0,0:0:0:0:
240,32,44898,1,8,0:0:0:0:
304,64,45028,1,0,0:0:0:0:
304,120,45157,5,0,1:0:0:0:
240,144,45287,1,0,0:0:0:0:
88,144,45417,1,8,0:0:0:0:
32,176,45547,1,0,0:0:0:0:
32,232,45676,1,0,1:0:0:0:
72,264,45806,1,0,0:0:0:0:
136,272,45937,1,8,0:0:0:0:
368,256,46067,6,0,P|432:216|424:128,1,140,4|0,0:0|1:0,0:0:0:0:
288,144,46456,2,0,L|208:144,1,70,8|0,0:0|0:0,0:0:0:0:
298,112,46716,2,0,L|322:32,1,70,0|0,1:0|0:0,0:0:0:0:
168,88,46976,1,8,0:0:0:0:
112,128,47106,1,0,0:0:0:0:
112,184,47235,5,0,1:0:0:0:
168,224,47365,1,0,0:0:0:0:
328,224,47495,2,0,L|352:312,1,70,8|0,0:0|0:0,0:0:0:0:
192,296,47755,2,0,L|144:240,2,70,0|0|8,1:0|0:0|0:0,0:0:0:0:
416,296,48144,6,0,P|456:272|480:168,1,140,4|0,0:0|1:0,0:0:0:0:
328,184,48534,2,0,L|256:152,1,70,8|0,0:0|0:0,0:0:0:0:
352,144,48794,2,0,L|368:56,1,70,0|0,1:0|0:0,0:0:0:0:
272,72,49054,1,8,0:0:0:0:
80,64,49183,6,0,P|48:96|24:192,1,140,4|0,0:0|1:0,0:0:0:0:
176,224,49573,2,0,L|248:192,1,70,8|0,0:0|0:0,0:0:0:0:
152,184,49833,2,0,L|136:96,1,70,0|0,1:0|0:0,0:0:0:0:
232,112,50093,1,8,0:0:0:0:
424,104,50222,6,0,P|464:136|480:236,1,140,4|0,0:0|1:0,0:0:0:0:
336,224,50612,1,8,0:0:0:0:
272,200,50742,1,0,0:0:0:0:
272,144,50872,1,0,1:0:0:0:
336,112,51002,1,0,0:0:0:0:
488,112,51131,1,8,0:0:0:0:
448,72,51261,1,0,0:0:0:0:
392,48,51391,5,0,0:0:0:0:
336,40,51521,1,0,1:0:0:0:
192,136,51651,1,8,0:0:0:0:
232,96,51781,1,0,0:0:0:0:
288,72,51911,1,0,1:0:0:0:
344,64,52041,1,0,0:0:0:0:
288,32,52170,1,8,0:0:0:0:
80,96,52300,6,0,P|32:160|40:240,1,140,4|0,0:0|1:0,0:0:0:0:
184,224,52690,1,8,0:0:0:0:
248,192,52820,1,0,0:0:0:0:
248,128,52950,1,0,1:0:0:0:
184,88,53080,1,0,0:0:0:0:
32,104,53209,1,8,0:0:0:0:
72,64,53339,1,0,0:0:0:0:
128,40,53469,5,0,1:0:0:0:
184,32,53599,1,0,0:0:0:0:
336,128,53729,1,8,0:0:0:0:
296,88,53859,1,0,0:0:0:0:
240,64,53989,1,0,1:0:0:0:
184,56,54119,1,0,0:0:0:0:
240,24,54248,1,8,0:0:0:0:
432,24,54378,6,0,P|472:64|496:144,1,140,4|0,0:0|1:0,0:0:0:0:
352,152,54768,2,0,L|280:152,1,70,8|0,0:0|0:0,0:0:0:0:
360,184,55028,2,0,L|368:256,1,70,0|0,1:0|0:0,0:0:0:0:
224,248,55287,2,0,L|216:317,1,70,8|0,0:0|0:0,0:0:0:0:
296,320,55547,6,0,L|226:320,1,70,0|0,1:0|0:0,0:0:0:0:
80,328,55807,1,8,0:0:0:0:
24,296,55937,1,0,0:0:0:0:
24,248,56067,1,0,1:0:0:0:
80,208,56196,1,0,0:0:0:0:
24,176,56326,1,8,0:0:0:0:
232,176,56456,6,0,P|288:160|368:120,1,140,4|0,0:0|1:0,0:0:0:0:
216,72,56846,1,8,0:0:0:0:
160,72,56976,1,0,0:0:0:0:
160,120,57106,1,0,1:0:0:0:
216,120,57235,1,0,0:0:0:0:
360,120,57365,1,8,0:0:0:0:
416,136,57495,1,0,0:0:0:0:
416,200,57625,5,0,1:0:0:0:
360,232,57755,1,0,0:0:0:0:
208,240,57885,2,0,L|192:144,1,70,8|0,0:0|0:0,0:0:0:0:
112,160,58144,2,0,L|128:64,1,70,0|0,1:0|0:0,0:0:0:0:
208,64,58404,1,8,0:0:0:0:
416,88,58534,6,0,P|472:112|496:200,1,140,4|0,0:0|1:0,0:0:0:0:
344,208,58924,1,8,0:0:0:0:
288,176,59054,1,0,0:0:0:0:
232,144,59183,1,0,1:0:0:0:
176,120,59313,1,0,0:0:0:0:
336,112,59443,1,8,0:0:0:0:
392,136,59573,1,0,0:0:0:0:
392,184,59703,5,0,1:0:0:0:
336,208,59833,1,0,0:0:0:0:
184,112,59963,1,8,0:0:0:0:
128,136,60093,1,0,0:0:0:0:
128,176,60223,1,0,1:0:0:0:
184,192,60353,1,0,0:0:0:0:
128,216,60482,1,8,0:0:0:0:
352,224,60612,6,0,P|400:168|400:96,1,140,4|0,0:0|1:0,0:0:0:0:
248,96,61002,1,8,0:0:0:0:
192,112,61131,1,0,0:0:0:0:
192,168,61261,1,0,1:0:0:0:
248,200,61391,1,0,0:0:0:0:
392,200,61521,1,8,0:0:0:0:
336,224,61651,1,0,0:0:0:0:
280,256,61781,5,0,1:0:0:0:
224,272,61911,1,0,0:0:0:0:
376,272,62041,1,8,0:0:0:0:
432,240,62170,1,0,0:0:0:0:
432,200,62300,1,0,1:0:0:0:
376,144,62430,1,0,0:0:0:0:
216,144,62560,2,0,L|128:144,1,70,8|0,0:0|0:0,0:0:0:0:
346,200,62820,6,0,L|426:200,1,70,0|0,1:0|0:0,0:0:0:0:
346,192,63080,2,0,L|322:120,1,70,8|0,0:0|0:0,0:0:0:0:
393,125,63339,2,0,L|313:125,1,70,0|0,1:0|0:0,0:0:0:0:
393,125,63599,2,0,L|409:53,1,70,8|0,0:0|0:0,0:0:0:0:
192,200,63859,6,0,L|112:200,1,70,0|0,1:0|0:0,0:0:0:0:
192,192,64119,2,0,L|216:120,1,70,8|0,0:0|0:0,0:0:0:0:
145,125,64378,2,0,L|225:125,1,70,0|0,1:0|0:0,0:0:0:0:
145,125,64638,2,0,L|129:53,1,70,8|0,0:0|0:0,0:0:0:0:
376,128,64898,6,0,P|448:176|472:256,1,140,0|8,1:0|0:0,0:0:0:0:
320,264,65287,2,0,L|240:264,1,70,0|0,0:0|1:0,0:0:0:0:
336,216,65547,2,0,L|392:168,2,70,0|8|0,0:0|0:0|0:0,0:0:0:0:
128,216,65937,6,0,P|64:176|48:104,1,140,0|8,1:0|0:0,0:0:0:0:
128,96,66326,1,0,0:0:0:0:
276,96,66456,2,0,L|292:184,1,70,0|0,1:0|0:0,0:0:0:0:
196,176,66716,2,0,L|180:264,1,70,8|0,0:0|0:0,0:0:0:0:
392,176,66976,6,0,P|464:152|488:72,2,157.500006008148,0|0|0,1:0|1:0|1:0,0:0:0:0:
64,88,68014,1,8,0:0:0:0:
48,176,68534,1,0,0:0:0:0:
144,112,69053,6,8,L|24:112,2,105,0|0|0,1:0|1:0|1:0,0:0:0:0:
480,112,70092,1,8,0:0:0:0:
504,192,70612,1,0,0:0:0:0:
376,192,70872,1,0,0:0:0:0:
336,168,71001,1,0,0:0:0:0:
376,144,71131,6,8,L|480:144,2,105,0|0|0,1:0|1:0|1:0,0:0:0:0:
48,144,72170,1,8,0:0:0:0:
16,208,72690,1,0,0:0:0:0:
136,208,73209,6,8,L|240:208,2,105,0|0|0,1:0|1:0|1:0,0:0:0:0:
464,208,74248,1,8,0:0:0:0:
328,208,74638,5,0,0:0:0:0:
288,176,74768,1,0,0:0:0:0:
288,120,74898,1,0,0:0:0:0:
328,80,75027,1,0,0:0:0:0:
456,128,75287,6,8,L|344:128,2,105,0|0|0,1:0|1:0|1:0,0:0:0:0:
104,144,76326,1,8,0:0:0:0:
