osu file format v14

[General]
AudioFilename: audio.mp3
AudioLeadIn: 0
PreviewTime: 103045
Countdown: 0
SampleSet: Normal
StackLeniency: 0.8
Mode: 3
LetterboxInBreaks: 0
SpecialStyle: 0
WidescreenStoryboard: 0

[Editor]
DistanceSpacing: 0.5
BeatDivisor: 4
GridSize: 4
TimelineZoom: 2.399999

[Metadata]
Title:Time to say Goodbye (feat. Casey Lee Williams)
TitleUnicode:Time to say Goodbye (feat. Casey Lee Williams)
Artist:Jeff Williams
ArtistUnicode:Jeff Williams
Creator:juankristal
Version:Team LNBY
Source:RWBY
Tags:rwby volume 2 opening full ver
BeatmapID:1112725
BeatmapSetID:524244

[Difficulty]
HPDrainRate:7
CircleSize:4
OverallDifficulty:6
ApproachRate:9.5
SliderMultiplier:1.7
SliderTickRate:1

[Events]
//Background and Video events
0,0,"rwby_pyrrha_nikos__minimalist_wallpaper__by_archeoalex-d9u4jeu.jpg",0,0
//Break Periods
//Storyboard Layer 0 (Background)
//Storyboard Layer 1 (Fail)
//Storyboard Layer 2 (Pass)
//Storyboard Layer 3 (Foreground)
Sprite,Foreground,Centre,"SB\ring.png",320,240 S,0,18865,18985,0,0.6 M,0,18925,,357,80 P,0,18925,19705,A S,0,18985,19705,0.6,0.8 F,0,19225,19705,0.5,0
Sprite,Foreground,Centre,"SB\ring.png",320,240 S,0,22705,22825,0,0.6 M,0,22765,,358,222 P,0,22765,23545,A S,0,22825,23545,0.6,0.8 F,0,23065,23545,0.5,0
Sprite,Foreground,Centre,"SB\ring.png",320,240 S,0,24625,24745,0,0.6 M,0,24685,,359,247 P,0,24685,25465,A S,0,24745,25465,0.6,0.8 F,0,24985,25465,0.5,0
Sprite,Foreground,Centre,"SB\ring.png",320,240 S,0,26545,26665,0,0.6 M,0,26605,,286,103 P,0,26605,27385,A S,0,26665,27385,0.6,0.8 F,0,26905,27385,0.5,0
Sprite,Foreground,Centre,"SB\ring.png",320,240 S,0,30385,30505,0,0.6 M,0,30445,,486,369 P,0,30445,31225,A S,0,30505,31225,0.6,0.8 F,0,30745,31225,0.5,0
Sprite,Foreground,Centre,"SB\ring.png",320,240 S,0,32305,32425,0,0.6 M,0,32365,,261,89 P,0,32365,33145,A S,0,32425,33145,0.6,0.8 F,0,32665,33145,0.5,0
Sprite,Foreground,Centre,"SB\ring.png",320,240 S,0,34345,34465,0,0.6 M,0,34405,,409,92 P,0,34405,35185,A S,0,34465,35185,0.6,0.8 F,0,34705,35185,0.5,0
Sprite,Foreground,Centre,"SB\ring.png",320,240 S,0,34705,34825,0,0.6 M,0,34765,,204,249 P,0,34765,35545,A S,0,34825,35545,0.6,0.8 F,0,35065,35545,0.5,0
Sprite,Foreground,Centre,"SB\ring.png",320,240 S,0,35065,35185,0,0.6 M,0,35125,,439,405 P,0,35125,35905,A S,0,35185,35905,0.6,0.8 F,0,35425,35905,0.5,0
Sprite,Foreground,Centre,"SB\ring.png",320,240 S,0,35305,35425,0,0.6 M,0,35365,,204,249 P,0,35365,36145,A S,0,35425,36145,0.6,0.8 F,0,35665,36145,0.5,0
Sprite,Foreground,Centre,"SB\ring.png",320,240 S,0,35425,35545,0,0.6 M,0,35485,,368,156 P,0,35485,36265,A S,0,35545,36265,0.6,0.8 F,0,35785,36265,0.5,0
Sprite,Foreground,Centre,"SB\ring.png",320,240 S,0,35545,35665,0,0.6 M,0,35605,,299,328 P,0,35605,36385,A S,0,35665,36385,0.6,0.8 F,0,35905,36385,0.5,0
Sprite,Foreground,Centre,"SB\ring.png",320,240 S,0,35665,35785,0,0.6 M,0,35725,,243,149 P,0,35725,36505,A S,0,35785,36505,0.6,0.8 F,0,36025,36505,0.5,0
Sprite,Foreground,Centre,"SB\ring.png",320,240 S,0,35785,35905,0,0.6 M,0,35845,,396,262 P,0,35845,36625,A S,0,35905,36625,0.6,0.8 F,0,36145,36625,0.5,0
Sprite,Foreground,Centre,"SB\ring.png",320,240 S,0,36145,36265,0,0.6 M,0,36205,,204,249 P,0,36205,36985,A S,0,36265,36985,0.6,0.8 F,0,36505,36985,0.5,0
Sprite,Foreground,Centre,"SB\ring.png",320,240 S,0,38065,38185,0,0.6 M,0,38125,,358,273 P,0,38125,38905,A S,0,38185,38905,0.6,0.8 F,0,38425,38905,0.5,0
Sprite,Foreground,Centre,"SB\ring.png",320,240 S,0,39985,40105,0,0.6 M,0,40045,,199,98 P,0,40045,40825,A S,0,40105,40825,0.6,0.8 F,0,40345,40825,0.5,0
Sprite,Foreground,Centre,"SB\ring.png",320,240 S,0,41905,42025,0,0.6 M,0,41965,,309,66 P,0,41965,42745,A S,0,42025,42745,0.6,0.8 F,0,42265,42745,0.5,0
Sprite,Foreground,Centre,"SB\ring.png",320,240 S,0,42865,42985,0,0.6 M,0,42925,,461,221 P,0,42925,43705,A S,0,42985,43705,0.6,0.8 F,0,43225,43705,0.5,0
Sprite,Foreground,Centre,"SB\ring.png",320,240 S,0,43225,43345,0,0.6 M,0,43285,,343,340 P,0,43285,44065,A S,0,43345,44065,0.6,0.8 F,0,43585,44065,0.5,0
Sprite,Foreground,Centre,"SB\ring.png",320,240 S,0,43465,43585,0,0.6 M,0,43525,,202,378 P,0,43525,44305,A S,0,43585,44305,0.6,0.8 F,0,43825,44305,0.5,0
Sprite,Foreground,Centre,"SB\ring.png",320,240 S,0,43585,43705,0,0.6 M,0,43645,,102,306 P,0,43645,44425,A S,0,43705,44425,0.6,0.8 F,0,43945,44425,0.5,0
Sprite,Foreground,Centre,"SB\ring.png",320,240 S,0,43705,43825,0,0.6 M,0,43765,,213,257 P,0,43765,44545,A S,0,43825,44545,0.6,0.8 F,0,44065,44545,0.5,0
Sprite,Foreground,Centre,"SB\ring.png",320,240 S,0,43825,43945,0,0.6 M,0,43885,,312,408 P,0,43885,44665,A S,0,43945,44665,0.6,0.8 F,0,44185,44665,0.5,0
Sprite,Foreground,Centre,"SB\ring.png",320,240 S,0,47665,47785,0,0.6 M,0,47725,,219,244 P,0,47725,48505,A S,0,47785,48505,0.6,0.8 F,0,48025,48505,0.5,0
Sprite,Foreground,Centre,"SB\ring.png",320,240 S,0,49585,49705,0,0.6 M,0,49645,,319,107 P,0,49645,50425,A S,0,49705,50425,0.6,0.8 F,0,49945,50425,0.5,0
Sprite,Foreground,Centre,"SB\ring.png",320,240 S,0,55345,55465,0,0.6 M,0,55405,,530,260 P,0,55405,56185,A S,0,55465,56185,0.6,0.8 F,0,55705,56185,0.5,0
Sprite,Foreground,Centre,"SB\ring.png",320,240 S,0,57265,57385,0,0.6 M,0,57325,,318,341 P,0,57325,58105,A S,0,57385,58105,0.6,0.8 F,0,57625,58105,0.5,0
Sprite,Foreground,Centre,"SB\ring.png",320,240 S,0,59185,59305,0,0.6 M,0,59245,,487,363 P,0,59245,60025,A S,0,59305,60025,0.6,0.8 F,0,59545,60025,0.5,0
Sprite,Foreground,Centre,"SB\ring.png",320,240 S,0,63025,63145,0,0.6 M,0,63085,,287,92 P,0,63085,63865,A S,0,63145,63865,0.6,0.8 F,0,63385,63865,0.5,0
Sprite,Foreground,Centre,"SB\ring.png",320,240 S,0,65065,65185,0,0.6 M,0,65125,,80,118 P,0,65125,65905,A S,0,65185,65905,0.6,0.8 F,0,65425,65905,0.5,0
Sprite,Foreground,Centre,"SB\ring.png",320,240 S,0,66865,66985,0,0.6 M,0,66925,,257,335 P,0,66925,67705,A S,0,66985,67705,0.6,0.8 F,0,67225,67705,0.5,0
Sprite,Foreground,Centre,"SB\ring.png",320,240 S,0,86065,86185,0,0.6 M,0,86125,,475,307 P,0,86125,86905,A S,0,86185,86905,0.6,0.8 F,0,86425,86905,0.5,0
Sprite,Foreground,Centre,"SB\ring.png",320,240 S,0,89905,90025,0,0.6 M,0,89965,,190,378 P,0,89965,90745,A S,0,90025,90745,0.6,0.8 F,0,90265,90745,0.5,0
Sprite,Foreground,Centre,"SB\ring.png",320,240 S,0,93745,93865,0,0.6 M,0,93805,,434,307 P,0,93805,94585,A S,0,93865,94585,0.6,0.8 F,0,94105,94585,0.5,0
Sprite,Foreground,Centre,"SB\ring.png",320,240 S,0,97585,97705,0,0.6 M,0,97645,,283,317 P,0,97645,98425,A S,0,97705,98425,0.6,0.8 F,0,97945,98425,0.5,0
Sprite,Foreground,Centre,"SB\ring.png",320,240 S,0,103345,103465,0,0.6 M,0,103405,,187,347 P,0,103405,104185,A S,0,103465,104185,0.6,0.8 F,0,103705,104185,0.5,0
Sprite,Foreground,Centre,"SB\ring.png",320,240 S,0,107185,107305,0,0.6 M,0,107245,,332,122 P,0,107245,108025,A S,0,107305,108025,0.6,0.8 F,0,107545,108025,0.5,0
Sprite,Foreground,Centre,"SB\ring.png",320,240 S,0,109105,109225,0,0.6 M,0,109165,,263,165 P,0,109165,109945,A S,0,109225,109945,0.6,0.8 F,0,109465,109945,0.5,0
Sprite,Foreground,Centre,"SB\ring.png",320,240 S,0,110185,110305,0,0.6 M,0,110245,,73,315 P,0,110245,111025,A S,0,110305,111025,0.6,0.8 F,0,110545,111025,0.5,0
Sprite,Foreground,Centre,"SB\ring.png",320,240 S,0,110425,110545,0,0.6 M,0,110485,,236,363 P,0,110485,111265,A S,0,110545,111265,0.6,0.8 F,0,110785,111265,0.5,0
Sprite,Foreground,Centre,"SB\ring.png",320,240 S,0,110665,110785,0,0.6 M,0,110725,,408,180 P,0,110725,111505,A S,0,110785,111505,0.6,0.8 F,0,111025,111505,0.5,0
Sprite,Foreground,Centre,"SB\ring.png",320,240 S,0,110785,110905,0,0.6 M,0,110845,,162,224 P,0,110845,111625,A S,0,110905,111625,0.6,0.8 F,0,111145,111625,0.5,0
Sprite,Foreground,Centre,"SB\ring.png",320,240 S,0,110905,111025,0,0.6 M,0,110965,,403,353 P,0,110965,111745,A S,0,111025,111745,0.6,0.8 F,0,111265,111745,0.5,0
Sprite,Foreground,Centre,"SB\ring.png",320,240 S,0,111025,111145,0,0.6 M,0,111085,,164,408 P,0,111085,111865,A S,0,111145,111865,0.6,0.8 F,0,111385,111865,0.5,0
Sprite,Foreground,Centre,"SB\ring.png",320,240 S,0,114865,114985,0,0.6 M,0,114925,,213,90 P,0,114925,115705,A S,0,114985,115705,0.6,0.8 F,0,115225,115705,0.5,0
Sprite,Foreground,Centre,"SB\ring.png",320,240 S,0,116785,116905,0,0.6 M,0,116845,,125,92 P,0,116845,117625,A S,0,116905,117625,0.6,0.8 F,0,117145,117625,0.5,0
Sprite,Foreground,Centre,"SB\ring.png",320,240 S,0,163831,163951,0,0.6 M,0,163891,,216,301 P,0,163891,164671,A S,0,163951,164671,0.6,0.8 F,0,164191,164671,0.5,0
Sprite,Foreground,Centre,"SB\ring.png",320,240 S,0,171151,171271,0,0.6 M,0,171211,,554,91 P,0,171211,171991,A S,0,171271,171991,0.6,0.8 F,0,171511,171991,0.5,0
Sprite,Foreground,Centre,"SB\ring.png",320,240 S,0,171271,171391,0,0.6 M,0,171331,,401,87 P,0,171331,172111,A S,0,171391,172111,0.6,0.8 F,0,171631,172111,0.5,0
Sprite,Foreground,Centre,"SB\ring.png",320,240 S,0,171391,171511,0,0.6 M,0,171451,,248,81 P,0,171451,172231,A S,0,171511,172231,0.6,0.8 F,0,171751,172231,0.5,0
Sprite,Foreground,Centre,"SB\ring.png",320,240 S,0,171511,171631,0,0.6 M,0,171571,,95,76 P,0,171571,172351,A S,0,171631,172351,0.6,0.8 F,0,171871,172351,0.5,0
Sprite,Foreground,Centre,"SB\ring.png",320,240 S,0,175351,175471,0,0.6 M,0,175411,,269,406 P,0,175411,176191,A S,0,175471,176191,0.6,0.8 F,0,175711,176191,0.5,0
Sprite,Foreground,Centre,"SB\ring.png",320,240 S,0,181111,181231,0,0.6 M,0,181171,,314,410 P,0,181171,181951,A S,0,181231,181951,0.6,0.8 F,0,181471,181951,0.5,0
Sprite,Foreground,Centre,"SB\ring.png",320,240 S,0,184951,185071,0,0.6 M,0,185011,,370,420 P,0,185011,185791,A S,0,185071,185791,0.6,0.8 F,0,185311,185791,0.5,0
Sprite,Foreground,Centre,"SB\ring.png",320,240 S,0,186871,186991,0,0.6 M,0,186931,,346,290 P,0,186931,187711,A S,0,186991,187711,0.6,0.8 F,0,187231,187711,0.5,0
Sprite,Foreground,Centre,"SB\ring.png",320,240 S,0,187951,188071,0,0.6 M,0,188011,,428,334 P,0,188011,188791,A S,0,188071,188791,0.6,0.8 F,0,188311,188791,0.5,0
Sprite,Foreground,Centre,"SB\ring.png",320,240 S,0,188191,188311,0,0.6 M,0,188251,,311,267 P,0,188251,189031,A S,0,188311,189031,0.6,0.8 F,0,188551,189031,0.5,0
Sprite,Foreground,Centre,"SB\ring.png",320,240 S,0,188431,188551,0,0.6 M,0,188491,,375,111 P,0,188491,189271,A S,0,188551,189271,0.6,0.8 F,0,188791,189271,0.5,0
Sprite,Foreground,Centre,"SB\ring.png",320,240 S,0,188551,188671,0,0.6 M,0,188611,,376,331 P,0,188611,189391,A S,0,188671,189391,0.6,0.8 F,0,188911,189391,0.5,0
Sprite,Foreground,Centre,"SB\ring.png",320,240 S,0,188671,188791,0,0.6 M,0,188731,,188,225 P,0,188731,189511,A S,0,188791,189511,0.6,0.8 F,0,189031,189511,0.5,0
Sprite,Foreground,Centre,"SB\ring.png",320,240 S,0,188791,188911,0,0.6 M,0,188851,,379,115 P,0,188851,189631,A S,0,188911,189631,0.6,0.8 F,0,189151,189631,0.5,0
Sprite,Foreground,Centre,"SB\ring.png",320,240 S,0,192631,192751,0,0.6 M,0,192691,,242,93 P,0,192691,193471,A S,0,192751,193471,0.6,0.8 F,0,192991,193471,0.5,0
Sprite,Foreground,Centre,"SB\highlight.png",320,240 M,0,101575,,248,418 C,0,101575,,105,105,105 F,0,101575,101605,0,1 F,0,101605,102085,1,0 P,0,101605,102085,A
Sprite,Foreground,Centre,"SB\highlight.png",320,240 M,0,101655,,296,403 C,0,101655,,105,105,105 F,0,101655,101685,0,1 F,0,101685,102165,1,0 P,0,101685,102165,A
Sprite,Foreground,Centre,"SB\highlight.png",320,240 M,0,101735,,326,362 C,0,101735,,105,105,105 F,0,101735,101765,0,1 F,0,101765,102245,1,0 P,0,101765,102245,A
Sprite,Foreground,Centre,"SB\highlight.png",320,240 M,0,101815,,327,311 C,0,101815,,105,105,105 F,0,101815,101845,0,1 F,0,101845,102325,1,0 P,0,101845,102325,A
Sprite,Foreground,Centre,"SB\highlight.png",320,240 M,0,101895,,302,266 C,0,101895,,105,105,105 F,0,101895,101925,0,1 F,0,101925,102405,1,0 P,0,101925,102405,A
Sprite,Foreground,Centre,"SB\highlight.png",320,240 M,0,101975,,261,235 C,0,101975,,105,105,105 F,0,101975,102005,0,1 F,0,102005,102485,1,0 P,0,102005,102485,A
Sprite,Foreground,Centre,"SB\highlight.png",320,240 M,0,102055,,242,187 C,0,102055,,105,105,105 F,0,102055,102085,0,1 F,0,102085,102565,1,0 P,0,102085,102565,A
Sprite,Foreground,Centre,"SB\highlight.png",320,240 M,0,102135,,256,136 C,0,102135,,105,105,105 F,0,102135,102165,0,1 F,0,102165,102645,1,0 P,0,102165,102645,A
Sprite,Foreground,Centre,"SB\highlight.png",320,240 M,0,102215,,292,100 C,0,102215,,105,105,105 F,0,102215,102245,0,1 F,0,102245,102725,1,0 P,0,102245,102725,A
Sprite,Foreground,Centre,"SB\highlight.png",320,240 M,0,102295,,342,97 C,0,102295,,105,105,105 F,0,102295,102325,0,1 F,0,102325,102805,1,0 P,0,102325,102805,A
Sprite,Foreground,Centre,"SB\highlight.png",320,240 M,0,102375,,388,118 C,0,102375,,105,105,105 F,0,102375,102405,0,1 F,0,102405,102885,1,0 P,0,102405,102885,A
Sprite,Foreground,Centre,"SB\highlight.png",320,240 M,0,102455,,418,158 C,0,102455,,105,105,105 F,0,102455,102485,0,1 F,0,102485,102965,1,0 P,0,102485,102965,A
Sprite,Foreground,Centre,"SB\highlight.png",320,240 M,0,102535,,414,208 C,0,102535,,221,0,0 F,0,102535,102565,0,1 F,0,102565,103045,1,0 P,0,102565,103045,A
Sprite,Foreground,Centre,"SB\highlight.png",320,240 M,0,102595,,411,233 C,0,102595,,221,0,0 F,0,102595,102625,0,1 F,0,102625,103105,1,0 P,0,102625,103105,A
Sprite,Foreground,Centre,"SB\highlight.png",320,240 M,0,102655,,411,258 C,0,102655,,221,0,0 F,0,102655,102685,0,1 F,0,102685,103165,1,0 P,0,102685,103165,A
Sprite,Foreground,Centre,"SB\highlight.png",320,240 M,0,102715,,409,283 C,0,102715,,221,0,0 F,0,102715,102745,0,1 F,0,102745,103225,1,0 P,0,102745,103225,A
Sprite,Foreground,Centre,"SB\highlight.png",320,240 M,0,102775,,406,308 C,0,102775,,221,0,0 F,0,102775,102805,0,1 F,0,102805,103285,1,0 P,0,102805,103285,A
Sprite,Foreground,Centre,"SB\highlight.png",320,240 M,0,102835,,402,333 C,0,102835,,221,0,0 F,0,102835,102865,0,1 F,0,102865,103345,1,0 P,0,102865,103345,A
Sprite,Foreground,Centre,"SB\highlight.png",320,240 M,0,102895,,398,358 C,0,102895,,221,0,0 F,0,102895,102925,0,1 F,0,102925,103405,1,0 P,0,102925,103405,A
Sprite,Foreground,Centre,"SB\highlight.png",320,240 M,0,102955,,396,383 C,0,102955,,221,0,0 F,0,102955,102985,0,1 F,0,102985,103465,1,0 P,0,102985,103465,A
Sprite,Foreground,Centre,"SB\highlight.png",320,240 M,0,103015,,393,408 C,0,103015,,221,0,0 F,0,103015,103045,0,1 M,0,103045,,393,408 M,0,103045,103165,393,408,345,401 P,0,103045,103765,A M,0,103165,103285,345,401,306,395 F,0,103285,103765,1,0
Sprite,Foreground,Centre,"SB\highlight.png",320,240 M,0,162061,,360,240 C,0,162061,,105,105,105 F,0,162061,162091,0,1 F,0,162091,162571,1,0 P,0,162091,162571,A
Sprite,Foreground,Centre,"SB\highlight.png",320,240 M,0,162141,,384,201 C,0,162141,,105,105,105 F,0,162141,162171,0,1 F,0,162171,162651,1,0 P,0,162171,162651,A
Sprite,Foreground,Centre,"SB\highlight.png",320,240 M,0,162221,,371,157 C,0,162221,,105,105,105 F,0,162221,162251,0,1 F,0,162251,162731,1,0 P,0,162251,162731,A
Sprite,Foreground,Centre,"SB\highlight.png",320,240 M,0,162301,,334,130 C,0,162301,,105,105,105 F,0,162301,162331,0,1 F,0,162331,162811,1,0 P,0,162331,162811,A
Sprite,Foreground,Centre,"SB\highlight.png",320,240 M,0,162381,,288,133 C,0,162381,,105,105,105 F,0,162381,162411,0,1 F,0,162411,162891,1,0 P,0,162411,162891,A
Sprite,Foreground,Centre,"SB\highlight.png",320,240 M,0,162461,,254,163 C,0,162461,,105,105,105 F,0,162461,162491,0,1 F,0,162491,162971,1,0 P,0,162491,162971,A
Sprite,Foreground,Centre,"SB\highlight.png",320,240 M,0,162541,,250,208 C,0,162541,,187,187,0 F,0,162541,162571,0,1 F,0,162571,163051,1,0 P,0,162571,163051,A
Sprite,Foreground,Centre,"SB\highlight.png",320,240 M,0,162621,,267,249 C,0,162621,,187,187,0 F,0,162621,162651,0,1 F,0,162651,163131,1,0 P,0,162651,163131,A
Sprite,Foreground,Centre,"SB\highlight.png",320,240 M,0,162701,,287,289 C,0,162701,,187,187,0 F,0,162701,162731,0,1 F,0,162731,163211,1,0 P,0,162731,163211,A
Sprite,Foreground,Centre,"SB\highlight.png",320,240 M,0,162781,,284,334 C,0,162781,,187,187,0 F,0,162781,162811,0,1 F,0,162811,163291,1,0 P,0,162811,163291,A
Sprite,Foreground,Centre,"SB\highlight.png",320,240 M,0,162861,,257,370 C,0,162861,,187,187,0 F,0,162861,162891,0,1 F,0,162891,163371,1,0 P,0,162891,163371,A
Sprite,Foreground,Centre,"SB\highlight.png",320,240 M,0,162941,,214,385 C,0,162941,,187,187,0 F,0,162941,162971,0,1 F,0,162971,163451,1,0 P,0,162971,163451,A
Sprite,Foreground,Centre,"SB\highlight.png",320,240 M,0,163021,,171,368 C,0,163021,,221,0,0 F,0,163021,163051,0,1 M,0,163051,,171,368 M,0,163051,163091,171,368,160,340 P,0,163051,163611,A M,0,163091,163131,160,340,156,312 F,0,163131,163611,1,0
Sprite,Foreground,Centre,"SB\highlight.png",320,240 M,0,163181,,173,142 C,0,163181,,221,0,0 F,0,163181,163211,0,1 M,0,163211,,173,142 M,0,163211,163251,173,142,180,168 P,0,163211,163771,A M,0,163251,163291,180,168,184,196 F,0,163291,163771,1,0
Sprite,Foreground,Centre,"SB\highlight.png",320,240 M,0,163341,,132,357 C,0,163341,,225,243,247 F,0,163341,163371,0,1 M,0,163371,,132,357 M,0,163371,163411,132,357,128,352 P,0,163371,163931,A M,0,163411,163451,128,352,136,300 F,0,163451,163931,1,0
Sprite,Foreground,Centre,"SB\highlight.png",320,240 M,0,163501,,212,140 C,0,163501,,225,243,247 F,0,163501,163531,0,1 M,0,163531,,212,140 M,0,163531,163571,212,140,212,168 P,0,163531,164091,A M,0,163571,163611,212,168,204,192 F,0,163611,164091,1,0
Sprite,Foreground,Centre,"SB\highlight.png",320,240 M,0,163661,,94,338 C,0,163661,,105,105,105 F,0,163661,163691,0,1 M,0,163691,,94,338 M,0,163691,163731,94,338,96,308 P,0,163691,164251,A M,0,163731,163771,96,308,116,283 F,0,163771,164251,1,0
Sprite,Foreground,Centre,"SB\highlight.png",320,240 M,0,179341,,187,176 C,0,179341,,225,243,247 F,0,179341,179371,0,1 M,0,179371,,187,176 M,0,179371,179411,187,176,174,198 P,0,179371,179931,A M,0,179411,179451,174,198,169,231 F,0,179451,179931,1,0
Sprite,Foreground,Centre,"SB\highlight.png",320,240 M,0,179501,,167,321 C,0,179501,,225,243,247 F,0,179501,179531,0,1 M,0,179531,,167,321 M,0,179531,179571,167,321,196,317 P,0,179531,180091,A M,0,179571,179611,196,317,223,306 F,0,179611,180091,1,0
Sprite,Foreground,Centre,"SB\highlight.png",320,240 M,0,179661,,303,270 C,0,179661,,225,243,247 F,0,179661,179691,0,1 M,0,179691,,303,270 M,0,179691,179731,303,270,287,242 P,0,179691,180251,A M,0,179731,179771,287,242,264,228 F,0,179771,180251,1,0
Sprite,Foreground,Centre,"SB\highlight.png",320,240 M,0,179821,,308,366 C,0,179821,,105,105,105 F,0,179821,179851,0,1 M,0,179851,,308,366 M,0,179851,179891,308,366,331,382 P,0,179851,180411,A M,0,179891,179931,331,382,359,384 F,0,179931,180411,1,0
Sprite,Foreground,Centre,"SB\highlight.png",320,240 M,0,179981,,416,240 C,0,179981,,105,105,105 F,0,179981,180011,0,1 M,0,180011,,416,240 M,0,180011,180051,416,240,391,252 P,0,180011,180571,A M,0,180051,180091,391,252,375,275 F,0,180091,180571,1,0
Sprite,Foreground,Centre,"SB\highlight.png",320,240 M,0,180141,,467,397 C,0,180141,,105,105,105 F,0,180141,180171,0,1 M,0,180171,,467,397 M,0,180171,180211,467,397,469,369 P,0,180171,180731,A M,0,180211,180251,469,369,457,344 F,0,180251,180731,1,0
Sprite,Foreground,Centre,"SB\highlight.png",320,240 M,0,180301,,366,188 C,0,180301,,187,187,0 F,0,180301,180331,0,1 F,0,180331,180811,1,0 P,0,180331,180811,A
Sprite,Foreground,Centre,"SB\highlight.png",320,240 M,0,180361,,342,172 C,0,180361,,187,187,0 F,0,180361,180391,0,1 F,0,180391,180871,1,0 P,0,180391,180871,A
Sprite,Foreground,Centre,"SB\highlight.png",320,240 M,0,180421,,314,164 C,0,180421,,187,187,0 F,0,180421,180451,0,1 F,0,180451,180931,1,0 P,0,180451,180931,A
Sprite,Foreground,Centre,"SB\highlight.png",320,240 M,0,180481,,286,168 C,0,180481,,187,187,0 F,0,180481,180511,0,1 F,0,180511,180991,1,0 P,0,180511,180991,A
Sprite,Foreground,Centre,"SB\highlight.png",320,240 M,0,180541,,258,184 C,0,180541,,187,187,0 F,0,180541,180571,0,1 F,0,180571,181051,1,0 P,0,180571,181051,A
Sprite,Foreground,Centre,"SB\highlight.png",320,240 M,0,180601,,238,208 C,0,180601,,187,187,0 F,0,180601,180631,0,1 F,0,180631,181111,1,0 P,0,180631,181111,A
Sprite,Foreground,Centre,"SB\highlight.png",320,240 M,0,180661,,230,236 C,0,180661,,187,187,0 F,0,180661,180691,0,1 F,0,180691,181171,1,0 P,0,180691,181171,A
Sprite,Foreground,Centre,"SB\highlight.png",320,240 M,0,180721,,234,264 C,0,180721,,187,187,0 F,0,180721,180751,0,1 F,0,180751,181231,1,0 P,0,180751,181231,A
Sprite,Foreground,Centre,"SB\highlight.png",320,240 M,0,180781,,246,292 C,0,180781,,187,187,0 F,0,180781,180811,0,1 M,0,180811,,246,292 M,0,180811,180931,246,292,256,332 P,0,180811,181531,A M,0,180931,181051,256,332,273,373 F,0,181051,181531,1,0
//Storyboard Layer 4 (Overlay)
//Storyboard Sound Samples

[TimingPoints]
1611,600,4,1,1,60,1,0
1611,-44.4444444444445,4,1,1,60,0,0
10911,266.666666666667,4,1,1,60,1,8
11041,266.666666666667,4,1,1,60,1,0
12107,260.869565217391,4,1,1,60,1,0
13150,255.31914893617,4,1,1,60,1,0
14171,250,4,1,1,60,1,0
16171,240,4,1,1,60,1,0
17038,262.008733624454,4,1,1,60,1,0
18085,240,4,1,1,80,1,0
119011,521.739130434783,4,2,2,40,1,0
148228,560.747663551402,4,2,2,45,1,0
151592,588.235294117647,4,2,2,40,1,8
152768,594.059405940594,4,2,2,35,1,0
153956,681.818181818182,4,2,2,30,1,8
155319,750,4,2,2,25,1,0
156069,681.818181818182,4,2,2,25,1,8
156750,705.882352941176,4,2,2,25,1,8
157455,681.818181818182,4,2,2,25,1,8
158136,1153.84615384615,4,2,2,20,1,0
160051,240,4,2,1,20,1,8
162091,240,4,1,1,35,1,0

[Colours]
Combo1 : 187,187,0
Combo2 : 221,0,0
Combo3 : 225,243,247
Combo4 : 105,105,105

[HitObjects]
64,192,411,128,0,1611:0:0:0:0:
448,192,1311,1,0,0:0:0:0:
192,192,1461,1,0,0:0:0:0:
448,192,1611,128,0,6411:0:0:0:0:
320,192,1611,128,0,1836:0:0:0:0:
192,192,1836,128,0,1986:0:0:0:0:
64,192,1986,128,0,2136:0:0:0:0:
320,192,2136,128,0,2286:0:0:0:0:
64,192,2436,128,0,2586:0:0:0:0:
192,192,2586,128,0,2736:0:0:0:0:
320,192,2736,128,0,2886:0:0:0:0:
192,192,3036,128,0,3186:0:0:0:0:
320,192,3336,128,0,3486:0:0:0:0:
192,192,3636,128,0,3786:0:0:0:0:
64,192,3786,128,0,3936:0:0:0:0:
192,192,3936,128,0,4086:0:0:0:0:
320,192,4236,128,0,4386:0:0:0:0:
64,192,4386,128,0,4536:0:0:0:0:
192,192,4536,128,0,4836:0:0:0:0:
64,192,4836,128,0,4986:0:0:0:0:
192,192,4986,128,0,5136:0:0:0:0:
320,192,5136,128,0,5286:0:0:0:0:
192,192,5436,128,0,5586:0:0:0:0:
64,192,5736,128,0,5886:0:0:0:0:
320,192,6036,128,0,6186:0:0:0:0:
64,192,6336,128,0,6786:0:0:0:0:
320,192,6411,128,0,8811:0:0:0:0:
192,192,6786,128,0,7161:0:0:0:0:
64,192,7686,128,0,8061:0:0:0:0:
448,192,8286,128,0,8736:0:0:0:0:
64,192,8736,128,0,9111:0:0:0:0:
192,192,8811,128,0,10011:0:0:0:0:
448,192,9111,128,0,10161:0:0:0:0:
320,192,9411,128,0,9711:0:0:0:0:
64,192,9711,128,0,10161:0:0:0:0:
320,192,10011,128,0,10461:0:0:0:0:
192,192,10161,128,0,10611:0:0:0:0:
64,192,10311,1,0,0:0:0:0:
448,192,10461,128,0,10911:0:0:0:0:
64,192,10611,1,0,0:0:0:0:
320,192,10761,128,0,10911:0:0:0:0:
64,192,10911,128,0,13150:0:0:0:0:
192,192,10911,128,0,11174:0:0:0:0:
448,192,11174,128,0,11241:0:0:0:0:
320,192,11307,128,0,11441:0:0:0:0:
448,192,11307,128,0,11574:0:0:0:0:
192,192,11441,128,0,11707:0:0:0:0:
320,192,11707,128,0,11841:0:0:0:0:
448,192,11841,128,0,11907:0:0:0:0:
192,192,11841,128,0,12107:0:0:0:0:
320,192,11974,128,0,12237:0:0:0:0:
448,192,12237,128,0,12367:0:0:0:0:
320,192,12367,128,0,12628:0:0:0:0:
192,192,12498,128,0,12759:0:0:0:0:
448,192,12759,128,0,12889:0:0:0:0:
320,192,12889,128,0,13150:0:0:0:0:
448,192,13020,128,0,13277:0:0:0:0:
192,192,13020,1,0,0:0:0:0:
192,192,13150,128,0,15171:0:0:0:0:
320,192,13277,1,0,0:0:0:0:
64,192,13341,128,0,13469:0:0:0:0:
448,192,13405,1,0,0:0:0:0:
320,192,13469,128,0,13724:0:0:0:0:
448,192,13532,128,0,13788:0:0:0:0:
64,192,13788,128,0,14043:0:0:0:0:
448,192,13915,128,0,14171:0:0:0:0:
320,192,14043,128,0,14296:0:0:0:0:
448,192,14296,128,0,14546:0:0:0:0:
64,192,14421,128,0,14671:0:0:0:0:
320,192,14546,128,0,14796:0:0:0:0:
64,192,14796,128,0,15046:0:0:0:0:
448,192,15046,128,0,15421:0:0:0:0:
320,192,15171,128,0,17011:0:0:0:0:
64,192,15296,1,0,0:0:0:0:
64,192,15421,128,0,15796:0:0:0:0:
192,192,15421,1,0,0:0:0:0:
448,192,15546,1,0,0:0:0:0:
192,192,15671,1,0,0:0:0:0:
448,192,15796,1,0,0:0:0:0:
64,192,15921,1,0,0:0:0:0:
192,192,16046,1,0,0:0:0:0:
448,192,16171,1,0,0:0:0:0:
64,192,16171,128,0,16651:0:0:0:0:
192,192,16291,1,0,0:0:0:0:
448,192,16411,1,0,0:0:0:0:
192,192,16531,1,0,0:0:0:0:
192,192,16651,1,0,0:0:0:0:
448,192,16651,128,0,17011:0:0:0:0:
64,192,16771,1,0,0:0:0:0:
192,192,16891,1,0,0:0:0:0:
192,192,17011,128,0,17365:0:0:0:0:
64,192,17011,128,0,18925:0:0:0:0:
320,192,17169,1,0,0:0:0:0:
448,192,17300,1,0,0:0:0:0:
320,192,17431,1,0,0:0:0:0:
192,192,17431,128,0,18505:0:0:0:0:
448,192,17562,1,0,0:0:0:0:
320,192,17693,1,0,0:0:0:0:
448,192,17824,1,0,0:0:0:0:
320,192,18085,1,0,0:0:0:0:
448,192,18086,1,0,0:0:0:0:
448,192,18205,1,0,0:0:0:0:
320,192,18205,1,0,0:0:0:0:
448,192,18325,1,0,0:0:0:0:
320,192,18325,1,0,0:0:0:0:
448,192,18445,1,0,0:0:0:0:
320,192,18445,1,0,0:0:0:0:
448,192,18565,1,0,0:0:0:0:
320,192,18565,128,0,18925:0:0:0:0:
192,192,18685,1,0,0:0:0:0:
448,192,18685,1,0,0:0:0:0:
192,192,18805,1,0,0:0:0:0:
448,192,18805,1,0,0:0:0:0:
192,192,18925,128,0,19765:0:0:0:0:
448,192,18925,128,0,19285:0:0:0:0:
64,192,19165,128,0,19285:0:0:0:0:
320,192,19285,128,0,19405:0:0:0:0:
64,192,19405,128,0,19525:0:0:0:0:
448,192,19525,128,0,19645:0:0:0:0:
320,192,19525,1,0,0:0:0:0:
64,192,19645,128,0,20005:0:0:0:0:
320,192,19765,128,0,19885:0:0:0:0:
448,192,19765,1,0,0:0:0:0:
192,192,19885,128,0,20125:0:0:0:0:
448,192,20005,128,0,20365:0:0:0:0:
320,192,20005,128,0,20125:0:0:0:0:
64,192,20125,128,0,20245:0:0:0:0:
320,192,20245,128,0,20365:0:0:0:0:
192,192,20245,128,0,20365:0:0:0:0:
64,192,20365,128,0,20485:0:0:0:0:
320,192,20485,128,0,20725:0:0:0:0:
448,192,20485,128,0,20605:0:0:0:0:
192,192,20485,128,0,20605:0:0:0:0:
64,192,20605,128,0,20665:0:0:0:0:
192,192,20725,128,0,20965:0:0:0:0:
64,192,20725,128,0,21085:0:0:0:0:
448,192,20725,1,0,0:0:0:0:
320,192,20845,128,0,21565:0:0:0:0:
448,192,20845,128,0,21085:0:0:0:0:
192,192,21085,128,0,21205:0:0:0:0:
64,192,21205,128,0,21445:0:0:0:0:
192,192,21325,128,0,21565:0:0:0:0:
448,192,21445,128,0,21685:0:0:0:0:
64,192,21565,128,0,21805:0:0:0:0:
192,192,21685,128,0,21805:0:0:0:0:
320,192,21685,128,0,21925:0:0:0:0:
448,192,21805,128,0,21985:0:0:0:0:
64,192,21925,128,0,22285:0:0:0:0:
192,192,21925,128,0,22045:0:0:0:0:
320,192,22045,128,0,22105:0:0:0:0:
192,192,22165,128,0,22225:0:0:0:0:
448,192,22165,1,0,0:0:0:0:
320,192,22285,128,0,22345:0:0:0:0:
320,192,22405,128,0,22645:0:0:0:0:
448,192,22405,128,0,22525:0:0:0:0:
192,192,22405,1,0,0:0:0:0:
64,192,22525,128,0,22645:0:0:0:0:
448,192,22645,128,0,22765:0:0:0:0:
192,192,22645,1,0,0:0:0:0:
192,192,22765,128,0,23485:0:0:0:0:
64,192,22765,128,0,23125:0:0:0:0:
448,192,23005,128,0,23125:0:0:0:0:
320,192,23125,128,0,23245:0:0:0:0:
64,192,23245,128,0,23365:0:0:0:0:
448,192,23365,128,0,23725:0:0:0:0:
64,192,23485,128,0,23605:0:0:0:0:
320,192,23605,128,0,23725:0:0:0:0:
192,192,23605,128,0,23845:0:0:0:0:
64,192,23725,128,0,23965:0:0:0:0:
448,192,23845,128,0,23965:0:0:0:0:
320,192,23845,128,0,24085:0:0:0:0:
192,192,23965,128,0,24085:0:0:0:0:
64,192,24085,128,0,24325:0:0:0:0:
448,192,24085,1,0,0:0:0:0:
448,192,24205,128,0,24325:0:0:0:0:
320,192,24325,128,0,24445:0:0:0:0:
192,192,24325,128,0,24445:0:0:0:0:
448,192,24445,128,0,24565:0:0:0:0:
64,192,24445,128,0,24685:0:0:0:0:
320,192,24565,128,0,24685:0:0:0:0:
192,192,24685,128,0,25045:0:0:0:0:
448,192,24685,128,0,25225:0:0:0:0:
64,192,24805,128,0,24925:0:0:0:0:
320,192,24925,128,0,24985:0:0:0:0:
64,192,25045,128,0,26605:0:0:0:0:
320,192,25045,128,0,25165:0:0:0:0:
192,192,25165,128,0,25285:0:0:0:0:
320,192,25285,128,0,25765:0:0:0:0:
448,192,25285,1,0,0:0:0:0:
192,192,25405,128,0,25465:0:0:0:0:
448,192,25525,128,0,25645:0:0:0:0:
192,192,25525,1,0,0:0:0:0:
192,192,25645,128,0,25885:0:0:0:0:
448,192,25765,128,0,26005:0:0:0:0:
320,192,25885,128,0,26005:0:0:0:0:
192,192,26005,128,0,26125:0:0:0:0:
320,192,26125,128,0,26245:0:0:0:0:
448,192,26245,128,0,26485:0:0:0:0:
192,192,26245,1,0,0:0:0:0:
192,192,26365,1,0,0:0:0:0:
320,192,26485,1,0,0:0:0:0:
320,192,26605,128,0,27445:0:0:0:0:
448,192,26605,1,0,0:0:0:0:
192,192,26605,128,0,26845:0:0:0:0:
64,192,26845,128,0,27085:0:0:0:0:
448,192,26965,128,0,27205:0:0:0:0:
192,192,26965,1,0,0:0:0:0:
192,192,27085,128,0,27325:0:0:0:0:
64,192,27205,128,0,27325:0:0:0:0:
448,192,27325,128,0,27445:0:0:0:0:
192,192,27445,128,0,27625:0:0:0:0:
64,192,27445,128,0,27565:0:0:0:0:
448,192,27565,128,0,27805:0:0:0:0:
64,192,27685,128,0,28045:0:0:0:0:
192,192,27685,128,0,27805:0:0:0:0:
320,192,27805,128,0,28045:0:0:0:0:
192,192,27925,128,0,28165:0:0:0:0:
448,192,28045,128,0,28285:0:0:0:0:
64,192,28165,128,0,28405:0:0:0:0:
320,192,28165,128,0,28285:0:0:0:0:
192,192,28285,128,0,28345:0:0:0:0:
192,192,28405,128,0,28525:0:0:0:0:
448,192,28405,128,0,28525:0:0:0:0:
320,192,28525,128,0,29365:0:0:0:0:
64,192,28525,128,0,28765:0:0:0:0:
448,192,28765,128,0,29245:0:0:0:0:
64,192,28885,128,0,29005:0:0:0:0:
192,192,28885,1,0,0:0:0:0:
192,192,29005,128,0,29245:0:0:0:0:
64,192,29125,128,0,29185:0:0:0:0:
64,192,29245,128,0,29485:0:0:0:0:
448,192,29365,128,0,29485:0:0:0:0:
192,192,29365,128,0,29485:0:0:0:0:
320,192,29485,128,0,29605:0:0:0:0:
192,192,29605,128,0,29965:0:0:0:0:
64,192,29605,128,0,29845:0:0:0:0:
448,192,29605,128,0,29725:0:0:0:0:
320,192,29725,128,0,29845:0:0:0:0:
448,192,29845,128,0,29905:0:0:0:0:
448,192,29965,128,0,30205:0:0:0:0:
320,192,30085,128,0,30325:0:0:0:0:
64,192,30085,128,0,30205:0:0:0:0:
192,192,30205,128,0,30325:0:0:0:0:
64,192,30325,128,0,30565:0:0:0:0:
448,192,30445,128,0,30565:0:0:0:0:
192,192,30565,128,0,31045:0:0:0:0:
320,192,30565,128,0,30805:0:0:0:0:
64,192,30685,128,0,30805:0:0:0:0:
448,192,30805,128,0,30925:0:0:0:0:
64,192,30925,128,0,31045:0:0:0:0:
320,192,31045,128,0,31525:0:0:0:0:
448,192,31045,128,0,31165:0:0:0:0:
64,192,31165,128,0,31285:0:0:0:0:
192,192,31285,128,0,31525:0:0:0:0:
448,192,31405,1,0,0:0:0:0:
448,192,31525,128,0,32005:0:0:0:0:
64,192,31525,128,0,31645:0:0:0:0:
320,192,31645,128,0,31765:0:0:0:0:
64,192,31765,128,0,31885:0:0:0:0:
320,192,31885,128,0,32005:0:0:0:0:
64,192,32005,128,0,32365:0:0:0:0:
192,192,32005,128,0,32125:0:0:0:0:
320,192,32125,128,0,32245:0:0:0:0:
448,192,32245,128,0,32605:0:0:0:0:
320,192,32365,128,0,35965:0:0:0:0:
192,192,32365,128,0,34165:0:0:0:0:
64,192,32605,1,0,0:0:0:0:
64,192,32725,128,0,32845:0:0:0:0:
448,192,32725,128,0,32845:0:0:0:0:
64,192,32965,128,0,33025:0:0:0:0:
64,192,33085,128,0,33205:0:0:0:0:
448,192,33205,128,0,33325:0:0:0:0:
64,192,33325,128,0,33445:0:0:0:0:
448,192,33445,128,0,33565:0:0:0:0:
64,192,33565,128,0,33625:0:0:0:0:
64,192,33685,128,0,33805:0:0:0:0:
448,192,33685,128,0,33805:0:0:0:0:
64,192,33925,128,0,34045:0:0:0:0:
448,192,34045,128,0,34165:0:0:0:0:
64,192,34165,128,0,36085:0:0:0:0:
448,192,34285,1,0,0:0:0:0:
192,192,34285,1,0,0:0:0:0:
192,192,34405,128,0,34585:0:0:0:0:
448,192,34405,128,0,34585:0:0:0:0:
192,192,34645,1,0,0:0:0:0:
448,192,34645,1,0,0:0:0:0:
192,192,34765,128,0,34945:0:0:0:0:
448,192,34765,128,0,34945:0:0:0:0:
192,192,35005,1,0,0:0:0:0:
448,192,35005,1,0,0:0:0:0:
192,192,35125,128,0,35305:0:0:0:0:
448,192,35125,128,0,35305:0:0:0:0:
192,192,35365,1,0,0:0:0:0:
448,192,35365,1,0,0:0:0:0:
192,192,35485,128,0,35545:0:0:0:0:
192,192,35605,128,0,35665:0:0:0:0:
448,192,35725,128,0,35905:0:0:0:0:
192,192,35725,1,0,0:0:0:0:
192,192,35845,128,0,36205:0:0:0:0:
448,192,35965,128,0,36205:0:0:0:0:
320,192,36205,128,0,37045:0:0:0:0:
64,192,36205,128,0,36565:0:0:0:0:
192,192,36445,128,0,36685:0:0:0:0:
448,192,36565,128,0,36805:0:0:0:0:
64,192,36685,128,0,36805:0:0:0:0:
192,192,36805,128,0,36925:0:0:0:0:
448,192,36925,128,0,37165:0:0:0:0:
192,192,37045,128,0,37165:0:0:0:0:
64,192,37045,128,0,37165:0:0:0:0:
320,192,37165,128,0,37285:0:0:0:0:
448,192,37285,128,0,37525:0:0:0:0:
192,192,37285,128,0,37405:0:0:0:0:
64,192,37405,128,0,37645:0:0:0:0:
192,192,37525,128,0,37645:0:0:0:0:
448,192,37645,128,0,37885:0:0:0:0:
192,192,37765,128,0,38005:0:0:0:0:
64,192,37765,128,0,37885:0:0:0:0:
320,192,37885,128,0,38005:0:0:0:0:
448,192,38005,128,0,38125:0:0:0:0:
64,192,38125,128,0,38365:0:0:0:0:
320,192,38125,128,0,39565:0:0:0:0:
448,192,38365,128,0,38845:0:0:0:0:
192,192,38365,128,0,38485:0:0:0:0:
64,192,38485,128,0,38605:0:0:0:0:
192,192,38605,128,0,38725:0:0:0:0:
64,192,38725,128,0,38845:0:0:0:0:
192,192,38845,128,0,39085:0:0:0:0:
448,192,38965,128,0,39205:0:0:0:0:
64,192,39085,128,0,39205:0:0:0:0:
192,192,39205,128,0,39445:0:0:0:0:
64,192,39325,128,0,39565:0:0:0:0:
448,192,39445,128,0,39565:0:0:0:0:
192,192,39565,128,0,39685:0:0:0:0:
320,192,39685,128,0,39805:0:0:0:0:
64,192,39685,128,0,39805:0:0:0:0:
448,192,39805,128,0,39925:0:0:0:0:
192,192,39805,128,0,40045:0:0:0:0:
320,192,39925,128,0,40045:0:0:0:0:
64,192,40045,128,0,40765:0:0:0:0:
448,192,40045,128,0,40285:0:0:0:0:
320,192,40285,128,0,40525:0:0:0:0:
192,192,40405,128,0,40525:0:0:0:0:
448,192,40525,128,0,40645:0:0:0:0:
192,192,40645,128,0,40885:0:0:0:0:
448,192,40765,128,0,40885:0:0:0:0:
320,192,40885,128,0,41005:0:0:0:0:
64,192,40885,128,0,41245:0:0:0:0:
448,192,41005,128,0,41125:0:0:0:0:
192,192,41005,128,0,41245:0:0:0:0:
320,192,41125,128,0,41365:0:0:0:0:
448,192,41245,128,0,41485:0:0:0:0:
64,192,41365,128,0,41485:0:0:0:0:
192,192,41485,128,0,41605:0:0:0:0:
320,192,41605,128,0,41725:0:0:0:0:
64,192,41605,128,0,41725:0:0:0:0:
192,192,41725,128,0,41845:0:0:0:0:
448,192,41725,128,0,41965:0:0:0:0:
64,192,41845,128,0,41965:0:0:0:0:
320,192,41965,128,0,42205:0:0:0:0:
192,192,41965,128,0,42325:0:0:0:0:
64,192,42085,128,0,42205:0:0:0:0:
448,192,42205,128,0,42445:0:0:0:0:
64,192,42325,128,0,42685:0:0:0:0:
320,192,42325,128,0,42385:0:0:0:0:
192,192,42445,128,0,42565:0:0:0:0:
320,192,42445,128,0,42565:0:0:0:0:
448,192,42565,128,0,42685:0:0:0:0:
192,192,42685,128,0,42805:0:0:0:0:
320,192,42805,128,0,42925:0:0:0:0:
64,192,42805,128,0,42925:0:0:0:0:
448,192,42925,128,0,43105:0:0:0:0:
192,192,42925,128,0,43285:0:0:0:0:
64,192,43045,128,0,43165:0:0:0:0:
448,192,43165,128,0,44005:0:0:0:0:
320,192,43165,128,0,43285:0:0:0:0:
64,192,43285,128,0,43405:0:0:0:0:
320,192,43405,128,0,43585:0:0:0:0:
192,192,43405,128,0,43465:0:0:0:0:
64,192,43525,128,0,43585:0:0:0:0:
192,192,43525,128,0,43585:0:0:0:0:
192,192,43645,128,0,43765:0:0:0:0:
320,192,43645,128,0,43705:0:0:0:0:
64,192,43765,128,0,43885:0:0:0:0:
320,192,43765,128,0,43825:0:0:0:0:
192,192,43885,128,0,44845:0:0:0:0:
320,192,43885,128,0,44245:0:0:0:0:
448,192,44125,128,0,44245:0:0:0:0:
64,192,44245,128,0,44485:0:0:0:0:
448,192,44365,128,0,44425:0:0:0:0:
448,192,44485,128,0,44605:0:0:0:0:
320,192,44605,128,0,44845:0:0:0:0:
64,192,44725,128,0,44965:0:0:0:0:
448,192,44845,128,0,44965:0:0:0:0:
320,192,44965,128,0,45325:0:0:0:0:
192,192,44965,128,0,45085:0:0:0:0:
64,192,45085,128,0,45325:0:0:0:0:
192,192,45205,128,0,45325:0:0:0:0:
448,192,45325,128,0,45565:0:0:0:0:
192,192,45445,128,0,45685:0:0:0:0:
320,192,45445,128,0,45565:0:0:0:0:
64,192,45565,128,0,45685:0:0:0:0:
320,192,45685,128,0,45805:0:0:0:0:
448,192,45805,128,0,47365:0:0:0:0:
64,192,45805,128,0,46285:0:0:0:0:
192,192,45805,128,0,45925:0:0:0:0:
320,192,45925,128,0,46045:0:0:0:0:
192,192,46045,128,0,46165:0:0:0:0:
320,192,46165,128,0,46285:0:0:0:0:
192,192,46285,128,0,46345:0:0:0:0:
192,192,46405,128,0,46885:0:0:0:0:
320,192,46405,128,0,46525:0:0:0:0:
64,192,46525,128,0,46585:0:0:0:0:
64,192,46645,128,0,46765:0:0:0:0:
320,192,46765,128,0,46825:0:0:0:0:
320,192,46885,128,0,47305:0:0:0:0:
64,192,46885,128,0,47005:0:0:0:0:
192,192,47005,128,0,47125:0:0:0:0:
64,192,47125,128,0,47245:0:0:0:0:
192,192,47245,128,0,47305:0:0:0:0:
192,192,47365,128,0,47845:0:0:0:0:
64,192,47365,128,0,47485:0:0:0:0:
320,192,47365,128,0,47425:0:0:0:0:
448,192,47485,128,0,47545:0:0:0:0:
320,192,47485,128,0,47605:0:0:0:0:
64,192,47605,128,0,47665:0:0:0:0:
64,192,47725,128,0,47845:0:0:0:0:
320,192,47725,128,0,48205:0:0:0:0:
448,192,47725,128,0,49645:0:0:0:0:
64,192,47965,128,0,48085:0:0:0:0:
192,192,48085,128,0,48205:0:0:0:0:
64,192,48205,128,0,48325:0:0:0:0:
192,192,48325,128,0,48385:0:0:0:0:
320,192,48325,128,0,48445:0:0:0:0:
64,192,48445,128,0,48685:0:0:0:0:
192,192,48445,128,0,48565:0:0:0:0:
320,192,48565,128,0,48625:0:0:0:0:
320,192,48685,128,0,49045:0:0:0:0:
192,192,48685,128,0,48805:0:0:0:0:
64,192,48805,128,0,49045:0:0:0:0:
192,192,48925,1,0,0:0:0:0:
192,192,49045,128,0,49165:0:0:0:0:
320,192,49165,128,0,49345:0:0:0:0:
192,192,49285,128,0,49405:0:0:0:0:
64,192,49285,128,0,49345:0:0:0:0:
320,192,49405,128,0,49525:0:0:0:0:
64,192,49405,128,0,49525:0:0:0:0:
192,192,49525,128,0,49645:0:0:0:0:
64,192,49645,128,0,49885:0:0:0:0:
320,192,49645,128,0,49765:0:0:0:0:
192,192,49765,128,0,50005:0:0:0:0:
320,192,49885,128,0,50125:0:0:0:0:
448,192,49885,128,0,50005:0:0:0:0:
64,192,50005,128,0,50065:0:0:0:0:
64,192,50125,128,0,50365:0:0:0:0:
448,192,50125,128,0,50245:0:0:0:0:
192,192,50245,128,0,50365:0:0:0:0:
320,192,50365,128,0,50605:0:0:0:0:
448,192,50365,128,0,50485:0:0:0:0:
64,192,50485,128,0,50605:0:0:0:0:
192,192,50605,128,0,50845:0:0:0:0:
448,192,50605,128,0,50725:0:0:0:0:
64,192,50725,128,0,50845:0:0:0:0:
448,192,50845,128,0,50965:0:0:0:0:
320,192,50845,128,0,51085:0:0:0:0:
64,192,50965,128,0,51205:0:0:0:0:
448,192,51085,128,0,51325:0:0:0:0:
192,192,51085,128,0,51205:0:0:0:0:
320,192,51205,128,0,51325:0:0:0:0:
192,192,51325,128,0,51565:0:0:0:0:
64,192,51325,128,0,51445:0:0:0:0:
448,192,51445,128,0,51565:0:0:0:0:
64,192,51565,128,0,51685:0:0:0:0:
320,192,51565,128,0,51925:0:0:0:0:
448,192,51685,128,0,52525:0:0:0:0:
192,192,51925,128,0,52045:0:0:0:0:
64,192,52045,128,0,52165:0:0:0:0:
320,192,52165,128,0,52285:0:0:0:0:
192,192,52285,128,0,52405:0:0:0:0:
320,192,52405,128,0,52525:0:0:0:0:
192,192,52525,128,0,53485:0:0:0:0:
64,192,52525,128,0,52765:0:0:0:0:
320,192,52765,128,0,52885:0:0:0:0:
448,192,52885,128,0,53005:0:0:0:0:
64,192,53005,128,0,53125:0:0:0:0:
320,192,53125,128,0,53245:0:0:0:0:
64,192,53245,128,0,53365:0:0:0:0:
448,192,53365,128,0,53485:0:0:0:0:
320,192,53485,128,0,54445:0:0:0:0:
64,192,53485,128,0,53725:0:0:0:0:
448,192,53725,128,0,53845:0:0:0:0:
192,192,53845,128,0,53965:0:0:0:0:
448,192,53965,128,0,54085:0:0:0:0:
64,192,54085,128,0,54205:0:0:0:0:
192,192,54205,128,0,54325:0:0:0:0:
448,192,54325,128,0,54445:0:0:0:0:
192,192,54445,128,0,55525:0:0:0:0:
64,192,54445,128,0,54685:0:0:0:0:
448,192,54685,128,0,54805:0:0:0:0:
64,192,54805,128,0,54925:0:0:0:0:
320,192,54925,128,0,55045:0:0:0:0:
448,192,55045,128,0,55165:0:0:0:0:
64,192,55165,128,0,55285:0:0:0:0:
320,192,55285,128,0,55405:0:0:0:0:
448,192,55405,128,0,55525:0:0:0:0:
64,192,55525,128,0,56365:0:0:0:0:
320,192,55525,128,0,55705:0:0:0:0:
320,192,55765,128,0,55885:0:0:0:0:
192,192,56005,128,0,56125:0:0:0:0:
448,192,56125,128,0,56245:0:0:0:0:
192,192,56245,128,0,56365:0:0:0:0:
320,192,56365,128,0,57325:0:0:0:0:
448,192,56365,128,0,56605:0:0:0:0:
192,192,56605,128,0,56725:0:0:0:0:
64,192,56725,128,0,56845:0:0:0:0:
448,192,56845,128,0,56965:0:0:0:0:
64,192,56965,128,0,57085:0:0:0:0:
192,192,57085,128,0,57205:0:0:0:0:
64,192,57205,128,0,57325:0:0:0:0:
448,192,57325,128,0,58285:0:0:0:0:
192,192,57325,128,0,57565:0:0:0:0:
320,192,57565,128,0,57685:0:0:0:0:
64,192,57685,128,0,57805:0:0:0:0:
320,192,57805,128,0,57925:0:0:0:0:
64,192,57925,128,0,58045:0:0:0:0:
192,192,58045,128,0,58165:0:0:0:0:
320,192,58165,128,0,58285:0:0:0:0:
192,192,58285,128,0,59245:0:0:0:0:
64,192,58285,128,0,58525:0:0:0:0:
448,192,58525,128,0,58645:0:0:0:0:
64,192,58645,128,0,58765:0:0:0:0:
320,192,58765,128,0,58885:0:0:0:0:
448,192,58885,128,0,58945:0:0:0:0:
448,192,59005,128,0,59065:0:0:0:0:
448,192,59125,128,0,59185:0:0:0:0:
64,192,59245,128,0,60205:0:0:0:0:
320,192,59245,128,0,59485:0:0:0:0:
192,192,59485,128,0,59605:0:0:0:0:
448,192,59605,128,0,59725:0:0:0:0:
320,192,59725,128,0,59845:0:0:0:0:
448,192,59845,128,0,59965:0:0:0:0:
192,192,59965,128,0,60085:0:0:0:0:
448,192,60085,128,0,60205:0:0:0:0:
320,192,60205,128,0,61165:0:0:0:0:
192,192,60205,128,0,60445:0:0:0:0:
64,192,60445,128,0,60565:0:0:0:0:
448,192,60565,128,0,60685:0:0:0:0:
64,192,60685,128,0,60805:0:0:0:0:
448,192,60805,128,0,60925:0:0:0:0:
192,192,60925,128,0,61045:0:0:0:0:
64,192,61045,128,0,61165:0:0:0:0:
448,192,61165,128,0,62125:0:0:0:0:
192,192,61165,128,0,61405:0:0:0:0:
320,192,61405,128,0,61525:0:0:0:0:
64,192,61525,128,0,61645:0:0:0:0:
192,192,61645,128,0,61765:0:0:0:0:
320,192,61765,128,0,61885:0:0:0:0:
64,192,61885,128,0,62005:0:0:0:0:
320,192,62005,128,0,62125:0:0:0:0:
192,192,62125,128,0,63085:0:0:0:0:
64,192,62125,128,0,62365:0:0:0:0:
320,192,62365,128,0,62485:0:0:0:0:
448,192,62485,128,0,62725:0:0:0:0:
64,192,62725,128,0,62785:0:0:0:0:
320,192,62725,128,0,62785:0:0:0:0:
64,192,62845,128,0,62905:0:0:0:0:
320,192,62845,128,0,62905:0:0:0:0:
64,192,62965,128,0,63025:0:0:0:0:
448,192,62965,128,0,63025:0:0:0:0:
320,192,63085,128,0,63685:0:0:0:0:
64,192,63085,128,0,63445:0:0:0:0:
448,192,63085,128,0,63325:0:0:0:0:
448,192,63445,128,0,63625:0:0:0:0:
192,192,63445,128,0,63565:0:0:0:0:
192,192,63685,128,0,64105:0:0:0:0:
64,192,63685,128,0,63925:0:0:0:0:
448,192,63685,128,0,63805:0:0:0:0:
320,192,63925,128,0,64165:0:0:0:0:
448,192,63925,128,0,64045:0:0:0:0:
192,192,64165,128,0,64645:0:0:0:0:
64,192,64165,128,0,64405:0:0:0:0:
448,192,64165,128,0,64285:0:0:0:0:
448,192,64405,128,0,64585:0:0:0:0:
320,192,64405,128,0,64525:0:0:0:0:
64,192,64645,128,0,65125:0:0:0:0:
448,192,64645,128,0,64765:0:0:0:0:
320,192,64645,128,0,64885:0:0:0:0:
192,192,64765,1,0,0:0:0:0:
448,192,64885,128,0,65005:0:0:0:0:
192,192,64885,128,0,65065:0:0:0:0:
448,192,65125,128,0,65605:0:0:0:0:
320,192,65125,128,0,65365:0:0:0:0:
192,192,65125,128,0,65245:0:0:0:0:
64,192,65365,128,0,65545:0:0:0:0:
192,192,65365,128,0,65485:0:0:0:0:
192,192,65605,128,0,66025:0:0:0:0:
320,192,65605,128,0,65845:0:0:0:0:
64,192,65605,128,0,65725:0:0:0:0:
448,192,65845,128,0,66085:0:0:0:0:
64,192,65845,128,0,65965:0:0:0:0:
192,192,66085,128,0,66565:0:0:0:0:
64,192,66085,128,0,66325:0:0:0:0:
320,192,66085,128,0,66205:0:0:0:0:
448,192,66205,1,0,0:0:0:0:
448,192,66325,128,0,66505:0:0:0:0:
320,192,66325,128,0,66445:0:0:0:0:
64,192,66445,1,0,0:0:0:0:
64,192,66565,128,0,67045:0:0:0:0:
320,192,66565,128,0,66805:0:0:0:0:
448,192,66565,128,0,66685:0:0:0:0:
448,192,66805,128,0,66925:0:0:0:0:
192,192,66805,128,0,66985:0:0:0:0:
448,192,67045,128,0,67525:0:0:0:0:
320,192,67045,128,0,67285:0:0:0:0:
192,192,67045,128,0,67165:0:0:0:0:
64,192,67165,1,0,0:0:0:0:
64,192,67285,128,0,67465:0:0:0:0:
192,192,67285,128,0,67405:0:0:0:0:
320,192,67525,128,0,68005:0:0:0:0:
64,192,67525,128,0,67645:0:0:0:0:
192,192,67525,128,0,67765:0:0:0:0:
448,192,67645,1,0,0:0:0:0:
448,192,67765,128,0,67945:0:0:0:0:
64,192,67765,128,0,67885:0:0:0:0:
192,192,68005,128,0,68425:0:0:0:0:
64,192,68005,128,0,68245:0:0:0:0:
448,192,68005,128,0,68125:0:0:0:0:
320,192,68125,1,0,0:0:0:0:
320,192,68245,128,0,68605:0:0:0:0:
448,192,68245,128,0,68365:0:0:0:0:
64,192,68365,1,0,0:0:0:0:
64,192,68485,128,0,68665:0:0:0:0:
192,192,68485,128,0,68785:0:0:0:0:
448,192,68485,128,0,68665:0:0:0:0:
320,192,68725,128,0,68965:0:0:0:0:
64,192,68725,128,0,68845:0:0:0:0:
448,192,68845,1,0,0:0:0:0:
192,192,68905,1,0,0:0:0:0:
64,192,68965,128,0,69445:0:0:0:0:
448,192,68965,1,0,0:0:0:0:
192,192,69045,1,0,0:0:0:0:
448,192,69125,1,0,0:0:0:0:
320,192,69205,1,0,0:0:0:0:
448,192,69285,1,0,0:0:0:0:
192,192,69365,1,0,0:0:0:0:
448,192,69445,128,0,69925:0:0:0:0:
320,192,69445,1,0,0:0:0:0:
64,192,69525,1,0,0:0:0:0:
192,192,69605,1,0,0:0:0:0:
64,192,69685,1,0,0:0:0:0:
320,192,69765,1,0,0:0:0:0:
192,192,69845,1,0,0:0:0:0:
320,192,69925,128,0,70405:0:0:0:0:
64,192,69925,1,0,0:0:0:0:
192,192,70005,1,0,0:0:0:0:
448,192,70085,1,0,0:0:0:0:
64,192,70165,1,0,0:0:0:0:
192,192,70245,1,0,0:0:0:0:
448,192,70325,1,0,0:0:0:0:
192,192,70405,128,0,70765:0:0:0:0:
64,192,70405,1,0,0:0:0:0:
448,192,70485,1,0,0:0:0:0:
64,192,70565,1,0,0:0:0:0:
320,192,70645,1,0,0:0:0:0:
448,192,70725,1,0,0:0:0:0:
64,192,70765,128,0,71245:0:0:0:0:
320,192,70765,128,0,71005:0:0:0:0:
192,192,71005,128,0,71125:0:0:0:0:
448,192,71005,1,0,0:0:0:0:
448,192,71125,128,0,71245:0:0:0:0:
320,192,71125,1,0,0:0:0:0:
320,192,71245,128,0,71365:0:0:0:0:
192,192,71245,128,0,71365:0:0:0:0:
448,192,71365,1,0,0:0:0:0:
64,192,71485,128,0,71605:0:0:0:0:
320,192,71485,1,0,0:0:0:0:
448,192,71605,128,0,71725:0:0:0:0:
192,192,71605,1,0,0:0:0:0:
192,192,71725,128,0,71845:0:0:0:0:
64,192,71725,1,0,0:0:0:0:
448,192,71845,1,0,0:0:0:0:
320,192,71965,128,0,72085:0:0:0:0:
64,192,71965,1,0,0:0:0:0:
192,192,72085,128,0,72205:0:0:0:0:
448,192,72085,1,0,0:0:0:0:
64,192,72205,128,0,72325:0:0:0:0:
448,192,72205,1,0,0:0:0:0:
192,192,72325,1,0,0:0:0:0:
320,192,72445,128,0,72565:0:0:0:0:
64,192,72445,1,0,0:0:0:0:
448,192,72565,128,0,72685:0:0:0:0:
192,192,72565,1,0,0:0:0:0:
192,192,72685,128,0,72925:0:0:0:0:
64,192,72685,128,0,73525:0:0:0:0:
320,192,72685,1,0,0:0:0:0:
320,192,72925,128,0,73045:0:0:0:0:
448,192,72925,1,0,0:0:0:0:
448,192,73045,128,0,73165:0:0:0:0:
192,192,73045,1,0,0:0:0:0:
192,192,73165,128,0,73285:0:0:0:0:
320,192,73165,1,0,0:0:0:0:
448,192,73285,1,0,0:0:0:0:
320,192,73405,128,0,73525:0:0:0:0:
192,192,73405,1,0,0:0:0:0:
448,192,73525,128,0,73645:0:0:0:0:
192,192,73645,128,0,73885:0:0:0:0:
64,192,73645,1,0,0:0:0:0:
448,192,73765,1,0,0:0:0:0:
320,192,73885,128,0,74125:0:0:0:0:
64,192,73885,1,0,0:0:0:0:
192,192,74005,1,0,0:0:0:0:
448,192,74005,1,0,0:0:0:0:
64,192,74125,128,0,74365:0:0:0:0:
192,192,74125,1,0,0:0:0:0:
448,192,74245,1,0,0:0:0:0:
320,192,74365,128,0,74605:0:0:0:0:
448,192,74365,1,0,0:0:0:0:
64,192,74485,1,0,0:0:0:0:
192,192,74485,1,0,0:0:0:0:
448,192,74605,1,0,0:0:0:0:
192,192,74605,128,0,74965:0:0:0:0:
64,192,74605,128,0,74845:0:0:0:0:
320,192,74845,128,0,74965:0:0:0:0:
64,192,74965,128,0,75565:0:0:0:0:
448,192,74965,128,0,75085:0:0:0:0:
320,192,75085,128,0,75205:0:0:0:0:
448,192,75205,128,0,75325:0:0:0:0:
320,192,75325,128,0,75445:0:0:0:0:
448,192,75445,128,0,75565:0:0:0:0:
192,192,75445,1,0,0:0:0:0:
320,192,75565,128,0,75685:0:0:0:0:
192,192,75685,128,0,76045:0:0:0:0:
448,192,75685,128,0,75805:0:0:0:0:
64,192,75805,128,0,75925:0:0:0:0:
448,192,75925,128,0,76045:0:0:0:0:
320,192,75925,1,0,0:0:0:0:
64,192,76045,128,0,76165:0:0:0:0:
320,192,76165,128,0,76525:0:0:0:0:
448,192,76165,128,0,76285:0:0:0:0:
192,192,76285,128,0,76405:0:0:0:0:
64,192,76405,128,0,76525:0:0:0:0:
448,192,76405,1,0,0:0:0:0:
192,192,76525,128,0,76885:0:0:0:0:
448,192,76525,128,0,76705:0:0:0:0:
320,192,76645,128,0,76825:0:0:0:0:
448,192,76765,128,0,76945:0:0:0:0:
64,192,76885,128,0,78325:0:0:0:0:
320,192,76885,128,0,77185:0:0:0:0:
448,192,77005,128,0,77305:0:0:0:0:
192,192,77125,128,0,77305:0:0:0:0:
320,192,77245,128,0,77425:0:0:0:0:
448,192,77365,128,0,77545:0:0:0:0:
192,192,77365,128,0,77665:0:0:0:0:
320,192,77485,128,0,77785:0:0:0:0:
448,192,77605,128,0,77785:0:0:0:0:
192,192,77725,128,0,77905:0:0:0:0:
320,192,77845,128,0,78025:0:0:0:0:
448,192,77845,128,0,78265:0:0:0:0:
192,192,77965,128,0,78145:0:0:0:0:
320,192,78085,128,0,78145:0:0:0:0:
320,192,78205,128,0,78325:0:0:0:0:
192,192,78205,128,0,78265:0:0:0:0:
448,192,78325,128,0,78385:0:0:0:0:
192,192,78325,128,0,78385:0:0:0:0:
448,192,78445,128,0,79045:0:0:0:0:
64,192,78445,128,0,78685:0:0:0:0:
320,192,78685,128,0,78805:0:0:0:0:
192,192,78805,128,0,78925:0:0:0:0:
64,192,78805,1,0,0:0:0:0:
320,192,78925,128,0,79045:0:0:0:0:
64,192,78925,1,0,0:0:0:0:
192,192,79045,1,0,0:0:0:0:
64,192,79165,128,0,79285:0:0:0:0:
320,192,79165,1,0,0:0:0:0:
192,192,79285,128,0,79405:0:0:0:0:
448,192,79285,1,0,0:0:0:0:
448,192,79405,128,0,79525:0:0:0:0:
64,192,79405,1,0,0:0:0:0:
320,192,79525,1,0,0:0:0:0:
320,192,79645,128,0,79765:0:0:0:0:
64,192,79645,1,0,0:0:0:0:
192,192,79765,128,0,79885:0:0:0:0:
448,192,79765,1,0,0:0:0:0:
320,192,79885,128,0,80005:0:0:0:0:
64,192,79885,1,0,0:0:0:0:
448,192,80005,1,0,0:0:0:0:
192,192,80125,128,0,80245:0:0:0:0:
320,192,80125,1,0,0:0:0:0:
64,192,80245,128,0,80365:0:0:0:0:
448,192,80245,1,0,0:0:0:0:
192,192,80365,128,0,80605:0:0:0:0:
320,192,80365,1,0,0:0:0:0:
448,192,80485,1,0,0:0:0:0:
320,192,80605,128,0,80845:0:0:0:0:
64,192,80605,1,0,0:0:0:0:
448,192,80725,1,0,0:0:0:0:
192,192,80725,1,0,0:0:0:0:
64,192,80845,128,0,81085:0:0:0:0:
448,192,80845,1,0,0:0:0:0:
320,192,80965,1,0,0:0:0:0:
192,192,81085,128,0,81205:0:0:0:0:
448,192,81085,1,0,0:0:0:0:
320,192,81205,128,0,81325:0:0:0:0:
64,192,81205,1,0,0:0:0:0:
448,192,81325,128,0,81565:0:0:0:0:
192,192,81325,1,0,0:0:0:0:
320,192,81445,1,0,0:0:0:0:
192,192,81565,128,0,81805:0:0:0:0:
64,192,81565,1,0,0:0:0:0:
448,192,81685,1,0,0:0:0:0:
320,192,81685,1,0,0:0:0:0:
320,192,81805,128,0,82045:0:0:0:0:
64,192,81805,1,0,0:0:0:0:
192,192,81925,1,0,0:0:0:0:
64,192,82045,128,0,82285:0:0:0:0:
448,192,82045,1,0,0:0:0:0:
320,192,82165,1,0,0:0:0:0:
448,192,82165,1,0,0:0:0:0:
192,192,82285,128,0,82645:0:0:0:0:
320,192,82285,128,0,82525:0:0:0:0:
448,192,82525,128,0,82645:0:0:0:0:
320,192,82645,128,0,83245:0:0:0:0:
64,192,82645,128,0,82765:0:0:0:0:
448,192,82765,128,0,82885:0:0:0:0:
64,192,82885,128,0,83005:0:0:0:0:
448,192,83005,128,0,83125:0:0:0:0:
64,192,83125,128,0,83245:0:0:0:0:
192,192,83125,1,0,0:0:0:0:
448,192,83245,128,0,83365:0:0:0:0:
192,192,83365,128,0,83845:0:0:0:0:
320,192,83365,128,0,83485:0:0:0:0:
64,192,83485,128,0,83605:0:0:0:0:
448,192,83605,128,0,83725:0:0:0:0:
320,192,83605,1,0,0:0:0:0:
64,192,83725,1,0,0:0:0:0:
320,192,83845,128,0,84205:0:0:0:0:
64,192,83845,128,0,83965:0:0:0:0:
448,192,83965,128,0,84085:0:0:0:0:
192,192,84085,128,0,84205:0:0:0:0:
448,192,84205,128,0,86125:0:0:0:0:
64,192,84205,128,0,84325:0:0:0:0:
320,192,84325,128,0,84485:0:0:0:0:
192,192,84405,128,0,84565:0:0:0:0:
64,192,84485,128,0,84645:0:0:0:0:
320,192,84565,128,0,84725:0:0:0:0:
192,192,84645,128,0,84805:0:0:0:0:
64,192,84725,128,0,84965:0:0:0:0:
320,192,84805,128,0,84885:0:0:0:0:
192,192,84885,128,0,85045:0:0:0:0:
320,192,84965,128,0,85125:0:0:0:0:
64,192,85045,128,0,85225:0:0:0:0:
192,192,85125,128,0,85285:0:0:0:0:
320,192,85205,128,0,85365:0:0:0:0:
64,192,85285,128,0,85465:0:0:0:0:
192,192,85365,128,0,85525:0:0:0:0:
320,192,85445,128,0,85605:0:0:0:0:
64,192,85525,128,0,85705:0:0:0:0:
192,192,85605,128,0,85845:0:0:0:0:
320,192,85685,128,0,85765:0:0:0:0:
64,192,85765,128,0,85925:0:0:0:0:
320,192,85845,128,0,86005:0:0:0:0:
192,192,85925,128,0,86005:0:0:0:0:
64,192,86005,128,0,86065:0:0:0:0:
320,192,86065,128,0,86125:0:0:0:0:
64,192,86125,128,0,87205:0:0:0:0:
192,192,86125,128,0,86845:0:0:0:0:
448,192,86365,128,0,86485:0:0:0:0:
320,192,86485,128,0,86605:0:0:0:0:
448,192,86605,128,0,86725:0:0:0:0:
320,192,86725,128,0,86785:0:0:0:0:
320,192,86845,128,0,86965:0:0:0:0:
448,192,86965,128,0,87085:0:0:0:0:
192,192,86965,128,0,87085:0:0:0:0:
320,192,87085,128,0,87145:0:0:0:0:
320,192,87205,128,0,87685:0:0:0:0:
192,192,87205,128,0,87565:0:0:0:0:
448,192,87325,128,0,87445:0:0:0:0:
64,192,87445,128,0,87565:0:0:0:0:
448,192,87565,128,0,87625:0:0:0:0:
192,192,87685,128,0,88165:0:0:0:0:
64,192,87685,128,0,87925:0:0:0:0:
448,192,87685,128,0,87805:0:0:0:0:
320,192,87805,128,0,87925:0:0:0:0:
448,192,87925,128,0,87985:0:0:0:0:
320,192,88045,128,0,88765:0:0:0:0:
64,192,88045,128,0,88285:0:0:0:0:
448,192,88045,128,0,89125:0:0:0:0:
192,192,88285,128,0,88405:0:0:0:0:
64,192,88405,128,0,88525:0:0:0:0:
192,192,88525,128,0,88585:0:0:0:0:
192,192,88645,128,0,88765:0:0:0:0:
64,192,88765,128,0,88885:0:0:0:0:
192,192,88885,128,0,89005:0:0:0:0:
320,192,88885,128,0,89005:0:0:0:0:
64,192,89005,128,0,89065:0:0:0:0:
320,192,89125,128,0,89605:0:0:0:0:
64,192,89125,128,0,89485:0:0:0:0:
192,192,89245,128,0,89365:0:0:0:0:
448,192,89365,128,0,89485:0:0:0:0:
192,192,89485,128,0,89545:0:0:0:0:
192,192,89605,128,0,90085:0:0:0:0:
448,192,89605,128,0,89845:0:0:0:0:
64,192,89605,128,0,89725:0:0:0:0:
320,192,89725,128,0,89845:0:0:0:0:
64,192,89845,128,0,89905:0:0:0:0:
320,192,89965,128,0,90685:0:0:0:0:
448,192,89965,128,0,90205:0:0:0:0:
64,192,89965,128,0,91285:0:0:0:0:
192,192,90205,128,0,90325:0:0:0:0:
448,192,90325,128,0,90445:0:0:0:0:
192,192,90445,128,0,90505:0:0:0:0:
192,192,90565,128,0,90685:0:0:0:0:
448,192,90685,128,0,90805:0:0:0:0:
192,192,90805,128,0,90925:0:0:0:0:
320,192,90805,128,0,90925:0:0:0:0:
448,192,90925,128,0,91045:0:0:0:0:
320,192,91045,128,0,91165:0:0:0:0:
192,192,91045,128,0,91165:0:0:0:0:
448,192,91165,128,0,91285:0:0:0:0:
192,192,91285,128,0,91525:0:0:0:0:
64,192,91405,128,0,91525:0:0:0:0:
320,192,91525,128,0,91765:0:0:0:0:
448,192,91525,128,0,91645:0:0:0:0:
64,192,91645,128,0,91765:0:0:0:0:
448,192,91765,128,0,91885:0:0:0:0:
192,192,91885,128,0,92125:0:0:0:0:
320,192,91885,128,0,92005:0:0:0:0:
64,192,92005,128,0,92365:0:0:0:0:
320,192,92085,128,0,92165:0:0:0:0:
448,192,92125,128,0,92245:0:0:0:0:
320,192,92245,128,0,93445:0:0:0:0:
192,192,92245,128,0,92325:0:0:0:0:
448,192,92325,128,0,92405:0:0:0:0:
192,192,92425,128,0,92545:0:0:0:0:
448,192,92485,128,0,92725:0:0:0:0:
192,192,92605,128,0,92725:0:0:0:0:
64,192,92725,128,0,92805:0:0:0:0:
448,192,92805,128,0,92965:0:0:0:0:
192,192,92845,1,0,0:0:0:0:
192,192,92965,128,0,93205:0:0:0:0:
64,192,93085,128,0,93325:0:0:0:0:
448,192,93205,128,0,93285:0:0:0:0:
192,192,93285,128,0,93445:0:0:0:0:
448,192,93445,128,0,93805:0:0:0:0:
64,192,93445,128,0,93565:0:0:0:0:
192,192,93565,128,0,93685:0:0:0:0:
320,192,93685,128,0,93805:0:0:0:0:
64,192,93805,128,0,94645:0:0:0:0:
192,192,93805,128,0,95365:0:0:0:0:
448,192,94045,128,0,94165:0:0:0:0:
320,192,94165,128,0,94285:0:0:0:0:
448,192,94285,128,0,94345:0:0:0:0:
448,192,94405,128,0,94525:0:0:0:0:
320,192,94525,128,0,94585:0:0:0:0:
448,192,94645,128,0,94885:0:0:0:0:
320,192,94645,128,0,94765:0:0:0:0:
64,192,94765,128,0,94825:0:0:0:0:
320,192,94885,128,0,95245:0:0:0:0:
64,192,94885,128,0,95005:0:0:0:0:
448,192,95005,128,0,95125:0:0:0:0:
64,192,95125,128,0,95245:0:0:0:0:
448,192,95245,128,0,95305:0:0:0:0:
448,192,95365,128,0,95605:0:0:0:0:
64,192,95365,128,0,95485:0:0:0:0:
320,192,95485,128,0,95605:0:0:0:0:
64,192,95605,128,0,95725:0:0:0:0:
320,192,95725,128,0,95965:0:0:0:0:
192,192,95725,128,0,96445:0:0:0:0:
448,192,95965,128,0,96205:0:0:0:0:
64,192,96085,128,0,96205:0:0:0:0:
320,192,96205,128,0,96445:0:0:0:0:
448,192,96325,128,0,96445:0:0:0:0:
64,192,96445,128,0,96565:0:0:0:0:
320,192,96565,128,0,96685:0:0:0:0:
192,192,96565,128,0,96685:0:0:0:0:
448,192,96685,128,0,96805:0:0:0:0:
192,192,96805,128,0,97705:0:0:0:0:
64,192,96805,128,0,97045:0:0:0:0:
320,192,96925,128,0,97165:0:0:0:0:
448,192,97045,128,0,97105:0:0:0:0:
448,192,97165,128,0,97285:0:0:0:0:
64,192,97285,128,0,97645:0:0:0:0:
320,192,97285,128,0,97405:0:0:0:0:
448,192,97405,128,0,97525:0:0:0:0:
320,192,97525,128,0,97645:0:0:0:0:
448,192,97645,128,0,97765:0:0:0:0:
192,192,97765,128,0,98245:0:0:0:0:
320,192,97765,128,0,97885:0:0:0:0:
448,192,97885,128,0,98005:0:0:0:0:
64,192,98005,128,0,98125:0:0:0:0:
448,192,98125,128,0,98305:0:0:0:0:
320,192,98245,128,0,98725:0:0:0:0:
64,192,98245,128,0,98365:0:0:0:0:
192,192,98365,128,0,98485:0:0:0:0:
448,192,98485,128,0,98605:0:0:0:0:
192,192,98605,128,0,98725:0:0:0:0:
448,192,98725,128,0,99205:0:0:0:0:
64,192,98725,128,0,98845:0:0:0:0:
192,192,98845,128,0,99085:0:0:0:0:
320,192,98965,128,0,99085:0:0:0:0:
64,192,99085,128,0,99205:0:0:0:0:
192,192,99205,128,0,99505:0:0:0:0:
320,192,99205,128,0,99445:0:0:0:0:
448,192,99325,128,0,99445:0:0:0:0:
64,192,99445,128,0,99685:0:0:0:0:
192,192,99565,128,0,101485:0:0:0:0:
448,192,99565,128,0,99685:0:0:0:0:
320,192,99605,128,0,99845:0:0:0:0:
64,192,99805,128,0,99925:0:0:0:0:
448,192,99845,128,0,100005:0:0:0:0:
320,192,99925,128,0,100105:0:0:0:0:
64,192,100005,128,0,100165:0:0:0:0:
448,192,100085,128,0,100165:0:0:0:0:
320,192,100165,128,0,100405:0:0:0:0:
64,192,100285,128,0,100405:0:0:0:0:
448,192,100405,128,0,100485:0:0:0:0:
64,192,100485,128,0,100565:0:0:0:0:
448,192,100565,128,0,100645:0:0:0:0:
320,192,100645,128,0,100885:0:0:0:0:
64,192,100765,128,0,100885:0:0:0:0:
448,192,100885,128,0,100965:0:0:0:0:
64,192,100965,128,0,101045:0:0:0:0:
448,192,101065,128,0,101245:0:0:0:0:
320,192,101125,128,0,101365:0:0:0:0:
64,192,101245,128,0,101365:0:0:0:0:
448,192,101365,128,0,101525:0:0:0:0:
64,192,101445,128,0,101605:0:0:0:0:
320,192,101485,128,0,103285:0:0:0:0:
448,192,101605,128,0,101845:0:0:0:0:
192,192,101605,1,0,0:0:0:0:
192,192,101725,128,0,101845:0:0:0:0:
64,192,101845,128,0,101925:0:0:0:0:
192,192,101925,128,0,102005:0:0:0:0:
64,192,102005,128,0,102085:0:0:0:0:
448,192,102085,128,0,102325:0:0:0:0:
192,192,102205,128,0,102325:0:0:0:0:
64,192,102325,128,0,102405:0:0:0:0:
192,192,102405,128,0,102485:0:0:0:0:
64,192,102485,128,0,102565:0:0:0:0:
448,192,102565,128,0,102805:0:0:0:0:
192,192,102685,128,0,102805:0:0:0:0:
64,192,102805,128,0,102885:0:0:0:0:
192,192,102885,128,0,102965:0:0:0:0:
64,192,102965,128,0,103045:0:0:0:0:
448,192,103045,128,0,103285:0:0:0:0:
192,192,103045,1,0,0:0:0:0:
192,192,103165,128,0,103285:0:0:0:0:
64,192,103165,128,0,103285:0:0:0:0:
64,192,103405,128,0,104245:0:0:0:0:
192,192,103405,128,0,103645:0:0:0:0:
320,192,103645,128,0,103885:0:0:0:0:
448,192,103765,128,0,103885:0:0:0:0:
192,192,103885,128,0,104125:0:0:0:0:
320,192,104005,128,0,104125:0:0:0:0:
448,192,104125,128,0,104485:0:0:0:0:
192,192,104245,128,0,104365:0:0:0:0:
320,192,104245,128,0,104365:0:0:0:0:
64,192,104365,128,0,104485:0:0:0:0:
320,192,104485,128,0,104605:0:0:0:0:
192,192,104485,128,0,104725:0:0:0:0:
448,192,104605,128,0,104725:0:0:0:0:
64,192,104725,128,0,104965:0:0:0:0:
320,192,104845,128,0,104965:0:0:0:0:
192,192,104965,128,0,105205:0:0:0:0:
448,192,104965,128,0,105085:0:0:0:0:
320,192,105085,128,0,105205:0:0:0:0:
64,192,105205,128,0,105445:0:0:0:0:
320,192,105325,128,0,106885:0:0:0:0:
192,192,105325,128,0,105565:0:0:0:0:
64,192,105565,128,0,105805:0:0:0:0:
192,192,105685,128,0,105805:0:0:0:0:
448,192,105805,128,0,105925:0:0:0:0:
192,192,105925,128,0,106165:0:0:0:0:
448,192,106045,128,0,106165:0:0:0:0:
64,192,106165,128,0,106285:0:0:0:0:
448,192,106285,128,0,106525:0:0:0:0:
64,192,106405,128,0,106525:0:0:0:0:
192,192,106525,128,0,106765:0:0:0:0:
64,192,106645,128,0,106765:0:0:0:0:
448,192,106765,128,0,106885:0:0:0:0:
192,192,106885,128,0,107005:0:0:0:0:
64,192,106885,128,0,106945:0:0:0:0:
448,192,107005,128,0,107125:0:0:0:0:
64,192,107005,128,0,107245:0:0:0:0:
192,192,107125,128,0,107245:0:0:0:0:
448,192,107245,128,0,107965:0:0:0:0:
320,192,107245,128,0,107605:0:0:0:0:
64,192,107485,128,0,107605:0:0:0:0:
192,192,107605,128,0,107725:0:0:0:0:
320,192,107725,128,0,107845:0:0:0:0:
64,192,107845,128,0,107965:0:0:0:0:
192,192,107965,128,0,108085:0:0:0:0:
320,192,108085,128,0,108205:0:0:0:0:
448,192,108085,128,0,108205:0:0:0:0:
64,192,108205,128,0,108685:0:0:0:0:
192,192,108205,128,0,108565:0:0:0:0:
320,192,108445,128,0,108565:0:0:0:0:
448,192,108565,128,0,108685:0:0:0:0:
192,192,108685,128,0,108805:0:0:0:0:
320,192,108805,128,0,108925:0:0:0:0:
64,192,108805,128,0,108925:0:0:0:0:
448,192,108925,128,0,109045:0:0:0:0:
192,192,108925,128,0,109045:0:0:0:0:
320,192,109045,128,0,109285:0:0:0:0:
192,192,109165,128,0,109525:0:0:0:0:
64,192,109165,128,0,109285:0:0:0:0:
448,192,109165,128,0,109405:0:0:0:0:
64,192,109405,128,0,109525:0:0:0:0:
320,192,109525,128,0,109765:0:0:0:0:
448,192,109525,128,0,109885:0:0:0:0:
192,192,109645,128,0,110005:0:0:0:0:
64,192,109645,128,0,109765:0:0:0:0:
320,192,110005,128,0,110245:0:0:0:0:
64,192,110005,128,0,110125:0:0:0:0:
448,192,110125,128,0,110245:0:0:0:0:
192,192,110125,128,0,110365:0:0:0:0:
64,192,110245,1,0,0:0:0:0:
64,192,110365,128,0,110965:0:0:0:0:
448,192,110365,128,0,110485:0:0:0:0:
192,192,110485,128,0,110545:0:0:0:0:
320,192,110545,1,0,0:0:0:0:
448,192,110605,128,0,110665:0:0:0:0:
192,192,110665,1,0,0:0:0:0:
320,192,110725,128,0,110785:0:0:0:0:
448,192,110785,1,0,0:0:0:0:
320,192,110845,128,0,110905:0:0:0:0:
192,192,110905,1,0,0:0:0:0:
448,192,110965,128,0,111025:0:0:0:0:
320,192,111025,1,0,0:0:0:0:
64,192,111085,128,0,111325:0:0:0:0:
192,192,111085,128,0,112165:0:0:0:0:
448,192,111085,128,0,112165:0:0:0:0:
320,192,111325,128,0,111445:0:0:0:0:
64,192,111445,128,0,111565:0:0:0:0:
320,192,111565,128,0,111625:0:0:0:0:
320,192,111685,128,0,111805:0:0:0:0:
64,192,111805,128,0,111925:0:0:0:0:
320,192,111925,128,0,112045:0:0:0:0:
64,192,112045,128,0,112105:0:0:0:0:
320,192,112165,128,0,112645:0:0:0:0:
64,192,112165,128,0,112405:0:0:0:0:
192,192,112285,128,0,112525:0:0:0:0:
448,192,112405,128,0,112525:0:0:0:0:
64,192,112525,128,0,112645:0:0:0:0:
192,192,112645,128,0,113005:0:0:0:0:
448,192,112645,128,0,112885:0:0:0:0:
64,192,112765,128,0,112885:0:0:0:0:
320,192,112885,128,0,112945:0:0:0:0:
320,192,113005,128,0,114565:0:0:0:0:
64,192,113005,128,0,113305:0:0:0:0:
448,192,113005,128,0,113245:0:0:0:0:
192,192,113245,128,0,113365:0:0:0:0:
64,192,113365,128,0,113605:0:0:0:0:
448,192,113365,128,0,113485:0:0:0:0:
192,192,113485,1,0,0:0:0:0:
192,192,113605,128,0,113785:0:0:0:0:
448,192,113605,128,0,113725:0:0:0:0:
64,192,113725,128,0,113845:0:0:0:0:
192,192,113845,128,0,114085:0:0:0:0:
448,192,113845,128,0,113965:0:0:0:0:
64,192,113965,128,0,114025:0:0:0:0:
448,192,114085,128,0,114265:0:0:0:0:
64,192,114085,128,0,114205:0:0:0:0:
192,192,114205,128,0,114325:0:0:0:0:
448,192,114325,128,0,114565:0:0:0:0:
64,192,114325,128,0,114445:0:0:0:0:
192,192,114445,1,0,0:0:0:0:
192,192,114565,128,0,114685:0:0:0:0:
64,192,114565,128,0,114745:0:0:0:0:
448,192,114685,128,0,114925:0:0:0:0:
320,192,114685,128,0,114805:0:0:0:0:
64,192,114805,128,0,115045:0:0:0:0:
192,192,114805,128,0,115165:0:0:0:0:
320,192,114925,128,0,115405:0:0:0:0:
448,192,115045,128,0,116005:0:0:0:0:
64,192,115165,128,0,115285:0:0:0:0:
192,192,115285,128,0,115405:0:0:0:0:
64,192,115405,128,0,115465:0:0:0:0:
64,192,115525,128,0,115645:0:0:0:0:
320,192,115525,128,0,115585:0:0:0:0:
320,192,115645,128,0,115765:0:0:0:0:
192,192,115645,128,0,115765:0:0:0:0:
64,192,115765,128,0,115885:0:0:0:0:
192,192,115885,128,0,116245:0:0:0:0:
320,192,115885,128,0,116005:0:0:0:0:
64,192,116005,128,0,116965:0:0:0:0:
448,192,116245,128,0,116365:0:0:0:0:
192,192,116365,128,0,116485:0:0:0:0:
448,192,116485,128,0,116605:0:0:0:0:
320,192,116485,128,0,116545:0:0:0:0:
192,192,116605,128,0,116725:0:0:0:0:
320,192,116605,128,0,116725:0:0:0:0:
448,192,116725,128,0,116845:0:0:0:0:
192,192,116845,128,0,117085:0:0:0:0:
320,192,116845,128,0,116965:0:0:0:0:
448,192,116965,128,0,117085:0:0:0:0:
320,192,117085,128,0,117445:0:0:0:0:
64,192,117085,128,0,117325:0:0:0:0:
192,192,117325,128,0,117565:0:0:0:0:
448,192,117325,128,0,117685:0:0:0:0:
64,192,117565,128,0,117805:0:0:0:0:
320,192,117565,128,0,117925:0:0:0:0:
192,192,117805,128,0,118045:0:0:0:0:
448,192,117805,128,0,118165:0:0:0:0:
64,192,117925,128,0,118285:0:0:0:0:
320,192,118045,128,0,118285:0:0:0:0:
192,192,118165,128,0,118405:0:0:0:0:
448,192,118285,128,0,118525:0:0:0:0:
64,192,118405,1,0,0:0:0:0:
320,192,118465,1,0,0:0:0:0:
192,192,118525,128,0,118765:0:0:0:0:
64,192,118585,1,0,0:0:0:0:
448,192,118645,1,0,0:0:0:0:
320,192,118705,1,0,0:0:0:0:
64,192,118765,1,0,0:0:0:0:
448,192,118825,1,0,0:0:0:0:
320,192,118885,128,0,120054:0:0:0:0:
448,192,120054,128,0,121097:0:0:0:0:
192,192,120054,1,0,0:0:0:0:
64,192,121097,128,0,122141:0:0:0:0:
320,192,121097,1,0,0:0:0:0:
320,192,121489,1,0,0:0:0:0:
448,192,121880,1,0,0:0:0:0:
320,192,122141,128,0,122663:0:0:0:0:
192,192,122141,1,0,0:0:0:0:
448,192,122663,1,0,0:0:0:0:
64,192,122793,1,0,0:0:0:0:
448,192,122924,1,0,0:0:0:0:
64,192,123054,1,0,0:0:0:0:
192,192,123184,128,0,124228:0:0:0:0:
320,192,123184,1,0,0:0:0:0:
320,192,123576,1,0,0:0:0:0:
320,192,123967,1,0,0:0:0:0:
320,192,124228,128,0,125271:0:0:0:0:
448,192,124228,1,0,0:0:0:0:
448,192,125011,1,0,0:0:0:0:
192,192,125141,1,0,0:0:0:0:
64,192,125271,128,0,127358:0:0:0:0:
448,192,125271,1,0,0:0:0:0:
192,192,125532,128,0,125663:0:0:0:0:
320,192,125663,128,0,125793:0:0:0:0:
448,192,125793,128,0,125924:0:0:0:0:
192,192,125924,128,0,126054:0:0:0:0:
448,192,126054,128,0,126184:0:0:0:0:
320,192,126184,128,0,126315:0:0:0:0:
448,192,126315,128,0,126445:0:0:0:0:
192,192,126315,1,0,0:0:0:0:
320,192,126445,128,0,126576:0:0:0:0:
192,192,126576,128,0,126706:0:0:0:0:
320,192,126706,128,0,126837:0:0:0:0:
448,192,126837,128,0,126967:0:0:0:0:
192,192,126967,128,0,127097:0:0:0:0:
448,192,127097,128,0,127228:0:0:0:0:
320,192,127228,128,0,127358:0:0:0:0:
192,192,127358,128,0,128402:0:0:0:0:
448,192,127358,1,0,0:0:0:0:
448,192,127750,1,0,0:0:0:0:
320,192,128141,1,0,0:0:0:0:
320,192,128402,128,0,129445:0:0:0:0:
448,192,128402,1,0,0:0:0:0:
448,192,129445,128,0,130489:0:0:0:0:
64,192,129445,1,0,0:0:0:0:
64,192,129837,1,0,0:0:0:0:
64,192,130228,1,0,0:0:0:0:
192,192,130489,128,0,131271:0:0:0:0:
320,192,130489,1,0,0:0:0:0:
64,192,131011,1,0,0:0:0:0:
448,192,131141,1,0,0:0:0:0:
64,192,131271,1,0,0:0:0:0:
448,192,131402,1,0,0:0:0:0:
64,192,131532,128,0,132576:0:0:0:0:
320,192,131532,1,0,0:0:0:0:
320,192,131924,1,0,0:0:0:0:
320,192,132315,1,0,0:0:0:0:
192,192,132576,128,0,133358:0:0:0:0:
448,192,132576,1,0,0:0:0:0:
64,192,133358,1,0,0:0:0:0:
320,192,133489,1,0,0:0:0:0:
448,192,133619,128,0,135706:0:0:0:0:
192,192,133619,1,0,0:0:0:0:
64,192,133880,128,0,134011:0:0:0:0:
192,192,134011,128,0,134141:0:0:0:0:
320,192,134141,128,0,134271:0:0:0:0:
192,192,134271,128,0,134402:0:0:0:0:
64,192,134402,128,0,134532:0:0:0:0:
192,192,134532,128,0,134663:0:0:0:0:
320,192,134663,128,0,134793:0:0:0:0:
64,192,134663,1,0,0:0:0:0:
64,192,134793,128,0,134924:0:0:0:0:
192,192,134924,128,0,135054:0:0:0:0:
320,192,135054,128,0,135184:0:0:0:0:
64,192,135184,128,0,135315:0:0:0:0:
192,192,135315,128,0,135445:0:0:0:0:
320,192,135445,128,0,135576:0:0:0:0:
64,192,135576,128,0,135706:0:0:0:0:
320,192,135706,1,0,0:0:0:0:
192,192,135706,128,0,136750:0:0:0:0:
448,192,135967,1,0,0:0:0:0:
320,192,136097,1,0,0:0:0:0:
320,192,136489,1,0,0:0:0:0:
320,192,136750,128,0,137793:0:0:0:0:
64,192,136750,1,0,0:0:0:0:
192,192,137271,1,0,0:0:0:0:
64,192,137402,1,0,0:0:0:0:
448,192,137532,1,0,0:0:0:0:
64,192,137663,1,0,0:0:0:0:
192,192,137793,128,0,138837:0:0:0:0:
448,192,137793,1,0,0:0:0:0:
320,192,138054,1,0,0:0:0:0:
448,192,138184,1,0,0:0:0:0:
320,192,138576,1,0,0:0:0:0:
64,192,138837,128,0,139619:0:0:0:0:
448,192,138837,1,0,0:0:0:0:
448,192,139358,1,0,0:0:0:0:
192,192,139489,1,0,0:0:0:0:
448,192,139619,1,0,0:0:0:0:
192,192,139750,1,0,0:0:0:0:
320,192,139880,128,0,140924:0:0:0:0:
64,192,139880,1,0,0:0:0:0:
64,192,140271,1,0,0:0:0:0:
64,192,140663,1,0,0:0:0:0:
192,192,140924,128,0,141967:0:0:0:0:
448,192,140924,1,0,0:0:0:0:
64,192,141445,1,0,0:0:0:0:
448,192,141576,1,0,0:0:0:0:
64,192,141706,1,0,0:0:0:0:
448,192,141837,1,0,0:0:0:0:
64,192,141967,128,0,143532:0:0:0:0:
320,192,141967,1,0,0:0:0:0:
320,192,142358,1,0,0:0:0:0:
448,192,142489,128,0,143011:0:0:0:0:
320,192,142619,1,0,0:0:0:0:
192,192,142750,1,0,0:0:0:0:
320,192,143011,128,0,143793:0:0:0:0:
192,192,143011,1,0,0:0:0:0:
192,192,143532,1,0,0:0:0:0:
448,192,143663,1,0,0:0:0:0:
192,192,143793,128,0,144054:0:0:0:0:
64,192,143793,128,0,144054:0:0:0:0:
320,192,144054,128,0,145097:0:0:0:0:
448,192,144054,128,0,145097:0:0:0:0:
192,192,144445,1,0,0:0:0:0:
192,192,145097,128,0,146141:0:0:0:0:
64,192,145097,128,0,146141:0:0:0:0:
448,192,145619,1,0,0:0:0:0:
320,192,145750,1,0,0:0:0:0:
448,192,145880,1,0,0:0:0:0:
320,192,146141,128,0,147184:0:0:0:0:
448,192,146141,128,0,147184:0:0:0:0:
192,192,146532,1,0,0:0:0:0:
64,192,146924,1,0,0:0:0:0:
192,192,147054,1,0,0:0:0:0:
192,192,147184,128,0,148228:0:0:0:0:
64,192,147184,128,0,147315:0:0:0:0:
320,192,147315,128,0,147445:0:0:0:0:
448,192,147445,128,0,147576:0:0:0:0:
320,192,147576,128,0,147706:0:0:0:0:
448,192,147706,128,0,147837:0:0:0:0:
64,192,147837,128,0,147967:0:0:0:0:
448,192,147967,128,0,148097:0:0:0:0:
320,192,148097,128,0,148228:0:0:0:0:
448,192,148228,128,0,148788:0:0:0:0:
64,192,148228,128,0,152768:0:0:0:0:
320,192,148788,128,0,149349:0:0:0:0:
192,192,149349,128,0,149629:0:0:0:0:
192,192,149910,128,0,150190:0:0:0:0:
320,192,150470,128,0,151031:0:0:0:0:
192,192,151031,128,0,151592:0:0:0:0:
320,192,151592,128,0,151886:0:0:0:0:
192,192,152180,128,0,152474:0:0:0:0:
192,192,152768,128,0,153362:0:0:0:0:
320,192,152768,128,0,155319:0:0:0:0:
64,192,153362,128,0,153956:0:0:0:0:
448,192,153956,128,0,154637:0:0:0:0:
64,192,154637,128,0,155319:0:0:0:0:
192,192,155319,128,0,156069:0:0:0:0:
448,192,155319,128,0,158136:0:0:0:0:
64,192,156069,128,0,156750:0:0:0:0:
320,192,156750,128,0,157455:0:0:0:0:
192,192,157455,128,0,158136:0:0:0:0:
64,192,158136,128,0,159289:0:0:0:0:
448,192,160051,128,0,161851:0:0:0:0:
192,192,160291,128,0,160351:0:0:0:0:
192,192,160411,1,0,0:0:0:0:
64,192,160531,128,0,160591:0:0:0:0:
64,192,160651,1,0,0:0:0:0:
320,192,160771,128,0,160831:0:0:0:0:
320,192,160891,1,0,0:0:0:0:
192,192,161011,128,0,161071:0:0:0:0:
192,192,161131,1,0,0:0:0:0:
64,192,161251,128,0,161371:0:0:0:0:
320,192,161371,128,0,161491:0:0:0:0:
64,192,161491,128,0,161611:0:0:0:0:
320,192,161611,128,0,161731:0:0:0:0:
192,192,161731,128,0,161851:0:0:0:0:
320,192,161851,128,0,162091:0:0:0:0:
64,192,161851,128,0,161971:0:0:0:0:
448,192,161971,128,0,162211:0:0:0:0:
64,192,162091,128,0,162411:0:0:0:0:
192,192,162171,128,0,162331:0:0:0:0:
320,192,162251,128,0,162491:0:0:0:0:
448,192,162331,128,0,162571:0:0:0:0:
192,192,162411,128,0,162651:0:0:0:0:
64,192,162491,128,0,162731:0:0:0:0:
320,192,162571,128,0,162811:0:0:0:0:
448,192,162651,128,0,163051:0:0:0:0:
192,192,162731,128,0,162891:0:0:0:0:
64,192,162811,128,0,162971:0:0:0:0:
320,192,162891,128,0,163131:0:0:0:0:
192,192,162971,128,0,163211:0:0:0:0:
64,192,163051,128,0,163291:0:0:0:0:
448,192,163131,128,0,163531:0:0:0:0:
320,192,163211,128,0,163371:0:0:0:0:
192,192,163291,128,0,163451:0:0:0:0:
64,192,163371,128,0,163611:0:0:0:0:
320,192,163451,128,0,163691:0:0:0:0:
192,192,163531,128,0,163771:0:0:0:0:
448,192,163611,128,0,163851:0:0:0:0:
64,192,163691,128,0,163851:0:0:0:0:
320,192,163771,128,0,163931:0:0:0:0:
192,192,163851,128,0,163931:0:0:0:0:
64,192,163931,128,0,164251:0:0:0:0:
448,192,163931,128,0,164731:0:0:0:0:
320,192,164131,128,0,164251:0:0:0:0:
192,192,164251,128,0,164371:0:0:0:0:
320,192,164371,128,0,164491:0:0:0:0:
64,192,164491,128,0,164611:0:0:0:0:
192,192,164611,128,0,164731:0:0:0:0:
320,192,164731,128,0,164971:0:0:0:0:
64,192,164731,128,0,164851:0:0:0:0:
448,192,164851,128,0,164971:0:0:0:0:
192,192,164971,128,0,165571:0:0:0:0:
64,192,164971,128,0,165091:0:0:0:0:
320,192,165091,128,0,165211:0:0:0:0:
448,192,165211,128,0,165331:0:0:0:0:
64,192,165331,128,0,165451:0:0:0:0:
448,192,165451,128,0,165571:0:0:0:0:
320,192,165571,128,0,165691:0:0:0:0:
64,192,165571,128,0,165691:0:0:0:0:
192,192,165691,128,0,165811:0:0:0:0:
448,192,165691,128,0,165811:0:0:0:0:
64,192,165811,128,0,166171:0:0:0:0:
320,192,165811,128,0,166051:0:0:0:0:
448,192,166051,128,0,166171:0:0:0:0:
192,192,166171,128,0,166651:0:0:0:0:
320,192,166171,128,0,166411:0:0:0:0:
448,192,166411,128,0,166531:0:0:0:0:
64,192,166531,128,0,166651:0:0:0:0:
320,192,166651,128,0,166891:0:0:0:0:
448,192,166651,128,0,166771:0:0:0:0:
192,192,166771,128,0,167011:0:0:0:0:
64,192,166891,128,0,167731:0:0:0:0:
448,192,166891,128,0,167011:0:0:0:0:
320,192,167011,128,0,167131:0:0:0:0:
192,192,167131,128,0,167251:0:0:0:0:
448,192,167251,128,0,167371:0:0:0:0:
320,192,167371,128,0,167491:0:0:0:0:
192,192,167491,128,0,167611:0:0:0:0:
448,192,167611,128,0,167731:0:0:0:0:
192,192,167731,128,0,167851:0:0:0:0:
320,192,167731,128,0,167851:0:0:0:0:
448,192,167851,1,0,0:0:0:0:
64,192,167911,1,0,0:0:0:0:
320,192,167971,1,0,0:0:0:0:
192,192,168031,1,0,0:0:0:0:
64,192,168091,1,0,0:0:0:0:
448,192,168091,1,0,0:0:0:0:
320,192,168211,128,0,168271:0:0:0:0:
192,192,168211,1,0,0:0:0:0:
192,192,168331,128,0,168391:0:0:0:0:
64,192,168331,1,0,0:0:0:0:
448,192,168451,128,0,168511:0:0:0:0:
64,192,168451,1,0,0:0:0:0:
192,192,168571,128,0,168631:0:0:0:0:
320,192,168571,1,0,0:0:0:0:
64,192,168691,128,0,168751:0:0:0:0:
448,192,168691,1,0,0:0:0:0:
64,192,168811,128,0,168871:0:0:0:0:
320,192,168811,1,0,0:0:0:0:
320,192,168931,128,0,168991:0:0:0:0:
192,192,168931,1,0,0:0:0:0:
448,192,169051,128,0,169111:0:0:0:0:
64,192,169051,1,0,0:0:0:0:
192,192,169171,128,0,169231:0:0:0:0:
320,192,169171,1,0,0:0:0:0:
320,192,169291,128,0,169351:0:0:0:0:
64,192,169291,1,0,0:0:0:0:
448,192,169411,128,0,169471:0:0:0:0:
192,192,169411,1,0,0:0:0:0:
192,192,169531,128,0,169611:0:0:0:0:
64,192,169531,1,0,0:0:0:0:
320,192,169611,128,0,169691:0:0:0:0:
448,192,169691,128,0,169851:0:0:0:0:
64,192,169771,1,0,0:0:0:0:
192,192,169851,128,0,169931:0:0:0:0:
448,192,169931,128,0,170011:0:0:0:0:
64,192,170011,128,0,170171:0:0:0:0:
320,192,170011,1,0,0:0:0:0:
192,192,170131,1,0,0:0:0:0:
448,192,170171,128,0,170251:0:0:0:0:
320,192,170251,128,0,170331:0:0:0:0:
192,192,170331,128,0,170491:0:0:0:0:
64,192,170491,128,0,170571:0:0:0:0:
448,192,170491,1,0,0:0:0:0:
192,192,170611,1,0,0:0:0:0:
320,192,170651,128,0,170731:0:0:0:0:
448,192,170731,128,0,170811:0:0:0:0:
192,192,170811,128,0,170891:0:0:0:0:
320,192,170971,128,0,171051:0:0:0:0:
448,192,170971,1,0,0:0:0:0:
64,192,171051,128,0,171131:0:0:0:0:
192,192,171211,128,0,171331:0:0:0:0:
448,192,171211,1,0,0:0:0:0:
320,192,171331,128,0,171451:0:0:0:0:
448,192,171331,1,0,0:0:0:0:
192,192,171451,128,0,171571:0:0:0:0:
64,192,171451,1,0,0:0:0:0:
64,192,171571,128,0,172171:0:0:0:0:
448,192,171571,1,0,0:0:0:0:
320,192,171571,128,0,171811:0:0:0:0:
192,192,171811,128,0,171931:0:0:0:0:
448,192,171931,128,0,172051:0:0:0:0:
320,192,172051,128,0,172171:0:0:0:0:
448,192,172171,128,0,172571:0:0:0:0:
192,192,172171,128,0,172411:0:0:0:0:
64,192,172291,128,0,172411:0:0:0:0:
320,192,172411,128,0,172531:0:0:0:0:
64,192,172531,128,0,172771:0:0:0:0:
192,192,172571,128,0,173291:0:0:0:0:
320,192,172651,128,0,172771:0:0:0:0:
448,192,172771,128,0,173011:0:0:0:0:
320,192,172891,128,0,173011:0:0:0:0:
64,192,173011,128,0,173131:0:0:0:0:
448,192,173131,128,0,173251:0:0:0:0:
64,192,173251,128,0,173371:0:0:0:0:
320,192,173291,128,0,173451:0:0:0:0:
448,192,173371,128,0,173491:0:0:0:0:
192,192,173451,128,0,173531:0:0:0:0:
64,192,173531,128,0,173611:0:0:0:0:
320,192,173611,128,0,173691:0:0:0:0:
448,192,173611,128,0,173851:0:0:0:0:
64,192,173691,128,0,174091:0:0:0:0:
192,192,173731,128,0,173971:0:0:0:0:
320,192,173971,128,0,174091:0:0:0:0:
448,192,174091,128,0,174491:0:0:0:0:
192,192,174091,128,0,174211:0:0:0:0:
320,192,174211,128,0,174331:0:0:0:0:
64,192,174331,128,0,174451:0:0:0:0:
320,192,174451,128,0,174691:0:0:0:0:
192,192,174491,128,0,175291:0:0:0:0:
64,192,174571,128,0,174811:0:0:0:0:
448,192,174691,128,0,174811:0:0:0:0:
320,192,174811,128,0,174931:0:0:0:0:
64,192,174931,128,0,175051:0:0:0:0:
448,192,175051,128,0,175171:0:0:0:0:
320,192,175171,128,0,175411:0:0:0:0:
64,192,175291,128,0,175411:0:0:0:0:
448,192,175411,128,0,175891:0:0:0:0:
192,192,175411,128,0,175651:0:0:0:0:
64,192,175651,128,0,175771:0:0:0:0:
192,192,175771,128,0,175891:0:0:0:0:
320,192,175891,1,0,0:0:0:0:
64,192,175931,1,0,0:0:0:0:
192,192,175971,1,0,0:0:0:0:
320,192,176011,128,0,176091:0:0:0:0:
448,192,176011,1,0,0:0:0:0:
448,192,176131,128,0,176251:0:0:0:0:
64,192,176131,1,0,0:0:0:0:
192,192,176251,128,0,176371:0:0:0:0:
320,192,176251,1,0,0:0:0:0:
64,192,176371,128,0,176491:0:0:0:0:
448,192,176371,1,0,0:0:0:0:
320,192,176491,128,0,176611:0:0:0:0:
192,192,176491,1,0,0:0:0:0:
192,192,176611,128,0,176731:0:0:0:0:
448,192,176611,1,0,0:0:0:0:
64,192,176731,128,0,176851:0:0:0:0:
320,192,176731,1,0,0:0:0:0:
320,192,176851,128,0,176971:0:0:0:0:
192,192,176851,1,0,0:0:0:0:
448,192,176971,128,0,177091:0:0:0:0:
64,192,176971,1,0,0:0:0:0:
320,192,177091,128,0,177211:0:0:0:0:
64,192,177091,1,0,0:0:0:0:
192,192,177211,128,0,177331:0:0:0:0:
448,192,177211,1,0,0:0:0:0:
64,192,177331,128,0,177811:0:0:0:0:
320,192,177331,128,0,177571:0:0:0:0:
448,192,177571,1,0,0:0:0:0:
320,192,177691,1,0,0:0:0:0:
448,192,177691,1,0,0:0:0:0:
192,192,177811,128,0,178051:0:0:0:0:
448,192,177851,128,0,178291:0:0:0:0:
64,192,178051,1,0,0:0:0:0:
192,192,178171,128,0,178291:0:0:0:0:
320,192,178291,1,0,0:0:0:0:
64,192,178331,1,0,0:0:0:0:
192,192,178371,1,0,0:0:0:0:
448,192,178411,128,0,178491:0:0:0:0:
64,192,178491,128,0,178571:0:0:0:0:
320,192,178651,128,0,178731:0:0:0:0:
448,192,178651,1,0,0:0:0:0:
192,192,178731,128,0,178811:0:0:0:0:
64,192,178811,128,0,178891:0:0:0:0:
320,192,178891,128,0,179011:0:0:0:0:
448,192,178891,1,0,0:0:0:0:
448,192,179011,128,0,179131:0:0:0:0:
64,192,179011,1,0,0:0:0:0:
192,192,179131,128,0,179251:0:0:0:0:
320,192,179131,1,0,0:0:0:0:
64,192,179251,128,0,179851:0:0:0:0:
320,192,179291,1,0,0:0:0:0:
448,192,179371,1,0,0:0:0:0:
192,192,179451,1,0,0:0:0:0:
448,192,179531,1,0,0:0:0:0:
320,192,179611,1,0,0:0:0:0:
192,192,179691,1,0,0:0:0:0:
320,192,179731,1,0,0:0:0:0:
448,192,179771,1,0,0:0:0:0:
192,192,179851,128,0,180331:0:0:0:0:
320,192,179851,1,0,0:0:0:0:
448,192,179931,1,0,0:0:0:0:
64,192,180011,1,0,0:0:0:0:
320,192,180091,1,0,0:0:0:0:
448,192,180171,1,0,0:0:0:0:
320,192,180211,1,0,0:0:0:0:
64,192,180251,1,0,0:0:0:0:
448,192,180331,128,0,181171:0:0:0:0:
320,192,180331,1,0,0:0:0:0:
64,192,180411,1,0,0:0:0:0:
320,192,180491,1,0,0:0:0:0:
64,192,180571,1,0,0:0:0:0:
192,192,180651,1,0,0:0:0:0:
320,192,180731,1,0,0:0:0:0:
64,192,180811,128,0,180871:0:0:0:0:
192,192,180811,128,0,180871:0:0:0:0:
64,192,180931,128,0,181051:0:0:0:0:
192,192,180931,128,0,181051:0:0:0:0:
64,192,181171,128,0,181291:0:0:0:0:
192,192,181171,128,0,182011:0:0:0:0:
320,192,181171,128,0,181411:0:0:0:0:
448,192,181411,128,0,181531:0:0:0:0:
64,192,181531,128,0,181771:0:0:0:0:
320,192,181651,128,0,181771:0:0:0:0:
448,192,181771,128,0,181891:0:0:0:0:
64,192,181891,128,0,182011:0:0:0:0:
320,192,182011,128,0,182131:0:0:0:0:
448,192,182011,128,0,182131:0:0:0:0:
64,192,182131,128,0,182251:0:0:0:0:
192,192,182251,128,0,182611:0:0:0:0:
448,192,182251,128,0,182371:0:0:0:0:
320,192,182371,128,0,182491:0:0:0:0:
64,192,182491,128,0,182611:0:0:0:0:
448,192,182611,128,0,182731:0:0:0:0:
320,192,182731,128,0,183091:0:0:0:0:
64,192,182731,128,0,182971:0:0:0:0:
448,192,182851,128,0,182971:0:0:0:0:
192,192,182971,128,0,183091:0:0:0:0:
448,192,183091,128,0,184651:0:0:0:0:
64,192,183091,128,0,183331:0:0:0:0:
192,192,183331,128,0,183451:0:0:0:0:
320,192,183451,128,0,183691:0:0:0:0:
64,192,183571,128,0,183691:0:0:0:0:
192,192,183691,128,0,183931:0:0:0:0:
320,192,183811,128,0,183931:0:0:0:0:
64,192,183931,128,0,184171:0:0:0:0:
192,192,184051,128,0,184171:0:0:0:0:
320,192,184171,128,0,184411:0:0:0:0:
64,192,184291,128,0,184411:0:0:0:0:
192,192,184411,128,0,184531:0:0:0:0:
320,192,184531,128,0,184651:0:0:0:0:
192,192,184651,128,0,184771:0:0:0:0:
64,192,184651,128,0,184771:0:0:0:0:
448,192,184771,128,0,184891:0:0:0:0:
320,192,184771,128,0,184891:0:0:0:0:
192,192,184891,128,0,185131:0:0:0:0:
64,192,185011,128,0,185611:0:0:0:0:
320,192,185011,128,0,185251:0:0:0:0:
448,192,185011,128,0,186091:0:0:0:0:
192,192,185251,128,0,185371:0:0:0:0:
320,192,185371,128,0,185491:0:0:0:0:
192,192,185491,128,0,185611:0:0:0:0:
320,192,185611,128,0,185731:0:0:0:0:
192,192,185731,128,0,185851:0:0:0:0:
64,192,185851,128,0,185971:0:0:0:0:
320,192,185851,128,0,185911:0:0:0:0:
192,192,185971,128,0,186091:0:0:0:0:
320,192,185971,128,0,186331:0:0:0:0:
64,192,186091,128,0,186931:0:0:0:0:
448,192,186211,128,0,186331:0:0:0:0:
192,192,186331,128,0,186451:0:0:0:0:
320,192,186451,128,0,186571:0:0:0:0:
192,192,186571,128,0,186631:0:0:0:0:
448,192,186571,128,0,186691:0:0:0:0:
192,192,186691,128,0,186811:0:0:0:0:
320,192,186691,128,0,186751:0:0:0:0:
448,192,186811,128,0,186871:0:0:0:0:
320,192,186811,128,0,186931:0:0:0:0:
192,192,186931,128,0,188011:0:0:0:0:
448,192,186931,128,0,187231:0:0:0:0:
64,192,187171,128,0,187291:0:0:0:0:
320,192,187291,128,0,187411:0:0:0:0:
448,192,187291,128,0,187531:0:0:0:0:
64,192,187411,128,0,187771:0:0:0:0:
320,192,187531,128,0,187651:0:0:0:0:
320,192,187771,128,0,187891:0:0:0:0:
448,192,187771,128,0,187891:0:0:0:0:
64,192,187891,128,0,188131:0:0:0:0:
448,192,188011,128,0,188851:0:0:0:0:
320,192,188011,128,0,188071:0:0:0:0:
320,192,188131,128,0,188251:0:0:0:0:
192,192,188251,128,0,188311:0:0:0:0:
64,192,188311,1,0,0:0:0:0:
320,192,188371,128,0,188431:0:0:0:0:
192,192,188431,1,0,0:0:0:0:
320,192,188491,128,0,188551:0:0:0:0:
64,192,188551,1,0,0:0:0:0:
192,192,188611,128,0,188671:0:0:0:0:
320,192,188671,1,0,0:0:0:0:
64,192,188731,128,0,188791:0:0:0:0:
192,192,188791,1,0,0:0:0:0:
64,192,188851,128,0,189091:0:0:0:0:
320,192,188851,128,0,189811:0:0:0:0:
192,192,189091,128,0,189331:0:0:0:0:
448,192,189211,128,0,189331:0:0:0:0:
64,192,189331,128,0,189451:0:0:0:0:
192,192,189451,128,0,189571:0:0:0:0:
448,192,189571,128,0,189811:0:0:0:0:
192,192,189691,128,0,189811:0:0:0:0:
64,192,189811,128,0,189931:0:0:0:0:
192,192,189931,128,0,190411:0:0:0:0:
320,192,189931,128,0,190051:0:0:0:0:
448,192,190051,128,0,190171:0:0:0:0:
64,192,190171,128,0,190291:0:0:0:0:
448,192,190291,128,0,190531:0:0:0:0:
320,192,190411,128,0,190771:0:0:0:0:
64,192,190411,128,0,190531:0:0:0:0:
192,192,190531,128,0,190651:0:0:0:0:
64,192,190651,128,0,190771:0:0:0:0:
448,192,190771,128,0,192331:0:0:0:0:
192,192,190771,128,0,191071:0:0:0:0:
320,192,191011,128,0,191131:0:0:0:0:
192,192,191131,128,0,191371:0:0:0:0:
64,192,191131,128,0,191251:0:0:0:0:
320,192,191371,128,0,191551:0:0:0:0:
64,192,191371,128,0,191491:0:0:0:0:
192,192,191491,128,0,191611:0:0:0:0:
320,192,191611,128,0,191851:0:0:0:0:
64,192,191611,128,0,191731:0:0:0:0:
192,192,191851,128,0,192031:0:0:0:0:
64,192,191851,128,0,191971:0:0:0:0:
320,192,191971,128,0,192091:0:0:0:0:
192,192,192091,128,0,192271:0:0:0:0:
64,192,192091,128,0,192211:0:0:0:0:
320,192,192211,128,0,192331:0:0:0:0:
192,192,192331,128,0,192391:0:0:0:0:
64,192,192331,128,0,192631:0:0:0:0:
448,192,192451,128,0,192571:0:0:0:0:
192,192,192451,128,0,192571:0:0:0:0:
320,192,192571,128,0,192811:0:0:0:0:
64,192,192691,128,0,193291:0:0:0:0:
448,192,192691,128,0,193771:0:0:0:0:
192,192,192691,128,0,192931:0:0:0:0:
320,192,192931,128,0,193051:0:0:0:0:
192,192,193051,128,0,193171:0:0:0:0:
320,192,193291,128,0,193411:0:0:0:0:
192,192,193291,128,0,193351:0:0:0:0:
64,192,193411,128,0,193531:0:0:0:0:
192,192,193411,128,0,193531:0:0:0:0:
320,192,193531,128,0,193591:0:0:0:0:
192,192,193651,128,0,194131:0:0:0:0:
320,192,193651,128,0,193891:0:0:0:0:
64,192,193771,128,0,194731:0:0:0:0:
448,192,193891,128,0,194011:0:0:0:0:
320,192,194011,128,0,194251:0:0:0:0:
192,192,194251,128,0,194371:0:0:0:0:
448,192,194251,128,0,194311:0:0:0:0:
320,192,194371,128,0,194491:0:0:0:0:
448,192,194371,128,0,194491:0:0:0:0:
192,192,194491,128,0,194611:0:0:0:0:
448,192,194611,128,0,194851:0:0:0:0:
320,192,194611,128,0,194731:0:0:0:0:
192,192,194731,128,0,194851:0:0:0:0:
320,192,194851,128,0,195091:0:0:0:0:
64,192,194851,128,0,194971:0:0:0:0:
448,192,194971,128,0,195211:0:0:0:0:
192,192,195091,128,0,195331:0:0:0:0:
64,192,195091,128,0,195211:0:0:0:0:
320,192,195211,128,0,195451:0:0:0:0:
64,192,195331,128,0,195571:0:0:0:0:
448,192,195331,128,0,195571:0:0:0:0:
192,192,195451,1,0,0:0:0:0:
192,192,195571,128,0,195811:0:0:0:0:
320,192,195571,128,0,195691:0:0:0:0:
64,192,195691,128,0,195871:0:0:0:0:
320,192,195811,128,0,196051:0:0:0:0:
448,192,195811,128,0,195931:0:0:0:0:
192,192,195931,128,0,195991:0:0:0:0:
64,192,195931,128,0,195991:0:0:0:0:
448,192,196051,128,0,196291:0:0:0:0:
64,192,196051,128,0,196111:0:0:0:0:
192,192,196051,128,0,196111:0:0:0:0:
320,192,196171,128,0,196231:0:0:0:0:
64,192,196171,128,0,196231:0:0:0:0:
320,192,196291,128,0,196531:0:0:0:0:
192,192,196291,128,0,196351:0:0:0:0:
192,192,196411,128,0,196471:0:0:0:0:
448,192,196411,128,0,196471:0:0:0:0:
64,192,196531,128,0,197011:0:0:0:0:
448,192,196531,128,0,196891:0:0:0:0:
192,192,196531,128,0,196771:0:0:0:0:
