osu file format v14

[General]
AudioFilename: audio.mp3
AudioLeadIn: 0
PreviewTime: 35785
Countdown: 0
SampleSet: Soft
StackLeniency: 0.7
Mode: 3
LetterboxInBreaks: 0
SpecialStyle: 0
WidescreenStoryboard: 0

[Editor]
DistanceSpacing: 0.8
BeatDivisor: 4
GridSize: 32
TimelineZoom: 2.2

[Metadata]
Title:Time to Say Goodbye
TitleUnicode:Time to Say Goodbye
Artist:Jeff Williams
ArtistUnicode:Jeff Williams
Creator:Halogen-
Version:Farewell
Source:RWBY Volume 2
Tags:Anime English TTSG op female vocals Original Soundtrack OST Stamina opening
BeatmapID:2701201
BeatmapSetID:1302447

[Difficulty]
HPDrainRate:8.5
CircleSize:4
OverallDifficulty:8.5
ApproachRate:5
SliderMultiplier:1.4
SliderTickRate:1

[Events]
//Background and Video events
0,0,"background.png",0,0
//Break Periods
//Storyboard Layer 0 (Background)
//Storyboard Layer 1 (Fail)
//Storyboard Layer 2 (Pass)
//Storyboard Layer 3 (Foreground)
//Storyboard Layer 4 (Overlay)
//Storyboard Sound Samples

[TimingPoints]
224,300,4,2,0,100,1,0
224,-80,4,2,0,100,0,0
9074,315.789474,4,2,0,100,1,0
9074,-75.999999924,4,2,0,100,0,0
10653,260.869565,4,2,0,100,1,0
10653,-92.0000000766667,4,2,0,100,0,0
14175,250,4,2,0,100,1,0
14175,-96,4,2,0,100,0,0
15925,240,4,2,0,100,1,0
15925,-100,4,2,0,100,0,0
19045,240,4,2,0,100,1,0
19045,-100,4,2,0,100,0,0
118885,284.36019,4,2,0,100,1,0
118885,-84.3999998734,4,2,0,100,0,0
120022,260.869565,4,2,0,100,1,0
120022,-92.0000000766667,4,2,0,100,0,0
121066,266.666667,4,2,0,100,1,0
121066,-89.9999998875,4,2,0,100,0,0
122932,255.319149,4,2,0,100,1,0
122932,-93.9999999765,4,2,0,100,0,0
123188,258.62069,4,2,0,100,1,0
123188,-92.7999998762667,4,2,0,100,0,0
124222,260.869565,4,2,0,100,1,0
124222,-92.0000000766667,4,2,0,100,0,0
124744,264.317181,4,2,0,100,1,0
124744,-90.79999986834,4,2,0,100,0,0
125272,258.62069,4,2,0,100,1,0
125272,-92.7999998762667,4,2,0,100,0,0
127341,257.51073,4,2,0,100,1,0
127341,-93.1999998602,4,2,0,100,0,0
128371,265.486726,4,2,0,100,1,0
128371,-90.3999998854933,4,2,0,100,0,0
129433,264.317181,4,2,0,100,1,0
129433,-90.79999986834,4,2,0,100,0,0
130491,263.157895,4,2,0,100,1,0
130491,-91.1999999088,4,2,0,100,0,0
131017,262.008734,4,2,0,100,1,0
131017,-91.5999998687067,4,2,0,100,0,0
131279,258.62069,4,2,0,100,1,0
131279,-92.7999998762667,4,2,0,100,0,0
131538,255.319149,4,2,0,100,1,0
131538,-93.9999999765,4,2,0,100,0,0
132304,266.666667,4,2,0,100,1,0
132304,-89.9999998875,4,2,0,100,0,0
132570,260.869565,4,2,0,100,1,0
132570,-92.0000000766667,4,2,0,100,0,0
133092,258.62069,4,2,0,100,1,0
133092,-92.7999998762667,4,2,0,100,0,0
135678,262.582057,4,2,0,100,1,0
135678,-91.3999999626783,4,2,0,100,0,0
148282,263.157895,4,2,0,100,1,0
148282,-91.1999999088,4,2,0,100,0,0
148808,272.727273,4,2,0,100,1,0
148808,-87.999999912,4,2,0,100,0,0
149354,283.018868,4,2,0,100,1,0
149354,-84.7999999773867,4,2,0,100,0,0
152750,300,4,2,0,100,1,0
152750,-80,4,2,0,100,0,0
153350,307.692308,4,2,0,100,1,0
153350,-77.999999922,4,2,0,100,0,0
153966,333.333333,4,2,0,100,1,0
153966,-72.000000072,4,2,0,100,0,0
154632,363.636364,4,2,0,100,1,0
154632,-65.999999934,4,2,0,100,0,0
155359,375,4,2,0,100,1,0
155359,-64,4,2,0,100,0,0
156109,300,4,2,0,100,1,0
156109,-80,4,2,0,100,0,0
156709,375,4,2,0,100,1,0
156709,-64,4,2,0,100,0,0
157459,333.333333,4,2,0,100,1,0
157459,-72.000000072,4,2,0,100,0,0
158126,547.945205,4,2,0,100,1,0
158126,-43.800000038325,4,2,0,100,0,0
160044,240,4,2,0,100,1,0
160044,-100,4,2,0,100,0,0
162084,240,4,2,0,100,1,0
162084,-100,4,2,0,100,0,0

[HitObjects]
448,192,1274,5,0,0:0:0:0:
192,192,1424,1,0,0:0:0:0:
64,192,1424,1,0,0:0:0:0:
448,192,1461,1,0,0:0:0:0:
320,192,1499,1,0,0:0:0:0:
192,192,1536,1,0,0:0:0:0:
64,192,1574,1,0,0:0:0:0:
320,192,1874,128,0,2174:0:0:0:0:
64,192,2024,128,0,2174:0:0:0:0:
192,192,2174,1,0,0:0:0:0:
64,192,2474,128,0,2774:0:0:0:0:
192,192,2624,128,0,2774:0:0:0:0:
320,192,2774,1,0,0:0:0:0:
320,192,3074,128,0,3374:0:0:0:0:
192,192,3224,128,0,3374:0:0:0:0:
448,192,3374,1,0,0:0:0:0:
64,192,3674,128,0,3974:0:0:0:0:
192,192,3824,128,0,3974:0:0:0:0:
320,192,3974,1,0,0:0:0:0:
448,192,4274,128,0,4574:0:0:0:0:
192,192,4424,128,0,4574:0:0:0:0:
320,192,4574,1,0,0:0:0:0:
320,192,4874,128,0,5174:0:0:0:0:
64,192,4949,128,0,5174:0:0:0:0:
448,192,5174,128,0,5474:0:0:0:0:
320,192,5474,128,0,5774:0:0:0:0:
192,192,5774,128,0,6074:0:0:0:0:
448,192,6074,128,0,6374:0:0:0:0:
320,192,6374,128,0,7724:0:0:0:0:
192,192,6374,128,0,7274:0:0:0:0:
64,192,6824,128,0,7724:0:0:0:0:
448,192,7724,128,0,8324:0:0:0:0:
64,192,7874,128,0,9863:0:0:0:0:
192,192,8324,128,0,9863:0:0:0:0:
320,192,8774,128,0,9863:0:0:0:0:
448,192,9074,128,0,9863:0:0:0:0:
448,192,10179,128,0,10653:0:0:0:0:
64,192,10653,128,0,10913:0:0:0:0:
448,192,10783,1,0,0:0:0:0:
320,192,10783,128,0,10913:0:0:0:0:
192,192,10913,1,0,0:0:0:0:
320,192,11174,128,0,11435:0:0:0:0:
192,192,11305,1,0,0:0:0:0:
64,192,11305,128,0,11435:0:0:0:0:
448,192,11435,1,0,0:0:0:0:
192,192,11696,128,0,11957:0:0:0:0:
448,192,11826,128,0,11957:0:0:0:0:
64,192,11826,1,0,0:0:0:0:
320,192,11957,1,0,0:0:0:0:
320,192,12218,128,0,12479:0:0:0:0:
192,192,12348,1,0,0:0:0:0:
64,192,12348,1,0,0:0:0:0:
448,192,12479,128,0,12739:0:0:0:0:
64,192,12739,128,0,13000:0:0:0:0:
448,192,12870,1,0,0:0:0:0:
192,192,12870,128,0,13000:0:0:0:0:
320,192,13000,1,0,0:0:0:0:
320,192,13261,128,0,13522:0:0:0:0:
448,192,13326,1,0,0:0:0:0:
192,192,13392,1,0,0:0:0:0:
64,192,13392,128,0,13522:0:0:0:0:
448,192,13522,1,0,0:0:0:0:
192,192,13783,128,0,14044:0:0:0:0:
320,192,13913,1,0,0:0:0:0:
64,192,13913,1,0,0:0:0:0:
448,192,14044,128,0,14300:0:0:0:0:
320,192,14300,128,0,14550:0:0:0:0:
448,192,14425,1,0,0:0:0:0:
64,192,14425,1,0,0:0:0:0:
192,192,14550,128,0,14800:0:0:0:0:
64,192,14800,128,0,15050:0:0:0:0:
448,192,14925,1,0,0:0:0:0:
320,192,14925,1,0,0:0:0:0:
192,192,15050,128,0,15425:0:0:0:0:
64,192,15175,1,0,0:0:0:0:
64,192,15300,1,0,0:0:0:0:
448,192,15425,1,0,0:0:0:0:
320,192,15425,1,0,0:0:0:0:
64,192,15550,1,0,0:0:0:0:
192,192,15675,1,0,0:0:0:0:
192,192,15800,1,0,0:0:0:0:
448,192,15925,1,0,0:0:0:0:
320,192,15925,1,0,0:0:0:0:
192,192,16045,1,0,0:0:0:0:
320,192,16165,1,0,0:0:0:0:
320,192,16285,1,0,0:0:0:0:
192,192,16405,1,0,0:0:0:0:
64,192,16405,1,0,0:0:0:0:
320,192,16525,1,0,0:0:0:0:
448,192,16645,1,0,0:0:0:0:
448,192,16765,1,0,0:0:0:0:
192,192,16885,1,0,0:0:0:0:
64,192,16885,1,0,0:0:0:0:
448,192,17005,1,0,0:0:0:0:
320,192,17125,1,0,0:0:0:0:
64,192,17125,1,0,0:0:0:0:
64,192,17245,1,0,0:0:0:0:
320,192,17365,1,0,0:0:0:0:
192,192,17365,1,0,0:0:0:0:
64,192,17485,1,0,0:0:0:0:
448,192,17605,1,0,0:0:0:0:
192,192,17605,1,0,0:0:0:0:
448,192,17725,1,0,0:0:0:0:
320,192,17845,1,0,0:0:0:0:
192,192,17845,1,0,0:0:0:0:
448,192,17965,1,0,0:0:0:0:
192,192,18085,1,0,0:0:0:0:
64,192,18085,1,0,0:0:0:0:
320,192,18205,1,0,0:0:0:0:
64,192,18205,1,0,0:0:0:0:
320,192,18325,1,0,0:0:0:0:
192,192,18325,1,0,0:0:0:0:
448,192,18445,1,0,0:0:0:0:
64,192,18445,1,0,0:0:0:0:
448,192,18565,1,0,0:0:0:0:
192,192,18565,1,0,0:0:0:0:
448,192,18685,1,0,0:0:0:0:
320,192,18685,1,0,0:0:0:0:
192,192,18805,1,0,0:0:0:0:
64,192,18805,1,0,0:0:0:0:
448,192,18925,1,0,0:0:0:0:
320,192,18925,1,0,0:0:0:0:
64,192,18925,1,0,0:0:0:0:
64,192,19165,1,0,0:0:0:0:
192,192,19225,1,0,0:0:0:0:
448,192,19285,1,0,0:0:0:0:
320,192,19285,1,0,0:0:0:0:
192,192,19345,1,0,0:0:0:0:
64,192,19405,1,0,0:0:0:0:
320,192,19465,1,0,0:0:0:0:
448,192,19525,1,0,0:0:0:0:
192,192,19525,1,0,0:0:0:0:
320,192,19585,1,0,0:0:0:0:
64,192,19645,1,0,0:0:0:0:
192,192,19705,1,0,0:0:0:0:
448,192,19765,1,0,0:0:0:0:
320,192,19765,1,0,0:0:0:0:
64,192,19825,1,0,0:0:0:0:
192,192,19885,1,0,0:0:0:0:
320,192,19945,1,0,0:0:0:0:
448,192,20005,1,0,0:0:0:0:
64,192,20005,1,0,0:0:0:0:
192,192,20065,1,0,0:0:0:0:
320,192,20125,1,0,0:0:0:0:
192,192,20185,1,0,0:0:0:0:
448,192,20245,1,0,0:0:0:0:
64,192,20245,1,0,0:0:0:0:
320,192,20305,1,0,0:0:0:0:
192,192,20365,1,0,0:0:0:0:
320,192,20425,1,0,0:0:0:0:
448,192,20485,1,0,0:0:0:0:
64,192,20485,1,0,0:0:0:0:
320,192,20545,1,0,0:0:0:0:
192,192,20605,1,0,0:0:0:0:
64,192,20665,1,0,0:0:0:0:
448,192,20725,1,0,0:0:0:0:
320,192,20725,1,0,0:0:0:0:
192,192,20785,1,0,0:0:0:0:
320,192,20845,1,0,0:0:0:0:
64,192,20845,1,0,0:0:0:0:
192,192,20905,1,0,0:0:0:0:
448,192,20965,1,0,0:0:0:0:
64,192,21025,1,0,0:0:0:0:
192,192,21085,1,0,0:0:0:0:
320,192,21145,1,0,0:0:0:0:
192,192,21205,1,0,0:0:0:0:
64,192,21205,1,0,0:0:0:0:
448,192,21265,1,0,0:0:0:0:
320,192,21325,1,0,0:0:0:0:
192,192,21385,1,0,0:0:0:0:
320,192,21445,1,0,0:0:0:0:
64,192,21445,1,0,0:0:0:0:
192,192,21505,1,0,0:0:0:0:
448,192,21565,1,0,0:0:0:0:
320,192,21625,1,0,0:0:0:0:
192,192,21685,1,0,0:0:0:0:
64,192,21685,1,0,0:0:0:0:
320,192,21745,1,0,0:0:0:0:
448,192,21805,1,0,0:0:0:0:
192,192,21865,1,0,0:0:0:0:
448,192,21925,1,0,0:0:0:0:
64,192,21925,1,0,0:0:0:0:
320,192,21985,1,0,0:0:0:0:
192,192,22045,1,0,0:0:0:0:
320,192,22105,1,0,0:0:0:0:
448,192,22165,1,0,0:0:0:0:
64,192,22165,1,0,0:0:0:0:
192,192,22225,1,0,0:0:0:0:
320,192,22285,1,0,0:0:0:0:
192,192,22345,1,0,0:0:0:0:
448,192,22405,1,0,0:0:0:0:
64,192,22405,1,0,0:0:0:0:
192,192,22465,1,0,0:0:0:0:
320,192,22525,1,0,0:0:0:0:
448,192,22585,1,0,0:0:0:0:
192,192,22645,1,0,0:0:0:0:
64,192,22645,1,0,0:0:0:0:
320,192,22705,1,0,0:0:0:0:
448,192,22765,1,0,0:0:0:0:
192,192,22765,1,0,0:0:0:0:
320,192,22825,1,0,0:0:0:0:
64,192,22885,1,0,0:0:0:0:
448,192,22945,1,0,0:0:0:0:
320,192,23005,1,0,0:0:0:0:
192,192,23065,1,0,0:0:0:0:
448,192,23125,1,0,0:0:0:0:
320,192,23125,1,0,0:0:0:0:
64,192,23185,1,0,0:0:0:0:
192,192,23245,1,0,0:0:0:0:
448,192,23305,1,0,0:0:0:0:
320,192,23365,1,0,0:0:0:0:
64,192,23365,1,0,0:0:0:0:
448,192,23425,1,0,0:0:0:0:
192,192,23485,1,0,0:0:0:0:
64,192,23545,1,0,0:0:0:0:
448,192,23605,1,0,0:0:0:0:
320,192,23605,1,0,0:0:0:0:
64,192,23665,1,0,0:0:0:0:
192,192,23725,1,0,0:0:0:0:
448,192,23785,1,0,0:0:0:0:
320,192,23845,1,0,0:0:0:0:
192,192,23845,1,0,0:0:0:0:
64,192,23905,1,0,0:0:0:0:
448,192,23965,1,0,0:0:0:0:
64,192,24025,1,0,0:0:0:0:
320,192,24085,1,0,0:0:0:0:
192,192,24085,1,0,0:0:0:0:
448,192,24145,1,0,0:0:0:0:
64,192,24205,1,0,0:0:0:0:
448,192,24265,1,0,0:0:0:0:
320,192,24325,1,0,0:0:0:0:
192,192,24325,1,0,0:0:0:0:
64,192,24385,1,0,0:0:0:0:
448,192,24445,1,0,0:0:0:0:
192,192,24505,1,0,0:0:0:0:
448,192,24565,1,0,0:0:0:0:
320,192,24565,1,0,0:0:0:0:
64,192,24625,1,0,0:0:0:0:
320,192,24685,1,0,0:0:0:0:
192,192,24685,1,0,0:0:0:0:
448,192,24745,1,0,0:0:0:0:
64,192,24805,1,0,0:0:0:0:
192,192,24865,1,0,0:0:0:0:
320,192,24925,1,0,0:0:0:0:
448,192,24985,1,0,0:0:0:0:
192,192,25045,1,0,0:0:0:0:
64,192,25045,1,0,0:0:0:0:
448,192,25105,1,0,0:0:0:0:
320,192,25165,1,0,0:0:0:0:
64,192,25225,1,0,0:0:0:0:
448,192,25285,1,0,0:0:0:0:
192,192,25285,1,0,0:0:0:0:
64,192,25345,1,0,0:0:0:0:
320,192,25405,1,0,0:0:0:0:
448,192,25465,1,0,0:0:0:0:
192,192,25525,1,0,0:0:0:0:
64,192,25525,1,0,0:0:0:0:
448,192,25585,1,0,0:0:0:0:
320,192,25645,1,0,0:0:0:0:
64,192,25705,1,0,0:0:0:0:
320,192,25765,1,0,0:0:0:0:
192,192,25765,1,0,0:0:0:0:
448,192,25825,1,0,0:0:0:0:
64,192,25885,1,0,0:0:0:0:
448,192,25945,1,0,0:0:0:0:
320,192,26005,1,0,0:0:0:0:
192,192,26005,1,0,0:0:0:0:
64,192,26065,1,0,0:0:0:0:
448,192,26125,1,0,0:0:0:0:
64,192,26185,1,0,0:0:0:0:
320,192,26245,1,0,0:0:0:0:
192,192,26245,1,0,0:0:0:0:
64,192,26305,1,0,0:0:0:0:
448,192,26365,1,0,0:0:0:0:
320,192,26425,1,0,0:0:0:0:
192,192,26485,1,0,0:0:0:0:
64,192,26485,1,0,0:0:0:0:
448,192,26545,1,0,0:0:0:0:
320,192,26605,1,0,0:0:0:0:
192,192,26605,1,0,0:0:0:0:
64,192,26605,1,0,0:0:0:0:
64,192,26845,1,0,0:0:0:0:
448,192,26905,1,0,0:0:0:0:
320,192,26965,1,0,0:0:0:0:
192,192,26965,1,0,0:0:0:0:
64,192,27025,1,0,0:0:0:0:
192,192,27085,1,0,0:0:0:0:
64,192,27145,1,0,0:0:0:0:
448,192,27205,1,0,0:0:0:0:
320,192,27205,1,0,0:0:0:0:
64,192,27265,1,0,0:0:0:0:
192,192,27325,1,0,0:0:0:0:
448,192,27385,1,0,0:0:0:0:
320,192,27445,1,0,0:0:0:0:
192,192,27445,1,0,0:0:0:0:
64,192,27505,1,0,0:0:0:0:
320,192,27565,1,0,0:0:0:0:
448,192,27625,1,0,0:0:0:0:
192,192,27685,1,0,0:0:0:0:
64,192,27685,1,0,0:0:0:0:
320,192,27745,1,0,0:0:0:0:
448,192,27805,1,0,0:0:0:0:
320,192,27865,1,0,0:0:0:0:
192,192,27925,1,0,0:0:0:0:
64,192,27925,1,0,0:0:0:0:
448,192,27985,1,0,0:0:0:0:
320,192,28045,1,0,0:0:0:0:
448,192,28105,1,0,0:0:0:0:
192,192,28165,1,0,0:0:0:0:
64,192,28165,1,0,0:0:0:0:
320,192,28225,1,0,0:0:0:0:
448,192,28285,1,0,0:0:0:0:
64,192,28345,1,0,0:0:0:0:
320,192,28405,1,0,0:0:0:0:
192,192,28405,1,0,0:0:0:0:
64,192,28465,1,0,0:0:0:0:
448,192,28525,1,0,0:0:0:0:
320,192,28525,1,0,0:0:0:0:
192,192,28585,1,0,0:0:0:0:
448,192,28645,1,0,0:0:0:0:
320,192,28705,1,0,0:0:0:0:
448,192,28765,1,0,0:0:0:0:
320,192,28825,1,0,0:0:0:0:
448,192,28885,1,0,0:0:0:0:
64,192,28885,1,0,0:0:0:0:
192,192,28945,1,0,0:0:0:0:
320,192,29005,1,0,0:0:0:0:
448,192,29065,1,0,0:0:0:0:
192,192,29125,1,0,0:0:0:0:
64,192,29125,1,0,0:0:0:0:
448,192,29185,1,0,0:0:0:0:
320,192,29245,1,0,0:0:0:0:
192,192,29305,1,0,0:0:0:0:
448,192,29365,1,0,0:0:0:0:
64,192,29365,1,0,0:0:0:0:
320,192,29425,1,0,0:0:0:0:
192,192,29485,1,0,0:0:0:0:
64,192,29545,1,0,0:0:0:0:
448,192,29605,1,0,0:0:0:0:
320,192,29605,1,0,0:0:0:0:
192,192,29665,1,0,0:0:0:0:
64,192,29725,1,0,0:0:0:0:
192,192,29785,1,0,0:0:0:0:
448,192,29845,1,0,0:0:0:0:
320,192,29845,1,0,0:0:0:0:
64,192,29905,1,0,0:0:0:0:
192,192,29965,1,0,0:0:0:0:
64,192,30025,1,0,0:0:0:0:
448,192,30085,1,0,0:0:0:0:
320,192,30085,1,0,0:0:0:0:
192,192,30145,1,0,0:0:0:0:
64,192,30205,1,0,0:0:0:0:
192,192,30265,1,0,0:0:0:0:
448,192,30325,1,0,0:0:0:0:
64,192,30325,1,0,0:0:0:0:
320,192,30385,1,0,0:0:0:0:
448,192,30445,1,0,0:0:0:0:
192,192,30445,1,0,0:0:0:0:
320,192,30505,1,0,0:0:0:0:
192,192,30565,1,0,0:0:0:0:
64,192,30565,1,0,0:0:0:0:
320,192,30625,1,0,0:0:0:0:
448,192,30685,1,0,0:0:0:0:
320,192,30745,1,0,0:0:0:0:
192,192,30805,1,0,0:0:0:0:
64,192,30805,1,0,0:0:0:0:
448,192,30865,1,0,0:0:0:0:
320,192,30925,1,0,0:0:0:0:
448,192,30985,1,0,0:0:0:0:
320,192,31045,1,0,0:0:0:0:
64,192,31045,1,0,0:0:0:0:
192,192,31105,1,0,0:0:0:0:
448,192,31165,1,0,0:0:0:0:
192,192,31225,1,0,0:0:0:0:
320,192,31285,1,0,0:0:0:0:
64,192,31285,1,0,0:0:0:0:
448,192,31345,1,0,0:0:0:0:
192,192,31405,1,0,0:0:0:0:
448,192,31465,1,0,0:0:0:0:
320,192,31525,1,0,0:0:0:0:
192,192,31525,1,0,0:0:0:0:
64,192,31585,1,0,0:0:0:0:
448,192,31645,1,0,0:0:0:0:
64,192,31705,1,0,0:0:0:0:
320,192,31765,1,0,0:0:0:0:
192,192,31765,1,0,0:0:0:0:
448,192,31825,1,0,0:0:0:0:
192,192,31885,1,0,0:0:0:0:
320,192,31945,1,0,0:0:0:0:
448,192,32005,1,0,0:0:0:0:
64,192,32005,1,0,0:0:0:0:
192,192,32065,1,0,0:0:0:0:
320,192,32125,1,0,0:0:0:0:
192,192,32185,1,0,0:0:0:0:
448,192,32245,1,0,0:0:0:0:
64,192,32245,1,0,0:0:0:0:
320,192,32305,1,0,0:0:0:0:
448,192,32365,1,0,0:0:0:0:
192,192,32365,1,0,0:0:0:0:
320,192,32425,1,0,0:0:0:0:
448,192,32485,1,0,0:0:0:0:
64,192,32545,1,0,0:0:0:0:
192,192,32605,1,0,0:0:0:0:
320,192,32665,1,0,0:0:0:0:
448,192,32725,1,0,0:0:0:0:
192,192,32725,1,0,0:0:0:0:
64,192,32785,1,0,0:0:0:0:
320,192,32845,1,0,0:0:0:0:
64,192,32905,1,0,0:0:0:0:
448,192,32965,1,0,0:0:0:0:
192,192,32965,1,0,0:0:0:0:
320,192,33025,1,0,0:0:0:0:
64,192,33085,1,0,0:0:0:0:
320,192,33145,1,0,0:0:0:0:
448,192,33205,1,0,0:0:0:0:
192,192,33205,1,0,0:0:0:0:
64,192,33265,1,0,0:0:0:0:
320,192,33325,1,0,0:0:0:0:
192,192,33385,1,0,0:0:0:0:
448,192,33445,1,0,0:0:0:0:
320,192,33445,1,0,0:0:0:0:
64,192,33505,1,0,0:0:0:0:
192,192,33565,1,0,0:0:0:0:
64,192,33625,1,0,0:0:0:0:
448,192,33685,1,0,0:0:0:0:
320,192,33685,1,0,0:0:0:0:
192,192,33745,1,0,0:0:0:0:
64,192,33805,1,0,0:0:0:0:
192,192,33865,1,0,0:0:0:0:
448,192,33925,1,0,0:0:0:0:
320,192,33925,1,0,0:0:0:0:
64,192,33985,1,0,0:0:0:0:
192,192,34045,1,0,0:0:0:0:
64,192,34105,1,0,0:0:0:0:
448,192,34165,1,0,0:0:0:0:
192,192,34165,1,0,0:0:0:0:
320,192,34225,1,0,0:0:0:0:
448,192,34285,1,0,0:0:0:0:
64,192,34285,1,0,0:0:0:0:
192,192,34345,1,0,0:0:0:0:
448,192,34405,1,0,0:0:0:0:
320,192,34405,1,0,0:0:0:0:
64,192,34405,1,0,0:0:0:0:
192,192,34525,1,0,0:0:0:0:
64,192,34525,1,0,0:0:0:0:
320,192,34645,1,0,0:0:0:0:
192,192,34645,1,0,0:0:0:0:
448,192,34765,1,0,0:0:0:0:
320,192,34765,1,0,0:0:0:0:
64,192,34765,1,0,0:0:0:0:
192,192,34885,1,0,0:0:0:0:
64,192,34885,1,0,0:0:0:0:
320,192,35005,1,0,0:0:0:0:
192,192,35005,1,0,0:0:0:0:
448,192,35125,1,0,0:0:0:0:
320,192,35125,1,0,0:0:0:0:
64,192,35125,1,0,0:0:0:0:
320,192,35245,1,0,0:0:0:0:
192,192,35245,1,0,0:0:0:0:
448,192,35365,1,0,0:0:0:0:
320,192,35365,1,0,0:0:0:0:
64,192,35365,1,0,0:0:0:0:
320,192,35485,1,0,0:0:0:0:
192,192,35485,1,0,0:0:0:0:
64,192,35485,1,0,0:0:0:0:
448,192,35605,1,0,0:0:0:0:
192,192,35605,1,0,0:0:0:0:
64,192,35605,1,0,0:0:0:0:
448,192,35725,1,0,0:0:0:0:
320,192,35725,1,0,0:0:0:0:
64,192,35725,1,0,0:0:0:0:
448,192,35845,1,0,0:0:0:0:
320,192,35845,1,0,0:0:0:0:
192,192,35845,1,0,0:0:0:0:
192,192,35965,1,0,0:0:0:0:
64,192,35965,1,0,0:0:0:0:
320,192,36205,1,0,0:0:0:0:
448,192,36205,1,0,0:0:0:0:
64,192,36205,1,0,0:0:0:0:
192,192,36205,1,0,0:0:0:0:
192,192,36445,1,0,0:0:0:0:
64,192,36445,1,0,0:0:0:0:
320,192,36505,1,0,0:0:0:0:
448,192,36565,1,0,0:0:0:0:
64,192,36565,1,0,0:0:0:0:
192,192,36625,1,0,0:0:0:0:
320,192,36685,1,0,0:0:0:0:
64,192,36685,1,0,0:0:0:0:
192,192,36745,1,0,0:0:0:0:
320,192,36805,1,0,0:0:0:0:
64,192,36805,1,0,0:0:0:0:
448,192,36865,1,0,0:0:0:0:
320,192,36925,1,0,0:0:0:0:
64,192,36925,1,0,0:0:0:0:
192,192,36985,1,0,0:0:0:0:
448,192,37045,1,0,0:0:0:0:
320,192,37045,1,0,0:0:0:0:
64,192,37105,1,0,0:0:0:0:
448,192,37165,1,0,0:0:0:0:
192,192,37165,1,0,0:0:0:0:
320,192,37225,1,0,0:0:0:0:
448,192,37285,1,0,0:0:0:0:
192,192,37285,1,0,0:0:0:0:
64,192,37345,1,0,0:0:0:0:
448,192,37405,1,0,0:0:0:0:
192,192,37405,1,0,0:0:0:0:
320,192,37465,1,0,0:0:0:0:
192,192,37525,1,0,0:0:0:0:
64,192,37525,1,0,0:0:0:0:
448,192,37585,1,0,0:0:0:0:
320,192,37645,1,0,0:0:0:0:
192,192,37645,1,0,0:0:0:0:
64,192,37705,1,0,0:0:0:0:
320,192,37765,1,0,0:0:0:0:
192,192,37765,1,0,0:0:0:0:
448,192,37825,1,0,0:0:0:0:
320,192,37885,1,0,0:0:0:0:
192,192,37885,1,0,0:0:0:0:
64,192,37945,1,0,0:0:0:0:
448,192,38005,1,0,0:0:0:0:
320,192,38005,1,0,0:0:0:0:
192,192,38065,1,0,0:0:0:0:
320,192,38125,1,0,0:0:0:0:
64,192,38125,1,0,0:0:0:0:
192,192,38185,1,0,0:0:0:0:
448,192,38245,1,0,0:0:0:0:
192,192,38305,1,0,0:0:0:0:
320,192,38365,1,0,0:0:0:0:
64,192,38365,1,0,0:0:0:0:
192,192,38425,1,0,0:0:0:0:
448,192,38485,1,0,0:0:0:0:
64,192,38485,1,0,0:0:0:0:
192,192,38545,1,0,0:0:0:0:
448,192,38605,1,0,0:0:0:0:
320,192,38605,1,0,0:0:0:0:
64,192,38665,1,0,0:0:0:0:
448,192,38725,1,0,0:0:0:0:
320,192,38725,1,0,0:0:0:0:
192,192,38785,1,0,0:0:0:0:
448,192,38845,1,0,0:0:0:0:
320,192,38845,1,0,0:0:0:0:
64,192,38905,1,0,0:0:0:0:
320,192,38965,1,0,0:0:0:0:
192,192,38965,1,0,0:0:0:0:
448,192,39025,1,0,0:0:0:0:
192,192,39085,1,0,0:0:0:0:
64,192,39085,1,0,0:0:0:0:
320,192,39145,1,0,0:0:0:0:
192,192,39205,1,0,0:0:0:0:
64,192,39205,1,0,0:0:0:0:
448,192,39265,1,0,0:0:0:0:
192,192,39325,1,0,0:0:0:0:
64,192,39325,1,0,0:0:0:0:
320,192,39385,1,0,0:0:0:0:
448,192,39445,1,0,0:0:0:0:
64,192,39445,1,0,0:0:0:0:
320,192,39505,1,0,0:0:0:0:
448,192,39565,1,0,0:0:0:0:
192,192,39565,1,0,0:0:0:0:
64,192,39625,1,0,0:0:0:0:
448,192,39685,1,0,0:0:0:0:
192,192,39685,1,0,0:0:0:0:
320,192,39745,1,0,0:0:0:0:
448,192,39805,1,0,0:0:0:0:
192,192,39805,1,0,0:0:0:0:
64,192,39865,1,0,0:0:0:0:
448,192,39925,1,0,0:0:0:0:
320,192,39925,1,0,0:0:0:0:
192,192,39985,1,0,0:0:0:0:
448,192,40045,1,0,0:0:0:0:
64,192,40045,1,0,0:0:0:0:
320,192,40105,1,0,0:0:0:0:
192,192,40165,1,0,0:0:0:0:
448,192,40225,1,0,0:0:0:0:
320,192,40285,1,0,0:0:0:0:
64,192,40285,1,0,0:0:0:0:
192,192,40345,1,0,0:0:0:0:
448,192,40405,1,0,0:0:0:0:
64,192,40405,1,0,0:0:0:0:
320,192,40465,1,0,0:0:0:0:
448,192,40525,1,0,0:0:0:0:
192,192,40525,1,0,0:0:0:0:
64,192,40585,1,0,0:0:0:0:
448,192,40645,1,0,0:0:0:0:
192,192,40645,1,0,0:0:0:0:
320,192,40705,1,0,0:0:0:0:
448,192,40765,1,0,0:0:0:0:
192,192,40765,1,0,0:0:0:0:
64,192,40825,1,0,0:0:0:0:
448,192,40885,1,0,0:0:0:0:
320,192,40885,1,0,0:0:0:0:
192,192,40945,1,0,0:0:0:0:
320,192,41005,1,0,0:0:0:0:
64,192,41005,1,0,0:0:0:0:
192,192,41065,1,0,0:0:0:0:
320,192,41125,1,0,0:0:0:0:
64,192,41125,1,0,0:0:0:0:
448,192,41185,1,0,0:0:0:0:
320,192,41245,1,0,0:0:0:0:
64,192,41245,1,0,0:0:0:0:
192,192,41305,1,0,0:0:0:0:
448,192,41365,1,0,0:0:0:0:
64,192,41365,1,0,0:0:0:0:
320,192,41425,1,0,0:0:0:0:
448,192,41485,1,0,0:0:0:0:
192,192,41485,1,0,0:0:0:0:
64,192,41545,1,0,0:0:0:0:
448,192,41605,1,0,0:0:0:0:
192,192,41605,1,0,0:0:0:0:
320,192,41665,1,0,0:0:0:0:
448,192,41725,1,0,0:0:0:0:
192,192,41725,1,0,0:0:0:0:
64,192,41785,1,0,0:0:0:0:
448,192,41845,1,0,0:0:0:0:
320,192,41845,1,0,0:0:0:0:
192,192,41905,1,0,0:0:0:0:
320,192,41965,1,0,0:0:0:0:
64,192,41965,1,0,0:0:0:0:
448,192,42025,1,0,0:0:0:0:
192,192,42085,1,0,0:0:0:0:
320,192,42145,1,0,0:0:0:0:
448,192,42205,1,0,0:0:0:0:
64,192,42205,1,0,0:0:0:0:
192,192,42265,1,0,0:0:0:0:
320,192,42325,1,0,0:0:0:0:
64,192,42325,1,0,0:0:0:0:
448,192,42385,1,0,0:0:0:0:
192,192,42445,1,0,0:0:0:0:
64,192,42445,1,0,0:0:0:0:
320,192,42505,1,0,0:0:0:0:
192,192,42565,1,0,0:0:0:0:
64,192,42565,1,0,0:0:0:0:
448,192,42625,1,0,0:0:0:0:
192,192,42685,1,0,0:0:0:0:
64,192,42685,1,0,0:0:0:0:
448,192,42745,1,0,0:0:0:0:
320,192,42805,1,0,0:0:0:0:
192,192,42805,1,0,0:0:0:0:
64,192,42865,1,0,0:0:0:0:
448,192,42925,1,0,0:0:0:0:
192,192,42925,1,0,0:0:0:0:
320,192,42985,1,0,0:0:0:0:
448,192,43045,1,0,0:0:0:0:
192,192,43045,1,0,0:0:0:0:
64,192,43105,1,0,0:0:0:0:
448,192,43165,1,0,0:0:0:0:
192,192,43165,1,0,0:0:0:0:
320,192,43225,1,0,0:0:0:0:
192,192,43285,1,0,0:0:0:0:
64,192,43285,1,0,0:0:0:0:
448,192,43345,1,0,0:0:0:0:
320,192,43345,1,0,0:0:0:0:
192,192,43405,1,0,0:0:0:0:
64,192,43405,1,0,0:0:0:0:
448,192,43465,1,0,0:0:0:0:
320,192,43465,1,0,0:0:0:0:
192,192,43525,1,0,0:0:0:0:
64,192,43525,1,0,0:0:0:0:
448,192,43585,1,0,0:0:0:0:
320,192,43645,1,0,0:0:0:0:
192,192,43645,1,0,0:0:0:0:
64,192,43705,1,0,0:0:0:0:
448,192,43765,1,0,0:0:0:0:
320,192,43765,1,0,0:0:0:0:
192,192,43825,1,0,0:0:0:0:
448,192,43885,1,0,0:0:0:0:
320,192,43885,1,0,0:0:0:0:
64,192,43885,1,0,0:0:0:0:
448,192,44125,1,0,0:0:0:0:
320,192,44125,1,0,0:0:0:0:
64,192,44185,1,0,0:0:0:0:
320,192,44245,1,0,0:0:0:0:
192,192,44245,1,0,0:0:0:0:
448,192,44305,1,0,0:0:0:0:
320,192,44365,1,0,0:0:0:0:
64,192,44365,1,0,0:0:0:0:
192,192,44425,1,0,0:0:0:0:
320,192,44485,1,0,0:0:0:0:
64,192,44485,1,0,0:0:0:0:
448,192,44545,1,0,0:0:0:0:
320,192,44605,1,0,0:0:0:0:
64,192,44605,1,0,0:0:0:0:
192,192,44665,1,0,0:0:0:0:
448,192,44725,1,0,0:0:0:0:
320,192,44725,1,0,0:0:0:0:
192,192,44785,1,0,0:0:0:0:
448,192,44845,1,0,0:0:0:0:
64,192,44845,1,0,0:0:0:0:
320,192,44905,1,0,0:0:0:0:
448,192,44965,1,0,0:0:0:0:
64,192,44965,1,0,0:0:0:0:
192,192,45025,1,0,0:0:0:0:
448,192,45085,1,0,0:0:0:0:
64,192,45085,1,0,0:0:0:0:
320,192,45145,1,0,0:0:0:0:
448,192,45205,1,0,0:0:0:0:
192,192,45205,1,0,0:0:0:0:
320,192,45265,1,0,0:0:0:0:
192,192,45325,1,0,0:0:0:0:
64,192,45325,1,0,0:0:0:0:
448,192,45385,1,0,0:0:0:0:
192,192,45445,1,0,0:0:0:0:
64,192,45445,1,0,0:0:0:0:
448,192,45505,1,0,0:0:0:0:
192,192,45565,1,0,0:0:0:0:
64,192,45565,1,0,0:0:0:0:
320,192,45625,1,0,0:0:0:0:
448,192,45685,1,0,0:0:0:0:
64,192,45685,1,0,0:0:0:0:
192,192,45745,1,0,0:0:0:0:
448,192,45805,1,0,0:0:0:0:
320,192,45805,1,0,0:0:0:0:
64,192,45865,1,0,0:0:0:0:
192,192,45925,1,0,0:0:0:0:
320,192,45985,1,0,0:0:0:0:
448,192,46045,1,0,0:0:0:0:
64,192,46045,1,0,0:0:0:0:
192,192,46105,1,0,0:0:0:0:
320,192,46165,1,0,0:0:0:0:
64,192,46165,1,0,0:0:0:0:
192,192,46225,1,0,0:0:0:0:
448,192,46285,1,0,0:0:0:0:
320,192,46285,1,0,0:0:0:0:
64,192,46345,1,0,0:0:0:0:
448,192,46405,1,0,0:0:0:0:
320,192,46405,1,0,0:0:0:0:
192,192,46465,1,0,0:0:0:0:
448,192,46525,1,0,0:0:0:0:
320,192,46525,1,0,0:0:0:0:
64,192,46585,1,0,0:0:0:0:
448,192,46645,1,0,0:0:0:0:
192,192,46645,1,0,0:0:0:0:
320,192,46705,1,0,0:0:0:0:
192,192,46765,1,0,0:0:0:0:
64,192,46765,1,0,0:0:0:0:
448,192,46825,1,0,0:0:0:0:
192,192,46885,1,0,0:0:0:0:
64,192,46885,1,0,0:0:0:0:
320,192,46945,1,0,0:0:0:0:
192,192,47005,1,0,0:0:0:0:
64,192,47005,1,0,0:0:0:0:
448,192,47065,1,0,0:0:0:0:
320,192,47125,1,0,0:0:0:0:
192,192,47125,1,0,0:0:0:0:
448,192,47185,1,0,0:0:0:0:
320,192,47245,1,0,0:0:0:0:
64,192,47245,1,0,0:0:0:0:
192,192,47305,1,0,0:0:0:0:
320,192,47365,1,0,0:0:0:0:
64,192,47365,1,0,0:0:0:0:
448,192,47425,1,0,0:0:0:0:
320,192,47485,1,0,0:0:0:0:
64,192,47485,1,0,0:0:0:0:
192,192,47545,1,0,0:0:0:0:
448,192,47605,1,0,0:0:0:0:
320,192,47605,1,0,0:0:0:0:
192,192,47665,1,0,0:0:0:0:
448,192,47725,1,0,0:0:0:0:
64,192,47725,1,0,0:0:0:0:
192,192,47785,1,0,0:0:0:0:
320,192,47845,1,0,0:0:0:0:
448,192,47905,1,0,0:0:0:0:
192,192,47965,1,0,0:0:0:0:
64,192,47965,1,0,0:0:0:0:
320,192,48025,1,0,0:0:0:0:
448,192,48085,1,0,0:0:0:0:
192,192,48085,1,0,0:0:0:0:
64,192,48145,1,0,0:0:0:0:
448,192,48205,1,0,0:0:0:0:
320,192,48205,1,0,0:0:0:0:
192,192,48265,1,0,0:0:0:0:
448,192,48325,1,0,0:0:0:0:
320,192,48325,1,0,0:0:0:0:
64,192,48385,1,0,0:0:0:0:
448,192,48445,1,0,0:0:0:0:
320,192,48445,1,0,0:0:0:0:
192,192,48505,1,0,0:0:0:0:
320,192,48565,1,0,0:0:0:0:
64,192,48565,1,0,0:0:0:0:
448,192,48625,1,0,0:0:0:0:
192,192,48685,1,0,0:0:0:0:
64,192,48685,1,0,0:0:0:0:
320,192,48745,1,0,0:0:0:0:
192,192,48805,1,0,0:0:0:0:
64,192,48805,1,0,0:0:0:0:
448,192,48865,1,0,0:0:0:0:
192,192,48925,1,0,0:0:0:0:
64,192,48925,1,0,0:0:0:0:
320,192,48985,1,0,0:0:0:0:
448,192,49045,1,0,0:0:0:0:
192,192,49045,1,0,0:0:0:0:
320,192,49105,1,0,0:0:0:0:
448,192,49165,1,0,0:0:0:0:
64,192,49165,1,0,0:0:0:0:
192,192,49225,1,0,0:0:0:0:
448,192,49285,1,0,0:0:0:0:
64,192,49285,1,0,0:0:0:0:
320,192,49345,1,0,0:0:0:0:
448,192,49405,1,0,0:0:0:0:
64,192,49405,1,0,0:0:0:0:
192,192,49465,1,0,0:0:0:0:
448,192,49525,1,0,0:0:0:0:
320,192,49525,1,0,0:0:0:0:
192,192,49585,1,0,0:0:0:0:
320,192,49645,1,0,0:0:0:0:
64,192,49645,1,0,0:0:0:0:
448,192,49705,1,0,0:0:0:0:
192,192,49765,1,0,0:0:0:0:
320,192,49825,1,0,0:0:0:0:
448,192,49885,1,0,0:0:0:0:
64,192,49885,1,0,0:0:0:0:
192,192,49945,1,0,0:0:0:0:
448,192,50005,1,0,0:0:0:0:
320,192,50005,1,0,0:0:0:0:
64,192,50065,1,0,0:0:0:0:
448,192,50125,1,0,0:0:0:0:
192,192,50125,1,0,0:0:0:0:
320,192,50185,1,0,0:0:0:0:
448,192,50245,1,0,0:0:0:0:
192,192,50245,1,0,0:0:0:0:
64,192,50305,1,0,0:0:0:0:
448,192,50365,1,0,0:0:0:0:
192,192,50365,1,0,0:0:0:0:
320,192,50425,1,0,0:0:0:0:
192,192,50485,1,0,0:0:0:0:
64,192,50485,1,0,0:0:0:0:
448,192,50545,1,0,0:0:0:0:
320,192,50605,1,0,0:0:0:0:
192,192,50605,1,0,0:0:0:0:
64,192,50665,1,0,0:0:0:0:
320,192,50725,1,0,0:0:0:0:
192,192,50725,1,0,0:0:0:0:
448,192,50785,1,0,0:0:0:0:
320,192,50845,1,0,0:0:0:0:
192,192,50845,1,0,0:0:0:0:
64,192,50905,1,0,0:0:0:0:
448,192,50965,1,0,0:0:0:0:
320,192,50965,1,0,0:0:0:0:
192,192,51025,1,0,0:0:0:0:
448,192,51085,1,0,0:0:0:0:
64,192,51085,1,0,0:0:0:0:
192,192,51145,1,0,0:0:0:0:
448,192,51205,1,0,0:0:0:0:
320,192,51205,1,0,0:0:0:0:
448,192,51325,1,0,0:0:0:0:
64,192,51325,1,0,0:0:0:0:
320,192,51445,1,0,0:0:0:0:
64,192,51445,1,0,0:0:0:0:
448,192,51565,1,0,0:0:0:0:
320,192,51605,1,0,0:0:0:0:
192,192,51645,1,0,0:0:0:0:
64,192,51685,1,0,0:0:0:0:
320,192,51725,1,0,0:0:0:0:
192,192,51765,1,0,0:0:0:0:
64,192,51805,1,0,0:0:0:0:
448,192,51845,1,0,0:0:0:0:
192,192,51885,1,0,0:0:0:0:
320,192,51925,1,0,0:0:0:0:
448,192,51965,1,0,0:0:0:0:
64,192,52005,1,0,0:0:0:0:
320,192,52045,1,0,0:0:0:0:
192,192,52085,1,0,0:0:0:0:
448,192,52125,1,0,0:0:0:0:
64,192,52165,1,0,0:0:0:0:
192,192,52205,1,0,0:0:0:0:
320,192,52245,1,0,0:0:0:0:
448,192,52285,1,0,0:0:0:0:
64,192,52325,1,0,0:0:0:0:
320,192,52365,1,0,0:0:0:0:
192,192,52405,1,0,0:0:0:0:
448,192,52525,1,0,0:0:0:0:
320,192,52525,1,0,0:0:0:0:
192,192,52565,1,0,0:0:0:0:
64,192,52605,1,0,0:0:0:0:
320,192,52645,1,0,0:0:0:0:
192,192,52685,1,0,0:0:0:0:
448,192,52725,1,0,0:0:0:0:
64,192,52765,1,0,0:0:0:0:
192,192,52805,1,0,0:0:0:0:
320,192,52845,1,0,0:0:0:0:
448,192,52885,1,0,0:0:0:0:
192,192,52925,1,0,0:0:0:0:
64,192,52965,1,0,0:0:0:0:
320,192,53005,1,0,0:0:0:0:
448,192,53045,1,0,0:0:0:0:
64,192,53085,1,0,0:0:0:0:
192,192,53125,1,0,0:0:0:0:
320,192,53165,1,0,0:0:0:0:
64,192,53205,1,0,0:0:0:0:
448,192,53245,1,0,0:0:0:0:
192,192,53285,1,0,0:0:0:0:
320,192,53325,1,0,0:0:0:0:
448,192,53365,1,0,0:0:0:0:
192,192,53485,1,0,0:0:0:0:
64,192,53485,1,0,0:0:0:0:
320,192,53525,1,0,0:0:0:0:
448,192,53565,1,0,0:0:0:0:
192,192,53605,1,0,0:0:0:0:
320,192,53645,1,0,0:0:0:0:
64,192,53685,1,0,0:0:0:0:
192,192,53725,1,0,0:0:0:0:
448,192,53765,1,0,0:0:0:0:
320,192,53805,1,0,0:0:0:0:
192,192,53845,1,0,0:0:0:0:
448,192,53885,1,0,0:0:0:0:
320,192,53925,1,0,0:0:0:0:
192,192,53965,1,0,0:0:0:0:
64,192,54005,1,0,0:0:0:0:
320,192,54045,1,0,0:0:0:0:
192,192,54085,1,0,0:0:0:0:
64,192,54125,1,0,0:0:0:0:
448,192,54165,1,0,0:0:0:0:
192,192,54205,1,0,0:0:0:0:
320,192,54245,1,0,0:0:0:0:
448,192,54285,1,0,0:0:0:0:
64,192,54325,1,0,0:0:0:0:
448,192,54445,1,0,0:0:0:0:
320,192,54445,1,0,0:0:0:0:
64,192,54485,1,0,0:0:0:0:
192,192,54525,1,0,0:0:0:0:
320,192,54565,1,0,0:0:0:0:
64,192,54605,1,0,0:0:0:0:
448,192,54645,1,0,0:0:0:0:
320,192,54685,1,0,0:0:0:0:
192,192,54725,1,0,0:0:0:0:
448,192,54765,1,0,0:0:0:0:
64,192,54805,1,0,0:0:0:0:
192,192,54845,1,0,0:0:0:0:
320,192,54885,1,0,0:0:0:0:
448,192,54925,1,0,0:0:0:0:
192,192,54965,1,0,0:0:0:0:
320,192,55005,1,0,0:0:0:0:
64,192,55045,1,0,0:0:0:0:
448,192,55085,1,0,0:0:0:0:
320,192,55125,1,0,0:0:0:0:
192,192,55165,1,0,0:0:0:0:
448,192,55205,1,0,0:0:0:0:
320,192,55245,1,0,0:0:0:0:
64,192,55285,1,0,0:0:0:0:
448,192,55405,1,0,0:0:0:0:
320,192,55405,1,0,0:0:0:0:
64,192,55445,1,0,0:0:0:0:
192,192,55485,1,0,0:0:0:0:
448,192,55525,1,0,0:0:0:0:
320,192,55565,1,0,0:0:0:0:
192,192,55605,1,0,0:0:0:0:
448,192,55645,1,0,0:0:0:0:
64,192,55685,1,0,0:0:0:0:
192,192,55725,1,0,0:0:0:0:
320,192,55765,1,0,0:0:0:0:
64,192,55805,1,0,0:0:0:0:
448,192,55845,1,0,0:0:0:0:
320,192,55885,1,0,0:0:0:0:
192,192,55925,1,0,0:0:0:0:
64,192,55965,1,0,0:0:0:0:
320,192,56005,1,0,0:0:0:0:
192,192,56045,1,0,0:0:0:0:
448,192,56085,1,0,0:0:0:0:
64,192,56125,1,0,0:0:0:0:
192,192,56165,1,0,0:0:0:0:
320,192,56205,1,0,0:0:0:0:
448,192,56245,1,0,0:0:0:0:
320,192,56365,1,0,0:0:0:0:
64,192,56365,1,0,0:0:0:0:
192,192,56405,1,0,0:0:0:0:
448,192,56445,1,0,0:0:0:0:
64,192,56485,1,0,0:0:0:0:
320,192,56525,1,0,0:0:0:0:
448,192,56565,1,0,0:0:0:0:
192,192,56605,1,0,0:0:0:0:
320,192,56645,1,0,0:0:0:0:
64,192,56685,1,0,0:0:0:0:
192,192,56725,1,0,0:0:0:0:
448,192,56765,1,0,0:0:0:0:
320,192,56805,1,0,0:0:0:0:
64,192,56845,1,0,0:0:0:0:
448,192,56885,1,0,0:0:0:0:
192,192,56925,1,0,0:0:0:0:
320,192,56965,1,0,0:0:0:0:
64,192,57005,1,0,0:0:0:0:
192,192,57045,1,0,0:0:0:0:
320,192,57085,1,0,0:0:0:0:
448,192,57125,1,0,0:0:0:0:
192,192,57165,1,0,0:0:0:0:
64,192,57205,1,0,0:0:0:0:
448,192,57325,1,0,0:0:0:0:
192,192,57325,1,0,0:0:0:0:
64,192,57365,1,0,0:0:0:0:
320,192,57405,1,0,0:0:0:0:
192,192,57445,1,0,0:0:0:0:
448,192,57485,1,0,0:0:0:0:
320,192,57525,1,0,0:0:0:0:
64,192,57565,1,0,0:0:0:0:
192,192,57605,1,0,0:0:0:0:
448,192,57645,1,0,0:0:0:0:
64,192,57685,1,0,0:0:0:0:
320,192,57725,1,0,0:0:0:0:
448,192,57765,1,0,0:0:0:0:
192,192,57805,1,0,0:0:0:0:
320,192,57845,1,0,0:0:0:0:
448,192,57885,1,0,0:0:0:0:
64,192,57925,1,0,0:0:0:0:
192,192,57965,1,0,0:0:0:0:
320,192,58005,1,0,0:0:0:0:
448,192,58045,1,0,0:0:0:0:
64,192,58085,1,0,0:0:0:0:
320,192,58125,1,0,0:0:0:0:
192,192,58165,1,0,0:0:0:0:
448,192,58285,1,0,0:0:0:0:
320,192,58325,1,0,0:0:0:0:
192,192,58365,1,0,0:0:0:0:
448,192,58405,1,0,0:0:0:0:
320,192,58525,1,0,0:0:0:0:
192,192,58525,1,0,0:0:0:0:
64,192,58525,1,0,0:0:0:0:
448,192,58645,1,0,0:0:0:0:
192,192,58645,1,0,0:0:0:0:
64,192,58645,1,0,0:0:0:0:
448,192,58765,1,0,0:0:0:0:
320,192,58765,1,0,0:0:0:0:
64,192,58765,1,0,0:0:0:0:
448,192,58885,1,0,0:0:0:0:
320,192,58885,1,0,0:0:0:0:
192,192,58885,1,0,0:0:0:0:
448,192,59005,1,0,0:0:0:0:
320,192,59005,1,0,0:0:0:0:
64,192,59005,1,0,0:0:0:0:
448,192,59125,1,0,0:0:0:0:
192,192,59125,1,0,0:0:0:0:
64,192,59125,1,0,0:0:0:0:
448,192,59245,1,0,0:0:0:0:
320,192,59245,1,0,0:0:0:0:
192,192,59245,1,0,0:0:0:0:
64,192,59285,1,0,0:0:0:0:
320,192,59325,1,0,0:0:0:0:
192,192,59365,1,0,0:0:0:0:
448,192,59405,1,0,0:0:0:0:
320,192,59445,1,0,0:0:0:0:
64,192,59485,1,0,0:0:0:0:
192,192,59525,1,0,0:0:0:0:
320,192,59565,1,0,0:0:0:0:
448,192,59605,1,0,0:0:0:0:
192,192,59645,1,0,0:0:0:0:
64,192,59685,1,0,0:0:0:0:
320,192,59725,1,0,0:0:0:0:
192,192,59765,1,0,0:0:0:0:
448,192,59805,1,0,0:0:0:0:
320,192,59845,1,0,0:0:0:0:
64,192,59885,1,0,0:0:0:0:
448,192,59925,1,0,0:0:0:0:
192,192,59965,1,0,0:0:0:0:
320,192,60005,1,0,0:0:0:0:
448,192,60045,1,0,0:0:0:0:
64,192,60085,1,0,0:0:0:0:
320,192,60205,1,0,0:0:0:0:
192,192,60205,1,0,0:0:0:0:
448,192,60245,1,0,0:0:0:0:
64,192,60285,1,0,0:0:0:0:
320,192,60325,1,0,0:0:0:0:
192,192,60365,1,0,0:0:0:0:
448,192,60405,1,0,0:0:0:0:
320,192,60445,1,0,0:0:0:0:
192,192,60485,1,0,0:0:0:0:
64,192,60525,1,0,0:0:0:0:
448,192,60565,1,0,0:0:0:0:
192,192,60605,1,0,0:0:0:0:
320,192,60645,1,0,0:0:0:0:
448,192,60685,1,0,0:0:0:0:
64,192,60725,1,0,0:0:0:0:
192,192,60765,1,0,0:0:0:0:
320,192,60805,1,0,0:0:0:0:
64,192,60845,1,0,0:0:0:0:
448,192,60885,1,0,0:0:0:0:
320,192,60925,1,0,0:0:0:0:
192,192,60965,1,0,0:0:0:0:
448,192,61005,1,0,0:0:0:0:
64,192,61045,1,0,0:0:0:0:
448,192,61165,1,0,0:0:0:0:
192,192,61165,1,0,0:0:0:0:
64,192,61205,1,0,0:0:0:0:
320,192,61245,1,0,0:0:0:0:
448,192,61285,1,0,0:0:0:0:
64,192,61325,1,0,0:0:0:0:
192,192,61365,1,0,0:0:0:0:
320,192,61405,1,0,0:0:0:0:
64,192,61445,1,0,0:0:0:0:
448,192,61485,1,0,0:0:0:0:
320,192,61525,1,0,0:0:0:0:
192,192,61565,1,0,0:0:0:0:
448,192,61605,1,0,0:0:0:0:
64,192,61645,1,0,0:0:0:0:
192,192,61685,1,0,0:0:0:0:
320,192,61725,1,0,0:0:0:0:
448,192,61765,1,0,0:0:0:0:
192,192,61805,1,0,0:0:0:0:
320,192,61845,1,0,0:0:0:0:
64,192,61885,1,0,0:0:0:0:
448,192,61925,1,0,0:0:0:0:
320,192,61965,1,0,0:0:0:0:
192,192,62005,1,0,0:0:0:0:
448,192,62125,1,0,0:0:0:0:
320,192,62125,1,0,0:0:0:0:
64,192,62165,1,0,0:0:0:0:
192,192,62205,1,0,0:0:0:0:
448,192,62245,1,0,0:0:0:0:
64,192,62285,1,0,0:0:0:0:
320,192,62325,1,0,0:0:0:0:
192,192,62365,1,0,0:0:0:0:
448,192,62405,1,0,0:0:0:0:
320,192,62445,1,0,0:0:0:0:
192,192,62485,1,0,0:0:0:0:
64,192,62525,1,0,0:0:0:0:
320,192,62565,1,0,0:0:0:0:
448,192,62605,1,0,0:0:0:0:
320,192,62725,1,0,0:0:0:0:
192,192,62725,1,0,0:0:0:0:
64,192,62725,1,0,0:0:0:0:
448,192,62845,1,0,0:0:0:0:
192,192,62845,1,0,0:0:0:0:
64,192,62845,1,0,0:0:0:0:
448,192,62965,1,0,0:0:0:0:
320,192,62965,1,0,0:0:0:0:
192,192,62965,1,0,0:0:0:0:
320,192,63085,1,0,0:0:0:0:
448,192,63085,1,0,0:0:0:0:
64,192,63085,1,0,0:0:0:0:
192,192,63085,1,0,0:0:0:0:
64,192,63325,1,0,0:0:0:0:
192,192,63385,1,0,0:0:0:0:
320,192,63445,1,0,0:0:0:0:
448,192,63505,1,0,0:0:0:0:
192,192,63565,1,0,0:0:0:0:
64,192,63625,1,0,0:0:0:0:
448,192,63685,1,0,0:0:0:0:
320,192,63685,1,0,0:0:0:0:
192,192,63725,1,0,0:0:0:0:
64,192,63765,1,0,0:0:0:0:
320,192,63805,1,0,0:0:0:0:
192,192,63845,1,0,0:0:0:0:
448,192,63885,1,0,0:0:0:0:
320,192,63925,1,0,0:0:0:0:
64,192,63965,1,0,0:0:0:0:
192,192,64005,1,0,0:0:0:0:
448,192,64045,1,0,0:0:0:0:
64,192,64105,1,0,0:0:0:0:
448,192,64165,1,0,0:0:0:0:
320,192,64165,1,0,0:0:0:0:
192,192,64205,1,0,0:0:0:0:
64,192,64245,1,0,0:0:0:0:
320,192,64285,1,0,0:0:0:0:
192,192,64325,1,0,0:0:0:0:
448,192,64365,1,0,0:0:0:0:
320,192,64405,1,0,0:0:0:0:
64,192,64445,1,0,0:0:0:0:
192,192,64485,1,0,0:0:0:0:
448,192,64525,1,0,0:0:0:0:
320,192,64585,1,0,0:0:0:0:
192,192,64645,1,0,0:0:0:0:
64,192,64645,1,0,0:0:0:0:
320,192,64685,1,0,0:0:0:0:
448,192,64725,1,0,0:0:0:0:
192,192,64765,1,0,0:0:0:0:
320,192,64805,1,0,0:0:0:0:
64,192,64845,1,0,0:0:0:0:
192,192,64885,1,0,0:0:0:0:
448,192,64925,1,0,0:0:0:0:
320,192,64965,1,0,0:0:0:0:
64,192,65005,1,0,0:0:0:0:
192,192,65065,1,0,0:0:0:0:
448,192,65125,1,0,0:0:0:0:
64,192,65125,1,0,0:0:0:0:
192,192,65165,1,0,0:0:0:0:
320,192,65205,1,0,0:0:0:0:
448,192,65245,1,0,0:0:0:0:
64,192,65285,1,0,0:0:0:0:
320,192,65325,1,0,0:0:0:0:
192,192,65365,1,0,0:0:0:0:
448,192,65405,1,0,0:0:0:0:
320,192,65445,1,0,0:0:0:0:
64,192,65485,1,0,0:0:0:0:
448,192,65545,1,0,0:0:0:0:
320,192,65605,1,0,0:0:0:0:
192,192,65605,1,0,0:0:0:0:
64,192,65645,1,0,0:0:0:0:
448,192,65685,1,0,0:0:0:0:
192,192,65725,1,0,0:0:0:0:
320,192,65765,1,0,0:0:0:0:
64,192,65805,1,0,0:0:0:0:
448,192,65845,1,0,0:0:0:0:
320,192,65885,1,0,0:0:0:0:
64,192,65925,1,0,0:0:0:0:
192,192,65965,1,0,0:0:0:0:
448,192,66025,1,0,0:0:0:0:
320,192,66085,1,0,0:0:0:0:
192,192,66085,1,0,0:0:0:0:
64,192,66125,1,0,0:0:0:0:
448,192,66165,1,0,0:0:0:0:
192,192,66205,1,0,0:0:0:0:
320,192,66245,1,0,0:0:0:0:
64,192,66285,1,0,0:0:0:0:
448,192,66325,1,0,0:0:0:0:
320,192,66365,1,0,0:0:0:0:
192,192,66405,1,0,0:0:0:0:
64,192,66445,1,0,0:0:0:0:
320,192,66505,1,0,0:0:0:0:
192,192,66565,1,0,0:0:0:0:
64,192,66565,1,0,0:0:0:0:
448,192,66605,1,0,0:0:0:0:
320,192,66645,1,0,0:0:0:0:
192,192,66685,1,0,0:0:0:0:
448,192,66725,1,0,0:0:0:0:
64,192,66765,1,0,0:0:0:0:
192,192,66805,1,0,0:0:0:0:
320,192,66845,1,0,0:0:0:0:
448,192,66885,1,0,0:0:0:0:
64,192,66925,1,0,0:0:0:0:
320,192,66985,1,0,0:0:0:0:
448,192,67045,1,0,0:0:0:0:
192,192,67045,1,0,0:0:0:0:
64,192,67085,1,0,0:0:0:0:
320,192,67125,1,0,0:0:0:0:
448,192,67165,1,0,0:0:0:0:
64,192,67205,1,0,0:0:0:0:
192,192,67245,1,0,0:0:0:0:
320,192,67285,1,0,0:0:0:0:
448,192,67325,1,0,0:0:0:0:
64,192,67365,1,0,0:0:0:0:
320,192,67405,1,0,0:0:0:0:
192,192,67465,1,0,0:0:0:0:
448,192,67525,1,0,0:0:0:0:
64,192,67525,1,0,0:0:0:0:
320,192,67565,1,0,0:0:0:0:
192,192,67605,1,0,0:0:0:0:
64,192,67645,1,0,0:0:0:0:
320,192,67685,1,0,0:0:0:0:
448,192,67725,1,0,0:0:0:0:
192,192,67765,1,0,0:0:0:0:
64,192,67805,1,0,0:0:0:0:
448,192,67845,1,0,0:0:0:0:
320,192,67885,1,0,0:0:0:0:
64,192,67945,1,0,0:0:0:0:
320,192,68005,1,0,0:0:0:0:
192,192,68005,1,0,0:0:0:0:
448,192,68045,1,0,0:0:0:0:
64,192,68085,1,0,0:0:0:0:
192,192,68125,1,0,0:0:0:0:
448,192,68165,1,0,0:0:0:0:
64,192,68205,1,0,0:0:0:0:
192,192,68245,1,0,0:0:0:0:
320,192,68285,1,0,0:0:0:0:
448,192,68325,1,0,0:0:0:0:
64,192,68365,1,0,0:0:0:0:
448,192,68425,1,0,0:0:0:0:
320,192,68485,1,0,0:0:0:0:
64,192,68485,1,0,0:0:0:0:
192,192,68525,1,0,0:0:0:0:
448,192,68565,1,0,0:0:0:0:
320,192,68605,1,0,0:0:0:0:
64,192,68645,1,0,0:0:0:0:
192,192,68685,1,0,0:0:0:0:
448,192,68725,1,0,0:0:0:0:
320,192,68765,1,0,0:0:0:0:
192,192,68805,1,0,0:0:0:0:
448,192,68845,1,0,0:0:0:0:
320,192,68885,1,0,0:0:0:0:
64,192,68925,1,0,0:0:0:0:
448,192,68965,1,0,0:0:0:0:
320,192,68965,1,0,0:0:0:0:
192,192,68965,1,0,0:0:0:0:
64,192,69045,1,0,0:0:0:0:
320,192,69125,1,0,0:0:0:0:
64,192,69205,1,0,0:0:0:0:
320,192,69285,1,0,0:0:0:0:
192,192,69365,1,0,0:0:0:0:
448,192,69445,1,0,0:0:0:0:
320,192,69445,1,0,0:0:0:0:
64,192,69445,1,0,0:0:0:0:
192,192,69525,1,0,0:0:0:0:
320,192,69605,1,0,0:0:0:0:
192,192,69685,1,0,0:0:0:0:
448,192,69765,1,0,0:0:0:0:
320,192,69845,1,0,0:0:0:0:
448,192,69925,1,0,0:0:0:0:
192,192,69925,1,0,0:0:0:0:
64,192,69925,1,0,0:0:0:0:
320,192,70005,1,0,0:0:0:0:
448,192,70085,1,0,0:0:0:0:
64,192,70165,1,0,0:0:0:0:
192,192,70245,1,0,0:0:0:0:
448,192,70325,1,0,0:0:0:0:
320,192,70405,1,0,0:0:0:0:
192,192,70405,1,0,0:0:0:0:
64,192,70405,1,0,0:0:0:0:
448,192,70485,1,0,0:0:0:0:
192,192,70565,1,0,0:0:0:0:
448,192,70645,1,0,0:0:0:0:
64,192,70645,1,0,0:0:0:0:
320,192,70765,1,0,0:0:0:0:
192,192,70765,1,0,0:0:0:0:
64,192,70765,1,0,0:0:0:0:
64,192,71005,1,0,0:0:0:0:
448,192,71065,1,0,0:0:0:0:
320,192,71125,1,0,0:0:0:0:
192,192,71125,1,0,0:0:0:0:
448,192,71185,1,0,0:0:0:0:
64,192,71245,1,0,0:0:0:0:
192,192,71305,1,0,0:0:0:0:
64,192,71365,1,0,0:0:0:0:
320,192,71425,1,0,0:0:0:0:
64,192,71485,1,0,0:0:0:0:
448,192,71545,1,0,0:0:0:0:
320,192,71605,1,0,0:0:0:0:
192,192,71605,1,0,0:0:0:0:
64,192,71665,1,0,0:0:0:0:
448,192,71725,1,0,0:0:0:0:
320,192,71785,1,0,0:0:0:0:
448,192,71845,1,0,0:0:0:0:
192,192,71905,1,0,0:0:0:0:
448,192,71965,1,0,0:0:0:0:
64,192,72025,1,0,0:0:0:0:
320,192,72085,1,0,0:0:0:0:
192,192,72085,1,0,0:0:0:0:
448,192,72145,1,0,0:0:0:0:
64,192,72205,1,0,0:0:0:0:
192,192,72265,1,0,0:0:0:0:
64,192,72325,1,0,0:0:0:0:
320,192,72385,1,0,0:0:0:0:
64,192,72445,1,0,0:0:0:0:
448,192,72505,1,0,0:0:0:0:
320,192,72565,1,0,0:0:0:0:
192,192,72565,1,0,0:0:0:0:
448,192,72685,1,0,0:0:0:0:
320,192,72685,1,0,0:0:0:0:
64,192,72685,1,0,0:0:0:0:
320,192,72925,1,0,0:0:0:0:
192,192,72985,1,0,0:0:0:0:
448,192,73045,1,0,0:0:0:0:
64,192,73045,1,0,0:0:0:0:
320,192,73105,1,0,0:0:0:0:
192,192,73165,1,0,0:0:0:0:
64,192,73225,1,0,0:0:0:0:
192,192,73285,1,0,0:0:0:0:
448,192,73345,1,0,0:0:0:0:
192,192,73405,1,0,0:0:0:0:
320,192,73465,1,0,0:0:0:0:
448,192,73525,1,0,0:0:0:0:
64,192,73525,1,0,0:0:0:0:
192,192,73585,1,0,0:0:0:0:
320,192,73645,1,0,0:0:0:0:
64,192,73705,1,0,0:0:0:0:
320,192,73765,1,0,0:0:0:0:
448,192,73825,1,0,0:0:0:0:
320,192,73885,1,0,0:0:0:0:
192,192,73945,1,0,0:0:0:0:
448,192,74005,1,0,0:0:0:0:
64,192,74005,1,0,0:0:0:0:
320,192,74065,1,0,0:0:0:0:
192,192,74125,1,0,0:0:0:0:
64,192,74185,1,0,0:0:0:0:
192,192,74245,1,0,0:0:0:0:
448,192,74305,1,0,0:0:0:0:
192,192,74365,1,0,0:0:0:0:
320,192,74425,1,0,0:0:0:0:
448,192,74485,1,0,0:0:0:0:
64,192,74485,1,0,0:0:0:0:
320,192,74605,1,0,0:0:0:0:
192,192,74605,1,0,0:0:0:0:
64,192,74605,1,0,0:0:0:0:
448,192,74845,1,0,0:0:0:0:
192,192,74905,1,0,0:0:0:0:
320,192,74965,1,0,0:0:0:0:
64,192,74965,1,0,0:0:0:0:
448,192,75025,1,0,0:0:0:0:
192,192,75085,1,0,0:0:0:0:
320,192,75145,1,0,0:0:0:0:
192,192,75205,1,0,0:0:0:0:
64,192,75265,1,0,0:0:0:0:
192,192,75325,1,0,0:0:0:0:
448,192,75385,1,0,0:0:0:0:
320,192,75445,1,0,0:0:0:0:
64,192,75445,1,0,0:0:0:0:
192,192,75505,1,0,0:0:0:0:
448,192,75565,1,0,0:0:0:0:
320,192,75625,1,0,0:0:0:0:
448,192,75685,1,0,0:0:0:0:
64,192,75745,1,0,0:0:0:0:
448,192,75805,1,0,0:0:0:0:
192,192,75865,1,0,0:0:0:0:
320,192,75925,1,0,0:0:0:0:
64,192,75925,1,0,0:0:0:0:
448,192,75985,1,0,0:0:0:0:
192,192,76045,1,0,0:0:0:0:
320,192,76105,1,0,0:0:0:0:
192,192,76165,1,0,0:0:0:0:
64,192,76225,1,0,0:0:0:0:
192,192,76285,1,0,0:0:0:0:
448,192,76345,1,0,0:0:0:0:
320,192,76405,1,0,0:0:0:0:
64,192,76405,1,0,0:0:0:0:
448,192,76525,1,0,0:0:0:0:
192,192,76525,1,0,0:0:0:0:
64,192,76525,1,0,0:0:0:0:
320,192,76765,1,0,0:0:0:0:
64,192,76825,1,0,0:0:0:0:
448,192,76885,1,0,0:0:0:0:
192,192,76885,1,0,0:0:0:0:
320,192,76945,1,0,0:0:0:0:
64,192,77005,1,0,0:0:0:0:
192,192,77065,1,0,0:0:0:0:
64,192,77125,1,0,0:0:0:0:
448,192,77185,1,0,0:0:0:0:
64,192,77245,1,0,0:0:0:0:
320,192,77305,1,0,0:0:0:0:
448,192,77365,1,0,0:0:0:0:
192,192,77365,1,0,0:0:0:0:
64,192,77425,1,0,0:0:0:0:
320,192,77485,1,0,0:0:0:0:
192,192,77545,1,0,0:0:0:0:
320,192,77605,1,0,0:0:0:0:
448,192,77665,1,0,0:0:0:0:
320,192,77725,1,0,0:0:0:0:
64,192,77785,1,0,0:0:0:0:
448,192,77845,1,0,0:0:0:0:
192,192,77845,1,0,0:0:0:0:
320,192,77905,1,0,0:0:0:0:
64,192,77965,1,0,0:0:0:0:
320,192,78025,1,0,0:0:0:0:
448,192,78085,1,0,0:0:0:0:
192,192,78085,1,0,0:0:0:0:
64,192,78145,1,0,0:0:0:0:
448,192,78205,1,0,0:0:0:0:
192,192,78205,1,0,0:0:0:0:
320,192,78265,1,0,0:0:0:0:
448,192,78325,1,0,0:0:0:0:
192,192,78325,1,0,0:0:0:0:
448,192,78445,1,0,0:0:0:0:
320,192,78445,1,0,0:0:0:0:
64,192,78445,1,0,0:0:0:0:
320,192,78685,1,0,0:0:0:0:
448,192,78745,1,0,0:0:0:0:
192,192,78805,1,0,0:0:0:0:
64,192,78805,1,0,0:0:0:0:
320,192,78865,1,0,0:0:0:0:
448,192,78925,1,0,0:0:0:0:
64,192,78985,1,0,0:0:0:0:
448,192,79045,1,0,0:0:0:0:
192,192,79105,1,0,0:0:0:0:
448,192,79165,1,0,0:0:0:0:
320,192,79225,1,0,0:0:0:0:
192,192,79285,1,0,0:0:0:0:
64,192,79285,1,0,0:0:0:0:
448,192,79345,1,0,0:0:0:0:
320,192,79405,1,0,0:0:0:0:
64,192,79465,1,0,0:0:0:0:
320,192,79525,1,0,0:0:0:0:
192,192,79585,1,0,0:0:0:0:
320,192,79645,1,0,0:0:0:0:
448,192,79705,1,0,0:0:0:0:
192,192,79765,1,0,0:0:0:0:
64,192,79765,1,0,0:0:0:0:
320,192,79825,1,0,0:0:0:0:
448,192,79885,1,0,0:0:0:0:
64,192,79945,1,0,0:0:0:0:
448,192,80005,1,0,0:0:0:0:
192,192,80065,1,0,0:0:0:0:
448,192,80125,1,0,0:0:0:0:
320,192,80185,1,0,0:0:0:0:
192,192,80245,1,0,0:0:0:0:
64,192,80245,1,0,0:0:0:0:
448,192,80365,1,0,0:0:0:0:
320,192,80365,1,0,0:0:0:0:
192,192,80365,1,0,0:0:0:0:
64,192,80605,1,0,0:0:0:0:
192,192,80665,1,0,0:0:0:0:
448,192,80725,1,0,0:0:0:0:
320,192,80725,1,0,0:0:0:0:
64,192,80785,1,0,0:0:0:0:
192,192,80845,1,0,0:0:0:0:
448,192,80905,1,0,0:0:0:0:
192,192,80965,1,0,0:0:0:0:
320,192,81025,1,0,0:0:0:0:
192,192,81085,1,0,0:0:0:0:
64,192,81145,1,0,0:0:0:0:
448,192,81205,1,0,0:0:0:0:
320,192,81205,1,0,0:0:0:0:
192,192,81265,1,0,0:0:0:0:
64,192,81325,1,0,0:0:0:0:
448,192,81385,1,0,0:0:0:0:
64,192,81445,1,0,0:0:0:0:
320,192,81505,1,0,0:0:0:0:
64,192,81565,1,0,0:0:0:0:
192,192,81625,1,0,0:0:0:0:
448,192,81685,1,0,0:0:0:0:
320,192,81685,1,0,0:0:0:0:
64,192,81745,1,0,0:0:0:0:
192,192,81805,1,0,0:0:0:0:
320,192,81865,1,0,0:0:0:0:
192,192,81925,1,0,0:0:0:0:
448,192,81985,1,0,0:0:0:0:
192,192,82045,1,0,0:0:0:0:
64,192,82105,1,0,0:0:0:0:
448,192,82165,1,0,0:0:0:0:
320,192,82165,1,0,0:0:0:0:
448,192,82285,1,0,0:0:0:0:
192,192,82285,1,0,0:0:0:0:
64,192,82285,1,0,0:0:0:0:
192,192,82525,1,0,0:0:0:0:
448,192,82585,1,0,0:0:0:0:
320,192,82645,1,0,0:0:0:0:
64,192,82645,1,0,0:0:0:0:
192,192,82705,1,0,0:0:0:0:
448,192,82765,1,0,0:0:0:0:
320,192,82825,1,0,0:0:0:0:
448,192,82885,1,0,0:0:0:0:
64,192,82945,1,0,0:0:0:0:
448,192,83005,1,0,0:0:0:0:
192,192,83065,1,0,0:0:0:0:
320,192,83125,1,0,0:0:0:0:
64,192,83125,1,0,0:0:0:0:
448,192,83185,1,0,0:0:0:0:
192,192,83245,1,0,0:0:0:0:
320,192,83305,1,0,0:0:0:0:
192,192,83365,1,0,0:0:0:0:
64,192,83425,1,0,0:0:0:0:
192,192,83485,1,0,0:0:0:0:
448,192,83545,1,0,0:0:0:0:
320,192,83605,1,0,0:0:0:0:
64,192,83605,1,0,0:0:0:0:
192,192,83665,1,0,0:0:0:0:
448,192,83725,1,0,0:0:0:0:
320,192,83785,1,0,0:0:0:0:
448,192,83845,1,0,0:0:0:0:
64,192,83905,1,0,0:0:0:0:
448,192,83965,1,0,0:0:0:0:
192,192,84025,1,0,0:0:0:0:
320,192,84085,1,0,0:0:0:0:
64,192,84085,1,0,0:0:0:0:
448,192,84205,1,0,0:0:0:0:
192,192,84205,1,0,0:0:0:0:
448,192,84325,1,0,0:0:0:0:
64,192,84325,1,0,0:0:0:0:
192,192,84405,1,0,0:0:0:0:
64,192,84445,1,0,0:0:0:0:
320,192,84485,1,0,0:0:0:0:
448,192,84565,1,0,0:0:0:0:
192,192,84565,1,0,0:0:0:0:
320,192,84645,1,0,0:0:0:0:
192,192,84685,1,0,0:0:0:0:
64,192,84725,1,0,0:0:0:0:
448,192,84805,1,0,0:0:0:0:
320,192,84805,1,0,0:0:0:0:
192,192,84885,1,0,0:0:0:0:
320,192,84925,1,0,0:0:0:0:
64,192,84965,1,0,0:0:0:0:
448,192,85045,1,0,0:0:0:0:
320,192,85045,1,0,0:0:0:0:
64,192,85125,1,0,0:0:0:0:
448,192,85165,1,0,0:0:0:0:
192,192,85205,1,0,0:0:0:0:
448,192,85285,1,0,0:0:0:0:
320,192,85285,1,0,0:0:0:0:
64,192,85365,1,0,0:0:0:0:
320,192,85405,1,0,0:0:0:0:
192,192,85405,1,0,0:0:0:0:
448,192,85445,1,0,0:0:0:0:
192,192,85525,1,0,0:0:0:0:
64,192,85525,1,0,0:0:0:0:
448,192,85605,1,0,0:0:0:0:
320,192,85645,1,0,0:0:0:0:
192,192,85645,1,0,0:0:0:0:
64,192,85685,1,0,0:0:0:0:
448,192,85765,1,0,0:0:0:0:
320,192,85765,1,0,0:0:0:0:
192,192,85845,1,0,0:0:0:0:
448,192,85885,1,0,0:0:0:0:
64,192,85885,1,0,0:0:0:0:
320,192,85925,1,0,0:0:0:0:
448,192,86005,1,0,0:0:0:0:
64,192,86005,1,0,0:0:0:0:
192,192,86065,1,0,0:0:0:0:
448,192,86125,1,0,0:0:0:0:
320,192,86125,1,0,0:0:0:0:
64,192,86125,1,0,0:0:0:0:
448,192,86365,1,0,0:0:0:0:
320,192,86425,1,0,0:0:0:0:
192,192,86485,1,0,0:0:0:0:
64,192,86485,1,0,0:0:0:0:
320,192,86545,1,0,0:0:0:0:
448,192,86605,1,0,0:0:0:0:
192,192,86665,1,0,0:0:0:0:
320,192,86725,1,0,0:0:0:0:
64,192,86725,1,0,0:0:0:0:
192,192,86785,1,0,0:0:0:0:
448,192,86845,1,0,0:0:0:0:
320,192,86905,1,0,0:0:0:0:
192,192,86965,1,0,0:0:0:0:
64,192,86965,1,0,0:0:0:0:
448,192,87025,1,0,0:0:0:0:
320,192,87085,1,0,0:0:0:0:
192,192,87145,1,0,0:0:0:0:
448,192,87205,1,0,0:0:0:0:
64,192,87205,1,0,0:0:0:0:
320,192,87265,1,0,0:0:0:0:
192,192,87325,1,0,0:0:0:0:
320,192,87385,1,0,0:0:0:0:
448,192,87445,1,0,0:0:0:0:
64,192,87445,1,0,0:0:0:0:
192,192,87505,1,0,0:0:0:0:
320,192,87565,1,0,0:0:0:0:
192,192,87625,1,0,0:0:0:0:
448,192,87685,1,0,0:0:0:0:
64,192,87685,1,0,0:0:0:0:
192,192,87745,1,0,0:0:0:0:
320,192,87805,1,0,0:0:0:0:
448,192,87865,1,0,0:0:0:0:
192,192,87925,1,0,0:0:0:0:
64,192,87925,1,0,0:0:0:0:
320,192,87985,1,0,0:0:0:0:
448,192,88045,1,0,0:0:0:0:
192,192,88045,1,0,0:0:0:0:
320,192,88105,1,0,0:0:0:0:
64,192,88165,1,0,0:0:0:0:
448,192,88225,1,0,0:0:0:0:
320,192,88285,1,0,0:0:0:0:
192,192,88345,1,0,0:0:0:0:
448,192,88405,1,0,0:0:0:0:
320,192,88405,1,0,0:0:0:0:
64,192,88465,1,0,0:0:0:0:
192,192,88525,1,0,0:0:0:0:
320,192,88585,1,0,0:0:0:0:
448,192,88645,1,0,0:0:0:0:
192,192,88645,1,0,0:0:0:0:
320,192,88705,1,0,0:0:0:0:
64,192,88765,1,0,0:0:0:0:
192,192,88825,1,0,0:0:0:0:
448,192,88885,1,0,0:0:0:0:
320,192,88885,1,0,0:0:0:0:
192,192,88945,1,0,0:0:0:0:
64,192,89005,1,0,0:0:0:0:
320,192,89065,1,0,0:0:0:0:
448,192,89125,1,0,0:0:0:0:
64,192,89125,1,0,0:0:0:0:
192,192,89185,1,0,0:0:0:0:
320,192,89245,1,0,0:0:0:0:
192,192,89305,1,0,0:0:0:0:
448,192,89365,1,0,0:0:0:0:
64,192,89365,1,0,0:0:0:0:
320,192,89425,1,0,0:0:0:0:
192,192,89485,1,0,0:0:0:0:
320,192,89545,1,0,0:0:0:0:
448,192,89605,1,0,0:0:0:0:
64,192,89605,1,0,0:0:0:0:
320,192,89665,1,0,0:0:0:0:
192,192,89725,1,0,0:0:0:0:
64,192,89785,1,0,0:0:0:0:
448,192,89845,1,0,0:0:0:0:
320,192,89845,1,0,0:0:0:0:
192,192,89905,1,0,0:0:0:0:
320,192,89965,1,0,0:0:0:0:
64,192,89965,1,0,0:0:0:0:
192,192,90025,1,0,0:0:0:0:
448,192,90085,1,0,0:0:0:0:
64,192,90145,1,0,0:0:0:0:
192,192,90205,1,0,0:0:0:0:
320,192,90265,1,0,0:0:0:0:
192,192,90325,1,0,0:0:0:0:
64,192,90325,1,0,0:0:0:0:
448,192,90385,1,0,0:0:0:0:
320,192,90445,1,0,0:0:0:0:
64,192,90505,1,0,0:0:0:0:
448,192,90565,1,0,0:0:0:0:
192,192,90565,1,0,0:0:0:0:
64,192,90625,1,0,0:0:0:0:
320,192,90685,1,0,0:0:0:0:
448,192,90745,1,0,0:0:0:0:
192,192,90805,1,0,0:0:0:0:
64,192,90805,1,0,0:0:0:0:
448,192,90865,1,0,0:0:0:0:
320,192,90925,1,0,0:0:0:0:
64,192,90985,1,0,0:0:0:0:
320,192,91045,1,0,0:0:0:0:
192,192,91045,1,0,0:0:0:0:
448,192,91105,1,0,0:0:0:0:
64,192,91165,1,0,0:0:0:0:
448,192,91225,1,0,0:0:0:0:
320,192,91285,1,0,0:0:0:0:
192,192,91285,1,0,0:0:0:0:
64,192,91345,1,0,0:0:0:0:
448,192,91405,1,0,0:0:0:0:
64,192,91465,1,0,0:0:0:0:
320,192,91525,1,0,0:0:0:0:
192,192,91525,1,0,0:0:0:0:
448,192,91585,1,0,0:0:0:0:
64,192,91645,1,0,0:0:0:0:
320,192,91705,1,0,0:0:0:0:
192,192,91765,1,0,0:0:0:0:
64,192,91765,1,0,0:0:0:0:
448,192,91825,1,0,0:0:0:0:
320,192,91885,1,0,0:0:0:0:
192,192,91885,1,0,0:0:0:0:
64,192,91945,1,0,0:0:0:0:
448,192,92005,1,0,0:0:0:0:
320,192,92065,1,0,0:0:0:0:
192,192,92125,1,0,0:0:0:0:
64,192,92185,1,0,0:0:0:0:
448,192,92245,1,0,0:0:0:0:
320,192,92245,1,0,0:0:0:0:
64,192,92305,1,0,0:0:0:0:
192,192,92365,1,0,0:0:0:0:
448,192,92425,1,0,0:0:0:0:
320,192,92485,1,0,0:0:0:0:
64,192,92485,1,0,0:0:0:0:
448,192,92545,1,0,0:0:0:0:
192,192,92605,1,0,0:0:0:0:
64,192,92665,1,0,0:0:0:0:
448,192,92725,1,0,0:0:0:0:
320,192,92725,1,0,0:0:0:0:
64,192,92785,1,0,0:0:0:0:
192,192,92845,1,0,0:0:0:0:
448,192,92905,1,0,0:0:0:0:
320,192,92965,1,0,0:0:0:0:
192,192,92965,1,0,0:0:0:0:
64,192,93025,1,0,0:0:0:0:
448,192,93085,1,0,0:0:0:0:
64,192,93145,1,0,0:0:0:0:
320,192,93205,1,0,0:0:0:0:
192,192,93205,1,0,0:0:0:0:
448,192,93265,1,0,0:0:0:0:
192,192,93325,1,0,0:0:0:0:
64,192,93325,1,0,0:0:0:0:
448,192,93385,1,0,0:0:0:0:
320,192,93445,1,0,0:0:0:0:
192,192,93445,1,0,0:0:0:0:
448,192,93505,1,0,0:0:0:0:
320,192,93565,1,0,0:0:0:0:
64,192,93565,1,0,0:0:0:0:
192,192,93625,1,0,0:0:0:0:
448,192,93685,1,0,0:0:0:0:
320,192,93685,1,0,0:0:0:0:
64,192,93745,1,0,0:0:0:0:
448,192,93805,1,0,0:0:0:0:
320,192,93805,1,0,0:0:0:0:
192,192,93805,1,0,0:0:0:0:
448,192,94045,1,0,0:0:0:0:
64,192,94105,1,0,0:0:0:0:
320,192,94165,1,0,0:0:0:0:
192,192,94165,1,0,0:0:0:0:
448,192,94225,1,0,0:0:0:0:
320,192,94285,1,0,0:0:0:0:
448,192,94345,1,0,0:0:0:0:
192,192,94405,1,0,0:0:0:0:
64,192,94405,1,0,0:0:0:0:
448,192,94465,1,0,0:0:0:0:
320,192,94525,1,0,0:0:0:0:
64,192,94585,1,0,0:0:0:0:
320,192,94645,1,0,0:0:0:0:
192,192,94645,1,0,0:0:0:0:
448,192,94705,1,0,0:0:0:0:
192,192,94765,1,0,0:0:0:0:
64,192,94825,1,0,0:0:0:0:
448,192,94885,1,0,0:0:0:0:
320,192,94885,1,0,0:0:0:0:
192,192,94945,1,0,0:0:0:0:
64,192,95005,1,0,0:0:0:0:
192,192,95065,1,0,0:0:0:0:
448,192,95125,1,0,0:0:0:0:
320,192,95125,1,0,0:0:0:0:
64,192,95185,1,0,0:0:0:0:
192,192,95245,1,0,0:0:0:0:
64,192,95305,1,0,0:0:0:0:
448,192,95365,1,0,0:0:0:0:
320,192,95365,1,0,0:0:0:0:
192,192,95425,1,0,0:0:0:0:
64,192,95485,1,0,0:0:0:0:
448,192,95545,1,0,0:0:0:0:
320,192,95605,1,0,0:0:0:0:
192,192,95605,1,0,0:0:0:0:
448,192,95665,1,0,0:0:0:0:
192,192,95725,1,0,0:0:0:0:
64,192,95725,1,0,0:0:0:0:
320,192,95785,1,0,0:0:0:0:
64,192,95845,1,0,0:0:0:0:
192,192,95905,1,0,0:0:0:0:
64,192,95965,1,0,0:0:0:0:
192,192,96025,1,0,0:0:0:0:
448,192,96085,1,0,0:0:0:0:
64,192,96085,1,0,0:0:0:0:
320,192,96145,1,0,0:0:0:0:
192,192,96205,1,0,0:0:0:0:
64,192,96265,1,0,0:0:0:0:
448,192,96325,1,0,0:0:0:0:
320,192,96325,1,0,0:0:0:0:
64,192,96385,1,0,0:0:0:0:
192,192,96445,1,0,0:0:0:0:
320,192,96505,1,0,0:0:0:0:
448,192,96565,1,0,0:0:0:0:
64,192,96565,1,0,0:0:0:0:
192,192,96625,1,0,0:0:0:0:
320,192,96685,1,0,0:0:0:0:
448,192,96745,1,0,0:0:0:0:
192,192,96805,1,0,0:0:0:0:
64,192,96805,1,0,0:0:0:0:
320,192,96865,1,0,0:0:0:0:
448,192,96925,1,0,0:0:0:0:
320,192,96985,1,0,0:0:0:0:
192,192,97045,1,0,0:0:0:0:
64,192,97045,1,0,0:0:0:0:
448,192,97105,1,0,0:0:0:0:
320,192,97165,1,0,0:0:0:0:
448,192,97225,1,0,0:0:0:0:
192,192,97285,1,0,0:0:0:0:
64,192,97285,1,0,0:0:0:0:
320,192,97345,1,0,0:0:0:0:
448,192,97405,1,0,0:0:0:0:
320,192,97465,1,0,0:0:0:0:
448,192,97525,1,0,0:0:0:0:
64,192,97525,1,0,0:0:0:0:
192,192,97585,1,0,0:0:0:0:
320,192,97645,1,0,0:0:0:0:
64,192,97645,1,0,0:0:0:0:
192,192,97705,1,0,0:0:0:0:
448,192,97765,1,0,0:0:0:0:
320,192,97765,1,0,0:0:0:0:
192,192,97825,1,0,0:0:0:0:
64,192,97885,1,0,0:0:0:0:
192,192,97945,1,0,0:0:0:0:
448,192,98005,1,0,0:0:0:0:
320,192,98005,1,0,0:0:0:0:
64,192,98065,1,0,0:0:0:0:
192,192,98125,1,0,0:0:0:0:
64,192,98185,1,0,0:0:0:0:
448,192,98245,1,0,0:0:0:0:
192,192,98245,1,0,0:0:0:0:
320,192,98305,1,0,0:0:0:0:
64,192,98365,1,0,0:0:0:0:
320,192,98425,1,0,0:0:0:0:
448,192,98485,1,0,0:0:0:0:
192,192,98485,1,0,0:0:0:0:
64,192,98545,1,0,0:0:0:0:
320,192,98605,1,0,0:0:0:0:
64,192,98665,1,0,0:0:0:0:
320,192,98725,1,0,0:0:0:0:
192,192,98725,1,0,0:0:0:0:
448,192,98785,1,0,0:0:0:0:
64,192,98845,1,0,0:0:0:0:
448,192,98905,1,0,0:0:0:0:
320,192,98965,1,0,0:0:0:0:
192,192,98965,1,0,0:0:0:0:
64,192,99025,1,0,0:0:0:0:
320,192,99085,1,0,0:0:0:0:
192,192,99145,1,0,0:0:0:0:
448,192,99205,1,0,0:0:0:0:
64,192,99205,1,0,0:0:0:0:
320,192,99265,1,0,0:0:0:0:
192,192,99325,1,0,0:0:0:0:
320,192,99385,1,0,0:0:0:0:
448,192,99445,1,0,0:0:0:0:
64,192,99445,1,0,0:0:0:0:
192,192,99505,1,0,0:0:0:0:
320,192,99565,1,0,0:0:0:0:
64,192,99565,1,0,0:0:0:0:
192,192,99625,1,0,0:0:0:0:
448,192,99685,1,0,0:0:0:0:
64,192,99685,1,0,0:0:0:0:
192,192,99745,1,0,0:0:0:0:
320,192,99805,1,0,0:0:0:0:
448,192,99865,1,0,0:0:0:0:
192,192,99925,1,0,0:0:0:0:
64,192,99925,1,0,0:0:0:0:
448,192,99985,1,0,0:0:0:0:
320,192,100045,1,0,0:0:0:0:
192,192,100105,1,0,0:0:0:0:
448,192,100165,1,0,0:0:0:0:
64,192,100165,1,0,0:0:0:0:
192,192,100225,1,0,0:0:0:0:
320,192,100285,1,0,0:0:0:0:
448,192,100345,1,0,0:0:0:0:
192,192,100405,1,0,0:0:0:0:
64,192,100405,1,0,0:0:0:0:
448,192,100465,1,0,0:0:0:0:
320,192,100525,1,0,0:0:0:0:
192,192,100585,1,0,0:0:0:0:
448,192,100645,1,0,0:0:0:0:
64,192,100645,1,0,0:0:0:0:
192,192,100705,1,0,0:0:0:0:
320,192,100765,1,0,0:0:0:0:
448,192,100825,1,0,0:0:0:0:
192,192,100885,1,0,0:0:0:0:
64,192,100885,1,0,0:0:0:0:
320,192,100945,1,0,0:0:0:0:
448,192,101005,1,0,0:0:0:0:
192,192,101065,1,0,0:0:0:0:
448,192,101125,1,0,0:0:0:0:
64,192,101125,1,0,0:0:0:0:
192,192,101185,1,0,0:0:0:0:
320,192,101245,1,0,0:0:0:0:
448,192,101305,1,0,0:0:0:0:
192,192,101365,1,0,0:0:0:0:
64,192,101365,1,0,0:0:0:0:
320,192,101425,1,0,0:0:0:0:
448,192,101485,1,0,0:0:0:0:
192,192,101545,1,0,0:0:0:0:
448,192,101605,1,0,0:0:0:0:
320,192,101605,1,0,0:0:0:0:
64,192,101605,1,0,0:0:0:0:
192,192,101685,1,0,0:0:0:0:
64,192,101765,1,0,0:0:0:0:
320,192,101845,1,0,0:0:0:0:
192,192,101845,1,0,0:0:0:0:
448,192,101925,1,0,0:0:0:0:
64,192,101925,1,0,0:0:0:0:
320,192,102005,1,0,0:0:0:0:
192,192,102005,1,0,0:0:0:0:
448,192,102085,1,0,0:0:0:0:
64,192,102085,1,0,0:0:0:0:
320,192,102165,1,0,0:0:0:0:
448,192,102245,1,0,0:0:0:0:
320,192,102325,1,0,0:0:0:0:
64,192,102325,1,0,0:0:0:0:
448,192,102405,1,0,0:0:0:0:
192,192,102405,1,0,0:0:0:0:
320,192,102485,1,0,0:0:0:0:
64,192,102485,1,0,0:0:0:0:
448,192,102565,1,0,0:0:0:0:
192,192,102565,1,0,0:0:0:0:
64,192,102625,1,0,0:0:0:0:
448,192,102685,1,0,0:0:0:0:
320,192,102685,1,0,0:0:0:0:
192,192,102745,1,0,0:0:0:0:
64,192,102745,1,0,0:0:0:0:
448,192,102805,1,0,0:0:0:0:
320,192,102805,1,0,0:0:0:0:
192,192,102865,1,0,0:0:0:0:
64,192,102865,1,0,0:0:0:0:
448,192,102925,1,0,0:0:0:0:
320,192,102925,1,0,0:0:0:0:
192,192,102985,1,0,0:0:0:0:
64,192,102985,1,0,0:0:0:0:
448,192,103045,1,0,0:0:0:0:
320,192,103045,1,0,0:0:0:0:
192,192,103165,1,0,0:0:0:0:
320,192,103405,1,0,0:0:0:0:
448,192,103405,1,0,0:0:0:0:
64,192,103405,1,0,0:0:0:0:
192,192,103405,1,0,0:0:0:0:
448,192,103645,1,0,0:0:0:0:
320,192,103645,1,0,0:0:0:0:
192,192,103705,1,0,0:0:0:0:
448,192,103765,1,0,0:0:0:0:
64,192,103765,1,0,0:0:0:0:
320,192,103825,1,0,0:0:0:0:
448,192,103885,1,0,0:0:0:0:
192,192,103885,1,0,0:0:0:0:
320,192,103945,1,0,0:0:0:0:
448,192,104005,1,0,0:0:0:0:
192,192,104005,1,0,0:0:0:0:
64,192,104065,1,0,0:0:0:0:
448,192,104125,1,0,0:0:0:0:
192,192,104125,1,0,0:0:0:0:
320,192,104185,1,0,0:0:0:0:
192,192,104245,1,0,0:0:0:0:
64,192,104245,1,0,0:0:0:0:
448,192,104305,1,0,0:0:0:0:
320,192,104365,1,0,0:0:0:0:
64,192,104365,1,0,0:0:0:0:
192,192,104425,1,0,0:0:0:0:
320,192,104485,1,0,0:0:0:0:
64,192,104485,1,0,0:0:0:0:
448,192,104545,1,0,0:0:0:0:
320,192,104605,1,0,0:0:0:0:
64,192,104605,1,0,0:0:0:0:
192,192,104665,1,0,0:0:0:0:
448,192,104725,1,0,0:0:0:0:
320,192,104725,1,0,0:0:0:0:
64,192,104785,1,0,0:0:0:0:
320,192,104845,1,0,0:0:0:0:
192,192,104845,1,0,0:0:0:0:
448,192,104905,1,0,0:0:0:0:
320,192,104965,1,0,0:0:0:0:
192,192,104965,1,0,0:0:0:0:
64,192,105025,1,0,0:0:0:0:
320,192,105085,1,0,0:0:0:0:
192,192,105085,1,0,0:0:0:0:
448,192,105145,1,0,0:0:0:0:
192,192,105205,1,0,0:0:0:0:
64,192,105205,1,0,0:0:0:0:
320,192,105265,1,0,0:0:0:0:
448,192,105325,1,0,0:0:0:0:
192,192,105325,1,0,0:0:0:0:
320,192,105385,1,0,0:0:0:0:
64,192,105445,1,0,0:0:0:0:
320,192,105505,1,0,0:0:0:0:
448,192,105565,1,0,0:0:0:0:
192,192,105565,1,0,0:0:0:0:
320,192,105625,1,0,0:0:0:0:
448,192,105685,1,0,0:0:0:0:
64,192,105685,1,0,0:0:0:0:
320,192,105745,1,0,0:0:0:0:
192,192,105805,1,0,0:0:0:0:
64,192,105805,1,0,0:0:0:0:
448,192,105865,1,0,0:0:0:0:
192,192,105925,1,0,0:0:0:0:
64,192,105925,1,0,0:0:0:0:
320,192,105985,1,0,0:0:0:0:
192,192,106045,1,0,0:0:0:0:
64,192,106045,1,0,0:0:0:0:
448,192,106105,1,0,0:0:0:0:
320,192,106165,1,0,0:0:0:0:
192,192,106165,1,0,0:0:0:0:
64,192,106225,1,0,0:0:0:0:
448,192,106285,1,0,0:0:0:0:
320,192,106285,1,0,0:0:0:0:
192,192,106345,1,0,0:0:0:0:
448,192,106405,1,0,0:0:0:0:
320,192,106405,1,0,0:0:0:0:
64,192,106465,1,0,0:0:0:0:
448,192,106525,1,0,0:0:0:0:
320,192,106525,1,0,0:0:0:0:
192,192,106585,1,0,0:0:0:0:
448,192,106645,1,0,0:0:0:0:
64,192,106645,1,0,0:0:0:0:
192,192,106705,1,0,0:0:0:0:
320,192,106765,1,0,0:0:0:0:
64,192,106765,1,0,0:0:0:0:
448,192,106825,1,0,0:0:0:0:
320,192,106885,1,0,0:0:0:0:
64,192,106885,1,0,0:0:0:0:
192,192,106945,1,0,0:0:0:0:
320,192,107005,1,0,0:0:0:0:
64,192,107005,1,0,0:0:0:0:
448,192,107065,1,0,0:0:0:0:
192,192,107125,1,0,0:0:0:0:
64,192,107125,1,0,0:0:0:0:
320,192,107185,1,0,0:0:0:0:
448,192,107245,1,0,0:0:0:0:
64,192,107245,1,0,0:0:0:0:
192,192,107305,1,0,0:0:0:0:
320,192,107365,1,0,0:0:0:0:
64,192,107425,1,0,0:0:0:0:
448,192,107485,1,0,0:0:0:0:
192,192,107485,1,0,0:0:0:0:
320,192,107545,1,0,0:0:0:0:
448,192,107605,1,0,0:0:0:0:
64,192,107605,1,0,0:0:0:0:
192,192,107665,1,0,0:0:0:0:
320,192,107725,1,0,0:0:0:0:
64,192,107725,1,0,0:0:0:0:
448,192,107785,1,0,0:0:0:0:
320,192,107845,1,0,0:0:0:0:
64,192,107845,1,0,0:0:0:0:
192,192,107905,1,0,0:0:0:0:
320,192,107965,1,0,0:0:0:0:
64,192,107965,1,0,0:0:0:0:
448,192,108025,1,0,0:0:0:0:
192,192,108085,1,0,0:0:0:0:
64,192,108085,1,0,0:0:0:0:
320,192,108145,1,0,0:0:0:0:
448,192,108205,1,0,0:0:0:0:
192,192,108205,1,0,0:0:0:0:
320,192,108265,1,0,0:0:0:0:
448,192,108325,1,0,0:0:0:0:
192,192,108325,1,0,0:0:0:0:
64,192,108385,1,0,0:0:0:0:
448,192,108445,1,0,0:0:0:0:
192,192,108445,1,0,0:0:0:0:
320,192,108505,1,0,0:0:0:0:
448,192,108565,1,0,0:0:0:0:
64,192,108565,1,0,0:0:0:0:
192,192,108625,1,0,0:0:0:0:
320,192,108685,1,0,0:0:0:0:
64,192,108685,1,0,0:0:0:0:
448,192,108745,1,0,0:0:0:0:
320,192,108805,1,0,0:0:0:0:
64,192,108805,1,0,0:0:0:0:
192,192,108865,1,0,0:0:0:0:
320,192,108925,1,0,0:0:0:0:
64,192,108925,1,0,0:0:0:0:
448,192,108985,1,0,0:0:0:0:
192,192,109045,1,0,0:0:0:0:
64,192,109045,1,0,0:0:0:0:
320,192,109105,1,0,0:0:0:0:
448,192,109165,1,0,0:0:0:0:
192,192,109165,1,0,0:0:0:0:
64,192,109225,1,0,0:0:0:0:
320,192,109285,1,0,0:0:0:0:
192,192,109345,1,0,0:0:0:0:
448,192,109405,1,0,0:0:0:0:
64,192,109405,1,0,0:0:0:0:
320,192,109465,1,0,0:0:0:0:
448,192,109525,1,0,0:0:0:0:
192,192,109525,1,0,0:0:0:0:
64,192,109585,1,0,0:0:0:0:
448,192,109645,1,0,0:0:0:0:
320,192,109645,1,0,0:0:0:0:
192,192,109705,1,0,0:0:0:0:
448,192,109765,1,0,0:0:0:0:
320,192,109765,1,0,0:0:0:0:
64,192,109825,1,0,0:0:0:0:
448,192,109885,1,0,0:0:0:0:
320,192,109885,1,0,0:0:0:0:
64,192,109945,1,0,0:0:0:0:
320,192,110005,1,0,0:0:0:0:
192,192,110005,1,0,0:0:0:0:
448,192,110065,1,0,0:0:0:0:
320,192,110125,1,0,0:0:0:0:
64,192,110125,1,0,0:0:0:0:
192,192,110185,1,0,0:0:0:0:
320,192,110245,1,0,0:0:0:0:
64,192,110245,1,0,0:0:0:0:
448,192,110305,1,0,0:0:0:0:
320,192,110365,1,0,0:0:0:0:
64,192,110365,1,0,0:0:0:0:
192,192,110425,1,0,0:0:0:0:
448,192,110485,1,0,0:0:0:0:
320,192,110485,1,0,0:0:0:0:
64,192,110545,1,0,0:0:0:0:
448,192,110605,1,0,0:0:0:0:
192,192,110605,1,0,0:0:0:0:
320,192,110665,1,0,0:0:0:0:
448,192,110725,1,0,0:0:0:0:
192,192,110725,1,0,0:0:0:0:
64,192,110725,1,0,0:0:0:0:
448,192,110845,1,0,0:0:0:0:
320,192,110845,1,0,0:0:0:0:
192,192,110845,1,0,0:0:0:0:
448,192,110965,1,0,0:0:0:0:
320,192,110965,1,0,0:0:0:0:
64,192,110965,1,0,0:0:0:0:
320,192,111085,1,0,0:0:0:0:
448,192,111085,1,0,0:0:0:0:
64,192,111085,1,0,0:0:0:0:
192,192,111085,1,0,0:0:0:0:
192,192,111325,1,0,0:0:0:0:
64,192,111325,1,0,0:0:0:0:
448,192,111385,1,0,0:0:0:0:
320,192,111445,1,0,0:0:0:0:
192,192,111445,1,0,0:0:0:0:
64,192,111505,1,0,0:0:0:0:
448,192,111565,1,0,0:0:0:0:
192,192,111565,1,0,0:0:0:0:
320,192,111625,1,0,0:0:0:0:
448,192,111685,1,0,0:0:0:0:
192,192,111685,1,0,0:0:0:0:
64,192,111745,1,0,0:0:0:0:
448,192,111805,1,0,0:0:0:0:
192,192,111805,1,0,0:0:0:0:
320,192,111865,1,0,0:0:0:0:
192,192,111925,1,0,0:0:0:0:
64,192,111925,1,0,0:0:0:0:
320,192,111985,1,0,0:0:0:0:
448,192,112045,1,0,0:0:0:0:
64,192,112045,1,0,0:0:0:0:
192,192,112105,1,0,0:0:0:0:
448,192,112165,1,0,0:0:0:0:
64,192,112165,1,0,0:0:0:0:
320,192,112225,1,0,0:0:0:0:
448,192,112285,1,0,0:0:0:0:
64,192,112285,1,0,0:0:0:0:
192,192,112345,1,0,0:0:0:0:
320,192,112405,1,0,0:0:0:0:
64,192,112405,1,0,0:0:0:0:
192,192,112465,1,0,0:0:0:0:
448,192,112525,1,0,0:0:0:0:
320,192,112525,1,0,0:0:0:0:
64,192,112585,1,0,0:0:0:0:
448,192,112645,1,0,0:0:0:0:
320,192,112645,1,0,0:0:0:0:
64,192,112705,1,0,0:0:0:0:
448,192,112765,1,0,0:0:0:0:
320,192,112765,1,0,0:0:0:0:
192,192,112825,1,0,0:0:0:0:
448,192,112885,1,0,0:0:0:0:
64,192,112885,1,0,0:0:0:0:
320,192,112945,1,0,0:0:0:0:
192,192,113005,1,0,0:0:0:0:
64,192,113005,1,0,0:0:0:0:
448,192,113065,1,0,0:0:0:0:
320,192,113125,1,0,0:0:0:0:
192,192,113185,1,0,0:0:0:0:
448,192,113245,1,0,0:0:0:0:
64,192,113245,1,0,0:0:0:0:
320,192,113305,1,0,0:0:0:0:
448,192,113365,1,0,0:0:0:0:
192,192,113365,1,0,0:0:0:0:
320,192,113425,1,0,0:0:0:0:
192,192,113485,1,0,0:0:0:0:
64,192,113485,1,0,0:0:0:0:
448,192,113545,1,0,0:0:0:0:
192,192,113605,1,0,0:0:0:0:
64,192,113605,1,0,0:0:0:0:
320,192,113665,1,0,0:0:0:0:
192,192,113725,1,0,0:0:0:0:
64,192,113725,1,0,0:0:0:0:
448,192,113785,1,0,0:0:0:0:
320,192,113845,1,0,0:0:0:0:
64,192,113845,1,0,0:0:0:0:
192,192,113905,1,0,0:0:0:0:
448,192,113965,1,0,0:0:0:0:
320,192,113965,1,0,0:0:0:0:
64,192,114025,1,0,0:0:0:0:
448,192,114085,1,0,0:0:0:0:
320,192,114085,1,0,0:0:0:0:
192,192,114145,1,0,0:0:0:0:
448,192,114205,1,0,0:0:0:0:
320,192,114205,1,0,0:0:0:0:
64,192,114265,1,0,0:0:0:0:
320,192,114325,1,0,0:0:0:0:
192,192,114325,1,0,0:0:0:0:
64,192,114385,1,0,0:0:0:0:
448,192,114445,1,0,0:0:0:0:
192,192,114445,1,0,0:0:0:0:
320,192,114505,1,0,0:0:0:0:
448,192,114565,1,0,0:0:0:0:
192,192,114565,1,0,0:0:0:0:
64,192,114625,1,0,0:0:0:0:
448,192,114685,1,0,0:0:0:0:
192,192,114685,1,0,0:0:0:0:
320,192,114745,1,0,0:0:0:0:
192,192,114805,1,0,0:0:0:0:
64,192,114805,1,0,0:0:0:0:
320,192,114865,1,0,0:0:0:0:
448,192,114925,1,0,0:0:0:0:
64,192,114925,1,0,0:0:0:0:
320,192,114985,1,0,0:0:0:0:
192,192,115045,1,0,0:0:0:0:
64,192,115105,1,0,0:0:0:0:
448,192,115165,1,0,0:0:0:0:
320,192,115165,1,0,0:0:0:0:
192,192,115225,1,0,0:0:0:0:
320,192,115285,1,0,0:0:0:0:
64,192,115285,1,0,0:0:0:0:
448,192,115345,1,0,0:0:0:0:
192,192,115405,1,0,0:0:0:0:
64,192,115405,1,0,0:0:0:0:
320,192,115465,1,0,0:0:0:0:
192,192,115525,1,0,0:0:0:0:
64,192,115525,1,0,0:0:0:0:
448,192,115585,1,0,0:0:0:0:
192,192,115645,1,0,0:0:0:0:
64,192,115645,1,0,0:0:0:0:
320,192,115705,1,0,0:0:0:0:
448,192,115765,1,0,0:0:0:0:
192,192,115765,1,0,0:0:0:0:
64,192,115825,1,0,0:0:0:0:
448,192,115885,1,0,0:0:0:0:
320,192,115885,1,0,0:0:0:0:
192,192,115945,1,0,0:0:0:0:
448,192,116005,1,0,0:0:0:0:
320,192,116005,1,0,0:0:0:0:
64,192,116065,1,0,0:0:0:0:
448,192,116125,1,0,0:0:0:0:
320,192,116125,1,0,0:0:0:0:
192,192,116185,1,0,0:0:0:0:
320,192,116245,1,0,0:0:0:0:
64,192,116245,1,0,0:0:0:0:
192,192,116305,1,0,0:0:0:0:
448,192,116365,1,0,0:0:0:0:
64,192,116365,1,0,0:0:0:0:
320,192,116425,1,0,0:0:0:0:
448,192,116485,1,0,0:0:0:0:
64,192,116485,1,0,0:0:0:0:
192,192,116545,1,0,0:0:0:0:
448,192,116605,1,0,0:0:0:0:
64,192,116605,1,0,0:0:0:0:
320,192,116665,1,0,0:0:0:0:
192,192,116725,1,0,0:0:0:0:
64,192,116725,1,0,0:0:0:0:
320,192,116785,1,0,0:0:0:0:
448,192,116845,1,0,0:0:0:0:
192,192,116845,1,0,0:0:0:0:
64,192,116905,1,0,0:0:0:0:
320,192,116965,1,0,0:0:0:0:
192,192,117025,1,0,0:0:0:0:
448,192,117085,1,0,0:0:0:0:
320,192,117145,1,0,0:0:0:0:
192,192,117205,1,0,0:0:0:0:
64,192,117265,1,0,0:0:0:0:
320,192,117325,1,0,0:0:0:0:
192,192,117385,1,0,0:0:0:0:
64,192,117445,1,0,0:0:0:0:
448,192,117505,1,0,0:0:0:0:
192,192,117565,1,0,0:0:0:0:
64,192,117625,1,0,0:0:0:0:
448,192,117685,1,0,0:0:0:0:
320,192,117745,1,0,0:0:0:0:
192,192,117805,1,0,0:0:0:0:
448,192,117865,1,0,0:0:0:0:
320,192,117925,1,0,0:0:0:0:
192,192,117985,1,0,0:0:0:0:
64,192,118045,1,0,0:0:0:0:
320,192,118105,1,0,0:0:0:0:
192,192,118165,1,0,0:0:0:0:
64,192,118225,1,0,0:0:0:0:
448,192,118285,1,0,0:0:0:0:
192,192,118345,1,0,0:0:0:0:
64,192,118405,1,0,0:0:0:0:
448,192,118465,1,0,0:0:0:0:
320,192,118525,1,0,0:0:0:0:
64,192,118585,1,0,0:0:0:0:
448,192,118645,1,0,0:0:0:0:
192,192,118705,1,0,0:0:0:0:
320,192,118765,1,0,0:0:0:0:
448,192,118825,1,0,0:0:0:0:
192,192,118885,1,0,0:0:0:0:
64,192,118885,128,0,120022:0:0:0:0:
448,192,119311,1,0,0:0:0:0:
448,192,119738,1,0,0:0:0:0:
320,192,120022,1,0,0:0:0:0:
192,192,120022,128,0,121066:0:0:0:0:
448,192,121066,128,0,122132:0:0:0:0:
64,192,121066,1,0,0:0:0:0:
64,192,121466,1,0,0:0:0:0:
64,192,121866,1,0,0:0:0:0:
320,192,122132,128,0,123188:0:0:0:0:
192,192,122132,1,0,0:0:0:0:
64,192,122666,1,0,0:0:0:0:
448,192,122732,1,0,0:0:0:0:
192,192,122799,1,0,0:0:0:0:
64,192,122932,1,0,0:0:0:0:
448,192,123059,1,0,0:0:0:0:
192,192,123188,128,0,124222:0:0:0:0:
64,192,123188,1,0,0:0:0:0:
320,192,123575,1,0,0:0:0:0:
64,192,123963,1,0,0:0:0:0:
448,192,124222,1,0,0:0:0:0:
320,192,124222,128,0,125272:0:0:0:0:
448,192,124744,1,0,0:0:0:0:
192,192,125008,1,0,0:0:0:0:
192,192,125140,1,0,0:0:0:0:
64,192,125272,128,0,126306:0:0:0:0:
448,192,125530,1,0,0:0:0:0:
448,192,125659,1,0,0:0:0:0:
192,192,125789,1,0,0:0:0:0:
192,192,125918,1,0,0:0:0:0:
320,192,126047,1,0,0:0:0:0:
320,192,126177,1,0,0:0:0:0:
448,192,126306,1,0,0:0:0:0:
320,192,126435,1,0,0:0:0:0:
192,192,126565,1,0,0:0:0:0:
64,192,126694,1,0,0:0:0:0:
448,192,126823,1,0,0:0:0:0:
320,192,126823,1,0,0:0:0:0:
448,192,126953,1,0,0:0:0:0:
192,192,126953,1,0,0:0:0:0:
448,192,127082,1,0,0:0:0:0:
64,192,127082,1,0,0:0:0:0:
320,192,127211,1,0,0:0:0:0:
192,192,127211,1,0,0:0:0:0:
448,192,127341,1,0,0:0:0:0:
192,192,127341,1,0,0:0:0:0:
64,192,127341,128,0,128371:0:0:0:0:
448,192,127727,1,0,0:0:0:0:
448,192,128113,1,0,0:0:0:0:
320,192,128371,1,0,0:0:0:0:
192,192,128371,128,0,129433:0:0:0:0:
320,192,128901,1,0,0:0:0:0:
320,192,129433,1,0,0:0:0:0:
64,192,129433,1,0,0:0:0:0:
448,192,129521,128,0,130491:0:0:0:0:
320,192,129829,1,0,0:0:0:0:
64,192,130225,1,0,0:0:0:0:
320,192,130491,128,0,131538:0:0:0:0:
192,192,130491,1,0,0:0:0:0:
64,192,131017,1,0,0:0:0:0:
448,192,131148,1,0,0:0:0:0:
192,192,131279,1,0,0:0:0:0:
64,192,131408,1,0,0:0:0:0:
448,192,131538,1,0,0:0:0:0:
192,192,131538,128,0,132570:0:0:0:0:
448,192,131920,1,0,0:0:0:0:
64,192,132304,1,0,0:0:0:0:
448,192,132570,1,0,0:0:0:0:
320,192,132570,128,0,133609:0:0:0:0:
64,192,133092,1,0,0:0:0:0:
192,192,133350,1,0,0:0:0:0:
64,192,133479,1,0,0:0:0:0:
448,192,133609,128,0,134126:0:0:0:0:
64,192,133997,1,0,0:0:0:0:
192,192,134126,1,0,0:0:0:0:
320,192,134212,1,0,0:0:0:0:
448,192,134298,1,0,0:0:0:0:
320,192,134385,1,0,0:0:0:0:
64,192,134385,1,0,0:0:0:0:
192,192,134471,1,0,0:0:0:0:
320,192,134557,1,0,0:0:0:0:
448,192,134643,1,0,0:0:0:0:
192,192,134643,1,0,0:0:0:0:
64,192,134729,1,0,0:0:0:0:
320,192,134816,1,0,0:0:0:0:
192,192,134902,1,0,0:0:0:0:
448,192,134988,1,0,0:0:0:0:
64,192,135074,1,0,0:0:0:0:
192,192,135160,1,0,0:0:0:0:
320,192,135247,1,0,0:0:0:0:
64,192,135333,1,0,0:0:0:0:
448,192,135419,1,0,0:0:0:0:
320,192,135462,1,0,0:0:0:0:
192,192,135505,1,0,0:0:0:0:
64,192,135548,1,0,0:0:0:0:
448,192,135592,1,0,0:0:0:0:
320,192,135635,1,0,0:0:0:0:
192,192,135678,128,0,136728:0:0:0:0:
64,192,135678,1,0,0:0:0:0:
448,192,135940,1,0,0:0:0:0:
320,192,136071,1,0,0:0:0:0:
64,192,136071,1,0,0:0:0:0:
448,192,136465,1,0,0:0:0:0:
64,192,136597,1,0,0:0:0:0:
448,192,136728,1,0,0:0:0:0:
320,192,136728,128,0,137778:0:0:0:0:
64,192,136728,1,0,0:0:0:0:
448,192,137253,1,0,0:0:0:0:
64,192,137384,1,0,0:0:0:0:
192,192,137680,1,0,0:0:0:0:
448,192,137778,1,0,0:0:0:0:
192,192,137778,1,0,0:0:0:0:
64,192,137778,128,0,138828:0:0:0:0:
448,192,138041,1,0,0:0:0:0:
320,192,138172,1,0,0:0:0:0:
192,192,138172,1,0,0:0:0:0:
448,192,138566,1,0,0:0:0:0:
320,192,138566,1,0,0:0:0:0:
320,192,138697,1,0,0:0:0:0:
448,192,138828,128,0,139879:0:0:0:0:
192,192,138828,1,0,0:0:0:0:
320,192,138960,1,0,0:0:0:0:
64,192,139091,1,0,0:0:0:0:
192,192,139222,1,0,0:0:0:0:
320,192,139354,1,0,0:0:0:0:
64,192,139354,1,0,0:0:0:0:
192,192,139485,1,0,0:0:0:0:
320,192,139616,1,0,0:0:0:0:
64,192,139748,1,0,0:0:0:0:
320,192,139879,1,0,0:0:0:0:
192,192,139879,128,0,140929:0:0:0:0:
64,192,139879,1,0,0:0:0:0:
64,192,140273,1,0,0:0:0:0:
448,192,140404,1,0,0:0:0:0:
320,192,140404,1,0,0:0:0:0:
448,192,140667,1,0,0:0:0:0:
448,192,140929,1,0,0:0:0:0:
320,192,140929,1,0,0:0:0:0:
64,192,140929,128,0,141979:0:0:0:0:
448,192,141454,1,0,0:0:0:0:
320,192,141454,1,0,0:0:0:0:
192,192,141586,1,0,0:0:0:0:
448,192,141717,1,0,0:0:0:0:
320,192,141717,1,0,0:0:0:0:
192,192,141783,1,0,0:0:0:0:
320,192,141848,1,0,0:0:0:0:
448,192,141914,1,0,0:0:0:0:
320,192,141979,128,0,143030:0:0:0:0:
192,192,141979,1,0,0:0:0:0:
192,192,142373,1,0,0:0:0:0:
64,192,142373,1,0,0:0:0:0:
448,192,142636,1,0,0:0:0:0:
64,192,142636,1,0,0:0:0:0:
192,192,142767,1,0,0:0:0:0:
64,192,142767,1,0,0:0:0:0:
448,192,142899,1,0,0:0:0:0:
192,192,143030,1,0,0:0:0:0:
64,192,143030,1,0,0:0:0:0:
448,192,143161,1,0,0:0:0:0:
320,192,143292,1,0,0:0:0:0:
192,192,143424,1,0,0:0:0:0:
320,192,143555,1,0,0:0:0:0:
64,192,143686,1,0,0:0:0:0:
448,192,143818,128,0,144080:0:0:0:0:
320,192,143861,1,0,0:0:0:0:
64,192,143905,1,0,0:0:0:0:
192,192,143949,1,0,0:0:0:0:
320,192,144014,1,0,0:0:0:0:
192,192,144080,1,0,0:0:0:0:
64,192,144080,128,0,145130:0:0:0:0:
448,192,144474,1,0,0:0:0:0:
192,192,144474,1,0,0:0:0:0:
448,192,144868,1,0,0:0:0:0:
320,192,144868,1,0,0:0:0:0:
448,192,145130,1,0,0:0:0:0:
192,192,145130,128,0,146181:0:0:0:0:
448,192,145656,1,0,0:0:0:0:
320,192,145787,1,0,0:0:0:0:
448,192,145918,1,0,0:0:0:0:
64,192,145918,1,0,0:0:0:0:
320,192,146049,1,0,0:0:0:0:
64,192,146049,1,0,0:0:0:0:
448,192,146181,128,0,147231:0:0:0:0:
320,192,146181,1,0,0:0:0:0:
320,192,146575,1,0,0:0:0:0:
192,192,146575,1,0,0:0:0:0:
64,192,146706,1,0,0:0:0:0:
320,192,146772,1,0,0:0:0:0:
192,192,146837,1,0,0:0:0:0:
64,192,146903,1,0,0:0:0:0:
320,192,146969,1,0,0:0:0:0:
64,192,147056,1,0,0:0:0:0:
192,192,147144,1,0,0:0:0:0:
320,192,147231,128,0,148676:0:0:0:0:
64,192,147319,1,0,0:0:0:0:
192,192,147406,1,0,0:0:0:0:
448,192,147494,1,0,0:0:0:0:
64,192,147581,1,0,0:0:0:0:
448,192,147669,1,0,0:0:0:0:
192,192,147756,1,0,0:0:0:0:
64,192,147822,1,0,0:0:0:0:
192,192,147888,1,0,0:0:0:0:
448,192,147953,1,0,0:0:0:0:
64,192,148019,1,0,0:0:0:0:
448,192,148106,128,0,150344:0:0:0:0:
192,192,148194,128,0,150910:0:0:0:0:
64,192,148282,128,0,149778:0:0:0:0:
320,192,148808,128,0,149217:0:0:0:0:
320,192,149354,128,0,153200:0:0:0:0:
64,192,149920,128,0,152042:0:0:0:0:
448,192,150486,128,0,152608:0:0:0:0:
192,192,151052,128,0,151476:0:0:0:0:
192,192,151618,128,0,152608:0:0:0:0:
64,192,152184,128,0,154465:0:0:0:0:
448,192,152750,128,0,155177:0:0:0:0:
192,192,152750,128,0,153811:0:0:0:0:
320,192,153350,128,0,156559:0:0:0:0:
192,192,153966,128,0,155921:0:0:0:0:
64,192,154632,128,0,157271:0:0:0:0:
448,192,155359,128,0,159769:0:0:0:0:
192,192,156109,128,0,157958:0:0:0:0:
320,192,156709,128,0,159769:0:0:0:0:
64,192,157459,128,0,159769:0:0:0:0:
192,192,158126,128,0,159769:0:0:0:0:
448,192,160044,1,0,0:0:0:0:
64,192,160164,1,0,0:0:0:0:
448,192,160284,1,0,0:0:0:0:
448,192,160404,1,0,0:0:0:0:
320,192,160524,1,0,0:0:0:0:
320,192,160644,1,0,0:0:0:0:
192,192,160764,1,0,0:0:0:0:
192,192,160884,1,0,0:0:0:0:
64,192,161004,1,0,0:0:0:0:
64,192,161124,1,0,0:0:0:0:
192,192,161244,1,0,0:0:0:0:
192,192,161364,1,0,0:0:0:0:
320,192,161484,1,0,0:0:0:0:
320,192,161604,1,0,0:0:0:0:
192,192,161724,1,0,0:0:0:0:
192,192,161844,1,0,0:0:0:0:
448,192,161964,1,0,0:0:0:0:
448,192,162084,1,0,0:0:0:0:
320,192,162084,1,0,0:0:0:0:
192,192,162164,1,0,0:0:0:0:
64,192,162164,1,0,0:0:0:0:
448,192,162244,1,0,0:0:0:0:
320,192,162324,1,0,0:0:0:0:
64,192,162324,1,0,0:0:0:0:
448,192,162404,1,0,0:0:0:0:
192,192,162404,1,0,0:0:0:0:
320,192,162484,1,0,0:0:0:0:
448,192,162564,1,0,0:0:0:0:
64,192,162564,1,0,0:0:0:0:
320,192,162644,1,0,0:0:0:0:
192,192,162644,1,0,0:0:0:0:
448,192,162724,1,0,0:0:0:0:
192,192,162804,1,0,0:0:0:0:
64,192,162804,1,0,0:0:0:0:
448,192,162884,1,0,0:0:0:0:
320,192,162884,1,0,0:0:0:0:
192,192,162964,1,0,0:0:0:0:
448,192,163044,1,0,0:0:0:0:
64,192,163044,1,0,0:0:0:0:
320,192,163124,1,0,0:0:0:0:
192,192,163124,1,0,0:0:0:0:
448,192,163204,1,0,0:0:0:0:
192,192,163284,1,0,0:0:0:0:
64,192,163284,1,0,0:0:0:0:
448,192,163364,1,0,0:0:0:0:
320,192,163364,1,0,0:0:0:0:
192,192,163444,1,0,0:0:0:0:
320,192,163524,1,0,0:0:0:0:
64,192,163524,1,0,0:0:0:0:
448,192,163604,1,0,0:0:0:0:
192,192,163604,1,0,0:0:0:0:
64,192,163684,1,0,0:0:0:0:
448,192,163764,1,0,0:0:0:0:
320,192,163764,1,0,0:0:0:0:
192,192,163824,1,0,0:0:0:0:
448,192,163884,1,0,0:0:0:0:
320,192,163884,1,0,0:0:0:0:
64,192,163884,1,0,0:0:0:0:
64,192,164124,1,0,0:0:0:0:
448,192,164184,1,0,0:0:0:0:
320,192,164244,1,0,0:0:0:0:
192,192,164244,1,0,0:0:0:0:
64,192,164244,1,0,0:0:0:0:
448,192,164304,1,0,0:0:0:0:
320,192,164364,1,0,0:0:0:0:
192,192,164424,1,0,0:0:0:0:
64,192,164484,1,0,0:0:0:0:
320,192,164544,1,0,0:0:0:0:
448,192,164604,1,0,0:0:0:0:
64,192,164664,1,0,0:0:0:0:
448,192,164724,1,0,0:0:0:0:
320,192,164724,1,0,0:0:0:0:
192,192,164724,1,0,0:0:0:0:
64,192,164784,1,0,0:0:0:0:
320,192,164844,1,0,0:0:0:0:
192,192,164904,1,0,0:0:0:0:
448,192,164964,1,0,0:0:0:0:
64,192,164964,1,0,0:0:0:0:
192,192,165024,1,0,0:0:0:0:
320,192,165084,1,0,0:0:0:0:
448,192,165144,1,0,0:0:0:0:
320,192,165204,1,0,0:0:0:0:
192,192,165204,1,0,0:0:0:0:
64,192,165204,1,0,0:0:0:0:
448,192,165264,1,0,0:0:0:0:
320,192,165324,1,0,0:0:0:0:
192,192,165384,1,0,0:0:0:0:
64,192,165444,1,0,0:0:0:0:
320,192,165504,1,0,0:0:0:0:
192,192,165564,1,0,0:0:0:0:
448,192,165624,1,0,0:0:0:0:
320,192,165684,1,0,0:0:0:0:
192,192,165684,1,0,0:0:0:0:
64,192,165684,1,0,0:0:0:0:
448,192,165744,1,0,0:0:0:0:
320,192,165804,1,0,0:0:0:0:
192,192,165804,1,0,0:0:0:0:
64,192,165864,1,0,0:0:0:0:
448,192,165924,1,0,0:0:0:0:
192,192,165984,1,0,0:0:0:0:
320,192,166044,1,0,0:0:0:0:
64,192,166104,1,0,0:0:0:0:
448,192,166164,1,0,0:0:0:0:
320,192,166164,1,0,0:0:0:0:
192,192,166164,1,0,0:0:0:0:
64,192,166224,1,0,0:0:0:0:
320,192,166284,1,0,0:0:0:0:
192,192,166344,1,0,0:0:0:0:
448,192,166404,1,0,0:0:0:0:
64,192,166464,1,0,0:0:0:0:
192,192,166524,1,0,0:0:0:0:
320,192,166584,1,0,0:0:0:0:
448,192,166644,1,0,0:0:0:0:
192,192,166644,1,0,0:0:0:0:
64,192,166644,1,0,0:0:0:0:
320,192,166704,1,0,0:0:0:0:
192,192,166764,1,0,0:0:0:0:
448,192,166824,1,0,0:0:0:0:
192,192,166884,1,0,0:0:0:0:
64,192,166884,1,0,0:0:0:0:
448,192,166944,1,0,0:0:0:0:
320,192,167004,1,0,0:0:0:0:
64,192,167064,1,0,0:0:0:0:
448,192,167124,1,0,0:0:0:0:
320,192,167124,1,0,0:0:0:0:
192,192,167124,1,0,0:0:0:0:
64,192,167184,1,0,0:0:0:0:
192,192,167244,1,0,0:0:0:0:
320,192,167304,1,0,0:0:0:0:
448,192,167364,1,0,0:0:0:0:
192,192,167424,1,0,0:0:0:0:
320,192,167484,1,0,0:0:0:0:
448,192,167544,1,0,0:0:0:0:
320,192,167604,1,0,0:0:0:0:
192,192,167604,1,0,0:0:0:0:
64,192,167604,1,0,0:0:0:0:
448,192,167664,1,0,0:0:0:0:
320,192,167724,1,0,0:0:0:0:
192,192,167784,1,0,0:0:0:0:
448,192,167844,1,0,0:0:0:0:
320,192,167844,1,0,0:0:0:0:
64,192,167904,1,0,0:0:0:0:
192,192,167924,1,0,0:0:0:0:
320,192,167964,1,0,0:0:0:0:
448,192,168004,1,0,0:0:0:0:
64,192,168024,1,0,0:0:0:0:
448,192,168084,1,0,0:0:0:0:
320,192,168084,1,0,0:0:0:0:
192,192,168084,1,0,0:0:0:0:
64,192,168144,1,0,0:0:0:0:
320,192,168204,1,0,0:0:0:0:
192,192,168204,1,0,0:0:0:0:
448,192,168264,1,0,0:0:0:0:
192,192,168324,1,0,0:0:0:0:
64,192,168324,1,0,0:0:0:0:
320,192,168384,1,0,0:0:0:0:
448,192,168444,1,0,0:0:0:0:
192,192,168444,1,0,0:0:0:0:
320,192,168504,1,0,0:0:0:0:
448,192,168564,1,0,0:0:0:0:
192,192,168564,1,0,0:0:0:0:
64,192,168564,1,0,0:0:0:0:
320,192,168624,1,0,0:0:0:0:
192,192,168684,1,0,0:0:0:0:
64,192,168684,1,0,0:0:0:0:
448,192,168744,1,0,0:0:0:0:
320,192,168804,1,0,0:0:0:0:
192,192,168804,1,0,0:0:0:0:
64,192,168864,1,0,0:0:0:0:
448,192,168924,1,0,0:0:0:0:
320,192,168924,1,0,0:0:0:0:
64,192,168984,1,0,0:0:0:0:
448,192,169044,1,0,0:0:0:0:
320,192,169044,1,0,0:0:0:0:
192,192,169044,1,0,0:0:0:0:
64,192,169104,1,0,0:0:0:0:
448,192,169164,1,0,0:0:0:0:
192,192,169164,1,0,0:0:0:0:
64,192,169224,1,0,0:0:0:0:
448,192,169284,1,0,0:0:0:0:
320,192,169284,1,0,0:0:0:0:
192,192,169344,1,0,0:0:0:0:
448,192,169404,1,0,0:0:0:0:
64,192,169404,1,0,0:0:0:0:
320,192,169464,1,0,0:0:0:0:
448,192,169524,1,0,0:0:0:0:
192,192,169524,1,0,0:0:0:0:
64,192,169524,1,0,0:0:0:0:
320,192,169584,1,0,0:0:0:0:
448,192,169644,1,0,0:0:0:0:
64,192,169644,1,0,0:0:0:0:
192,192,169704,1,0,0:0:0:0:
320,192,169724,1,0,0:0:0:0:
448,192,169764,1,0,0:0:0:0:
192,192,169804,1,0,0:0:0:0:
64,192,169824,1,0,0:0:0:0:
320,192,169884,1,0,0:0:0:0:
448,192,169944,1,0,0:0:0:0:
320,192,170004,1,0,0:0:0:0:
192,192,170004,1,0,0:0:0:0:
64,192,170004,1,0,0:0:0:0:
448,192,170064,1,0,0:0:0:0:
192,192,170124,1,0,0:0:0:0:
64,192,170124,1,0,0:0:0:0:
448,192,170184,1,0,0:0:0:0:
320,192,170244,1,0,0:0:0:0:
192,192,170244,1,0,0:0:0:0:
64,192,170304,1,0,0:0:0:0:
448,192,170364,1,0,0:0:0:0:
320,192,170364,1,0,0:0:0:0:
192,192,170424,1,0,0:0:0:0:
448,192,170484,1,0,0:0:0:0:
320,192,170484,1,0,0:0:0:0:
64,192,170484,1,0,0:0:0:0:
192,192,170544,1,0,0:0:0:0:
448,192,170604,1,0,0:0:0:0:
320,192,170604,1,0,0:0:0:0:
64,192,170664,1,0,0:0:0:0:
320,192,170724,1,0,0:0:0:0:
192,192,170724,1,0,0:0:0:0:
448,192,170784,1,0,0:0:0:0:
192,192,170844,1,0,0:0:0:0:
64,192,170844,1,0,0:0:0:0:
448,192,170904,1,0,0:0:0:0:
320,192,170964,1,0,0:0:0:0:
192,192,170964,1,0,0:0:0:0:
64,192,170964,1,0,0:0:0:0:
448,192,171024,1,0,0:0:0:0:
320,192,171084,1,0,0:0:0:0:
192,192,171084,1,0,0:0:0:0:
64,192,171144,1,0,0:0:0:0:
448,192,171204,1,0,0:0:0:0:
320,192,171204,1,0,0:0:0:0:
192,192,171204,1,0,0:0:0:0:
320,192,171324,1,0,0:0:0:0:
192,192,171324,1,0,0:0:0:0:
192,192,171444,1,0,0:0:0:0:
64,192,171444,1,0,0:0:0:0:
320,192,171564,1,0,0:0:0:0:
448,192,171564,1,0,0:0:0:0:
64,192,171564,1,0,0:0:0:0:
192,192,171564,1,0,0:0:0:0:
448,192,171804,1,0,0:0:0:0:
192,192,171864,1,0,0:0:0:0:
448,192,171924,1,0,0:0:0:0:
320,192,171924,1,0,0:0:0:0:
64,192,171924,1,0,0:0:0:0:
192,192,171984,1,0,0:0:0:0:
320,192,172044,1,0,0:0:0:0:
448,192,172104,1,0,0:0:0:0:
192,192,172164,1,0,0:0:0:0:
64,192,172164,1,0,0:0:0:0:
448,192,172224,1,0,0:0:0:0:
320,192,172284,1,0,0:0:0:0:
64,192,172344,1,0,0:0:0:0:
448,192,172404,1,0,0:0:0:0:
320,192,172404,1,0,0:0:0:0:
192,192,172404,1,0,0:0:0:0:
64,192,172464,1,0,0:0:0:0:
192,192,172524,1,0,0:0:0:0:
320,192,172584,1,0,0:0:0:0:
448,192,172644,1,0,0:0:0:0:
64,192,172644,1,0,0:0:0:0:
320,192,172704,1,0,0:0:0:0:
192,192,172764,1,0,0:0:0:0:
448,192,172824,1,0,0:0:0:0:
320,192,172884,1,0,0:0:0:0:
192,192,172884,1,0,0:0:0:0:
64,192,172884,1,0,0:0:0:0:
448,192,172944,1,0,0:0:0:0:
320,192,173004,1,0,0:0:0:0:
192,192,173064,1,0,0:0:0:0:
448,192,173124,1,0,0:0:0:0:
320,192,173184,1,0,0:0:0:0:
192,192,173244,1,0,0:0:0:0:
64,192,173244,1,0,0:0:0:0:
448,192,173304,1,0,0:0:0:0:
320,192,173364,1,0,0:0:0:0:
192,192,173364,1,0,0:0:0:0:
64,192,173364,1,0,0:0:0:0:
448,192,173424,1,0,0:0:0:0:
192,192,173484,1,0,0:0:0:0:
64,192,173484,1,0,0:0:0:0:
448,192,173544,1,0,0:0:0:0:
320,192,173544,1,0,0:0:0:0:
192,192,173604,1,0,0:0:0:0:
64,192,173604,1,0,0:0:0:0:
448,192,173664,1,0,0:0:0:0:
320,192,173724,1,0,0:0:0:0:
192,192,173784,1,0,0:0:0:0:
448,192,173844,1,0,0:0:0:0:
320,192,173844,1,0,0:0:0:0:
64,192,173844,1,0,0:0:0:0:
192,192,173904,1,0,0:0:0:0:
448,192,173964,1,0,0:0:0:0:
320,192,174024,1,0,0:0:0:0:
192,192,174084,1,0,0:0:0:0:
64,192,174084,1,0,0:0:0:0:
320,192,174144,1,0,0:0:0:0:
448,192,174204,1,0,0:0:0:0:
64,192,174264,1,0,0:0:0:0:
448,192,174324,1,0,0:0:0:0:
320,192,174324,1,0,0:0:0:0:
192,192,174324,1,0,0:0:0:0:
64,192,174384,1,0,0:0:0:0:
320,192,174444,1,0,0:0:0:0:
192,192,174504,1,0,0:0:0:0:
448,192,174564,1,0,0:0:0:0:
64,192,174564,1,0,0:0:0:0:
320,192,174624,1,0,0:0:0:0:
448,192,174684,1,0,0:0:0:0:
192,192,174744,1,0,0:0:0:0:
448,192,174804,1,0,0:0:0:0:
320,192,174804,1,0,0:0:0:0:
64,192,174804,1,0,0:0:0:0:
192,192,174864,1,0,0:0:0:0:
320,192,174924,1,0,0:0:0:0:
448,192,174984,1,0,0:0:0:0:
64,192,175044,1,0,0:0:0:0:
448,192,175104,1,0,0:0:0:0:
192,192,175164,1,0,0:0:0:0:
320,192,175224,1,0,0:0:0:0:
448,192,175284,1,0,0:0:0:0:
192,192,175284,1,0,0:0:0:0:
64,192,175284,1,0,0:0:0:0:
448,192,175404,1,0,0:0:0:0:
320,192,175404,1,0,0:0:0:0:
64,192,175404,1,0,0:0:0:0:
320,192,175644,1,0,0:0:0:0:
64,192,175704,1,0,0:0:0:0:
448,192,175764,1,0,0:0:0:0:
320,192,175764,1,0,0:0:0:0:
192,192,175764,1,0,0:0:0:0:
64,192,175824,1,0,0:0:0:0:
320,192,175884,1,0,0:0:0:0:
192,192,175884,1,0,0:0:0:0:
448,192,175944,1,0,0:0:0:0:
192,192,176004,1,0,0:0:0:0:
64,192,176004,1,0,0:0:0:0:
448,192,176064,1,0,0:0:0:0:
320,192,176124,1,0,0:0:0:0:
64,192,176124,1,0,0:0:0:0:
192,192,176184,1,0,0:0:0:0:
448,192,176244,1,0,0:0:0:0:
320,192,176244,1,0,0:0:0:0:
64,192,176244,1,0,0:0:0:0:
192,192,176304,1,0,0:0:0:0:
448,192,176364,1,0,0:0:0:0:
320,192,176364,1,0,0:0:0:0:
64,192,176424,1,0,0:0:0:0:
320,192,176484,1,0,0:0:0:0:
192,192,176484,1,0,0:0:0:0:
448,192,176544,1,0,0:0:0:0:
192,192,176604,1,0,0:0:0:0:
64,192,176604,1,0,0:0:0:0:
320,192,176664,1,0,0:0:0:0:
448,192,176724,1,0,0:0:0:0:
192,192,176724,1,0,0:0:0:0:
64,192,176724,1,0,0:0:0:0:
320,192,176784,1,0,0:0:0:0:
448,192,176844,1,0,0:0:0:0:
64,192,176844,1,0,0:0:0:0:
192,192,176904,1,0,0:0:0:0:
320,192,176964,1,0,0:0:0:0:
64,192,176964,1,0,0:0:0:0:
448,192,177024,1,0,0:0:0:0:
320,192,177084,1,0,0:0:0:0:
192,192,177084,1,0,0:0:0:0:
64,192,177144,1,0,0:0:0:0:
448,192,177204,1,0,0:0:0:0:
320,192,177204,1,0,0:0:0:0:
192,192,177204,1,0,0:0:0:0:
64,192,177264,1,0,0:0:0:0:
448,192,177324,1,0,0:0:0:0:
320,192,177324,1,0,0:0:0:0:
64,192,177384,1,0,0:0:0:0:
192,192,177444,1,0,0:0:0:0:
320,192,177504,1,0,0:0:0:0:
448,192,177564,1,0,0:0:0:0:
192,192,177624,1,0,0:0:0:0:
448,192,177684,1,0,0:0:0:0:
320,192,177684,1,0,0:0:0:0:
64,192,177684,1,0,0:0:0:0:
192,192,177744,1,0,0:0:0:0:
448,192,177804,1,0,0:0:0:0:
320,192,177804,1,0,0:0:0:0:
64,192,177864,1,0,0:0:0:0:
192,192,177924,1,0,0:0:0:0:
448,192,177984,1,0,0:0:0:0:
320,192,178044,1,0,0:0:0:0:
64,192,178104,1,0,0:0:0:0:
448,192,178164,1,0,0:0:0:0:
320,192,178164,1,0,0:0:0:0:
192,192,178164,1,0,0:0:0:0:
64,192,178224,1,0,0:0:0:0:
448,192,178284,1,0,0:0:0:0:
320,192,178284,1,0,0:0:0:0:
192,192,178344,1,0,0:0:0:0:
448,192,178404,1,0,0:0:0:0:
64,192,178404,1,0,0:0:0:0:
320,192,178464,1,0,0:0:0:0:
192,192,178484,1,0,0:0:0:0:
64,192,178524,1,0,0:0:0:0:
320,192,178564,1,0,0:0:0:0:
448,192,178584,1,0,0:0:0:0:
192,192,178644,1,0,0:0:0:0:
64,192,178644,1,0,0:0:0:0:
448,192,178704,1,0,0:0:0:0:
320,192,178724,1,0,0:0:0:0:
64,192,178764,1,0,0:0:0:0:
192,192,178804,1,0,0:0:0:0:
448,192,178824,1,0,0:0:0:0:
320,192,178884,1,0,0:0:0:0:
64,192,178884,1,0,0:0:0:0:
192,192,178944,1,0,0:0:0:0:
448,192,179004,1,0,0:0:0:0:
320,192,179004,1,0,0:0:0:0:
64,192,179064,1,0,0:0:0:0:
320,192,179124,1,0,0:0:0:0:
192,192,179124,1,0,0:0:0:0:
448,192,179184,1,0,0:0:0:0:
320,192,179244,1,0,0:0:0:0:
64,192,179244,1,0,0:0:0:0:
192,192,179304,1,0,0:0:0:0:
448,192,179364,1,0,0:0:0:0:
320,192,179364,1,0,0:0:0:0:
192,192,179444,1,0,0:0:0:0:
64,192,179524,1,0,0:0:0:0:
192,192,179604,1,0,0:0:0:0:
64,192,179684,1,0,0:0:0:0:
192,192,179764,1,0,0:0:0:0:
448,192,179844,1,0,0:0:0:0:
64,192,179844,1,0,0:0:0:0:
320,192,179924,1,0,0:0:0:0:
448,192,180004,1,0,0:0:0:0:
320,192,180084,1,0,0:0:0:0:
448,192,180164,1,0,0:0:0:0:
320,192,180244,1,0,0:0:0:0:
448,192,180324,1,0,0:0:0:0:
192,192,180324,1,0,0:0:0:0:
64,192,180324,1,0,0:0:0:0:
320,192,180384,1,0,0:0:0:0:
192,192,180444,1,0,0:0:0:0:
64,192,180444,1,0,0:0:0:0:
448,192,180504,1,0,0:0:0:0:
320,192,180504,1,0,0:0:0:0:
192,192,180564,1,0,0:0:0:0:
64,192,180564,1,0,0:0:0:0:
448,192,180624,1,0,0:0:0:0:
320,192,180624,1,0,0:0:0:0:
192,192,180684,1,0,0:0:0:0:
64,192,180684,1,0,0:0:0:0:
448,192,180744,1,0,0:0:0:0:
320,192,180744,1,0,0:0:0:0:
192,192,180804,1,0,0:0:0:0:
64,192,180804,1,0,0:0:0:0:
320,192,181164,1,0,0:0:0:0:
448,192,181164,1,0,0:0:0:0:
64,192,181164,1,0,0:0:0:0:
192,192,181164,1,0,0:0:0:0:
192,192,181404,1,0,0:0:0:0:
64,192,181404,1,0,0:0:0:0:
320,192,181464,1,0,0:0:0:0:
448,192,181524,1,0,0:0:0:0:
64,192,181524,1,0,0:0:0:0:
192,192,181584,1,0,0:0:0:0:
320,192,181644,1,0,0:0:0:0:
64,192,181644,1,0,0:0:0:0:
192,192,181704,1,0,0:0:0:0:
320,192,181764,1,0,0:0:0:0:
64,192,181764,1,0,0:0:0:0:
448,192,181824,1,0,0:0:0:0:
320,192,181884,1,0,0:0:0:0:
64,192,181884,1,0,0:0:0:0:
192,192,181944,1,0,0:0:0:0:
448,192,182004,1,0,0:0:0:0:
320,192,182004,1,0,0:0:0:0:
64,192,182064,1,0,0:0:0:0:
448,192,182124,1,0,0:0:0:0:
192,192,182124,1,0,0:0:0:0:
320,192,182184,1,0,0:0:0:0:
448,192,182244,1,0,0:0:0:0:
192,192,182244,1,0,0:0:0:0:
64,192,182304,1,0,0:0:0:0:
448,192,182364,1,0,0:0:0:0:
192,192,182364,1,0,0:0:0:0:
320,192,182424,1,0,0:0:0:0:
192,192,182484,1,0,0:0:0:0:
64,192,182484,1,0,0:0:0:0:
448,192,182544,1,0,0:0:0:0:
320,192,182604,1,0,0:0:0:0:
192,192,182604,1,0,0:0:0:0:
64,192,182664,1,0,0:0:0:0:
320,192,182724,1,0,0:0:0:0:
192,192,182724,1,0,0:0:0:0:
448,192,182784,1,0,0:0:0:0:
320,192,182844,1,0,0:0:0:0:
192,192,182844,1,0,0:0:0:0:
64,192,182904,1,0,0:0:0:0:
448,192,182964,1,0,0:0:0:0:
320,192,182964,1,0,0:0:0:0:
192,192,183024,1,0,0:0:0:0:
320,192,183084,1,0,0:0:0:0:
64,192,183084,1,0,0:0:0:0:
192,192,183144,1,0,0:0:0:0:
448,192,183204,1,0,0:0:0:0:
192,192,183264,1,0,0:0:0:0:
320,192,183324,1,0,0:0:0:0:
64,192,183324,1,0,0:0:0:0:
192,192,183384,1,0,0:0:0:0:
448,192,183444,1,0,0:0:0:0:
64,192,183444,1,0,0:0:0:0:
192,192,183504,1,0,0:0:0:0:
448,192,183564,1,0,0:0:0:0:
320,192,183564,1,0,0:0:0:0:
64,192,183624,1,0,0:0:0:0:
448,192,183684,1,0,0:0:0:0:
320,192,183684,1,0,0:0:0:0:
192,192,183744,1,0,0:0:0:0:
448,192,183804,1,0,0:0:0:0:
320,192,183804,1,0,0:0:0:0:
64,192,183864,1,0,0:0:0:0:
320,192,183924,1,0,0:0:0:0:
192,192,183924,1,0,0:0:0:0:
448,192,183984,1,0,0:0:0:0:
192,192,184044,1,0,0:0:0:0:
64,192,184044,1,0,0:0:0:0:
320,192,184104,1,0,0:0:0:0:
192,192,184164,1,0,0:0:0:0:
64,192,184164,1,0,0:0:0:0:
448,192,184224,1,0,0:0:0:0:
192,192,184284,1,0,0:0:0:0:
64,192,184284,1,0,0:0:0:0:
320,192,184344,1,0,0:0:0:0:
448,192,184404,1,0,0:0:0:0:
64,192,184404,1,0,0:0:0:0:
320,192,184464,1,0,0:0:0:0:
448,192,184524,1,0,0:0:0:0:
192,192,184524,1,0,0:0:0:0:
64,192,184584,1,0,0:0:0:0:
448,192,184644,1,0,0:0:0:0:
192,192,184644,1,0,0:0:0:0:
320,192,184704,1,0,0:0:0:0:
448,192,184764,1,0,0:0:0:0:
192,192,184764,1,0,0:0:0:0:
64,192,184824,1,0,0:0:0:0:
448,192,184884,1,0,0:0:0:0:
320,192,184884,1,0,0:0:0:0:
192,192,184944,1,0,0:0:0:0:
448,192,185004,1,0,0:0:0:0:
64,192,185004,1,0,0:0:0:0:
320,192,185064,1,0,0:0:0:0:
192,192,185124,1,0,0:0:0:0:
448,192,185184,1,0,0:0:0:0:
320,192,185244,1,0,0:0:0:0:
64,192,185244,1,0,0:0:0:0:
192,192,185304,1,0,0:0:0:0:
448,192,185364,1,0,0:0:0:0:
64,192,185364,1,0,0:0:0:0:
320,192,185424,1,0,0:0:0:0:
448,192,185484,1,0,0:0:0:0:
192,192,185484,1,0,0:0:0:0:
64,192,185544,1,0,0:0:0:0:
448,192,185604,1,0,0:0:0:0:
192,192,185604,1,0,0:0:0:0:
320,192,185664,1,0,0:0:0:0:
448,192,185724,1,0,0:0:0:0:
192,192,185724,1,0,0:0:0:0:
64,192,185784,1,0,0:0:0:0:
448,192,185844,1,0,0:0:0:0:
320,192,185844,1,0,0:0:0:0:
192,192,185904,1,0,0:0:0:0:
320,192,185964,1,0,0:0:0:0:
64,192,185964,1,0,0:0:0:0:
192,192,186024,1,0,0:0:0:0:
320,192,186084,1,0,0:0:0:0:
64,192,186084,1,0,0:0:0:0:
448,192,186144,1,0,0:0:0:0:
320,192,186204,1,0,0:0:0:0:
64,192,186204,1,0,0:0:0:0:
192,192,186264,1,0,0:0:0:0:
448,192,186324,1,0,0:0:0:0:
64,192,186324,1,0,0:0:0:0:
320,192,186384,1,0,0:0:0:0:
448,192,186444,1,0,0:0:0:0:
192,192,186444,1,0,0:0:0:0:
64,192,186504,1,0,0:0:0:0:
448,192,186564,1,0,0:0:0:0:
192,192,186564,1,0,0:0:0:0:
320,192,186624,1,0,0:0:0:0:
448,192,186684,1,0,0:0:0:0:
192,192,186684,1,0,0:0:0:0:
64,192,186744,1,0,0:0:0:0:
448,192,186804,1,0,0:0:0:0:
320,192,186804,1,0,0:0:0:0:
192,192,186864,1,0,0:0:0:0:
320,192,186924,1,0,0:0:0:0:
64,192,186924,1,0,0:0:0:0:
448,192,186984,1,0,0:0:0:0:
192,192,187044,1,0,0:0:0:0:
320,192,187104,1,0,0:0:0:0:
448,192,187164,1,0,0:0:0:0:
64,192,187164,1,0,0:0:0:0:
192,192,187224,1,0,0:0:0:0:
320,192,187284,1,0,0:0:0:0:
64,192,187284,1,0,0:0:0:0:
448,192,187344,1,0,0:0:0:0:
192,192,187404,1,0,0:0:0:0:
64,192,187404,1,0,0:0:0:0:
320,192,187464,1,0,0:0:0:0:
192,192,187524,1,0,0:0:0:0:
64,192,187524,1,0,0:0:0:0:
448,192,187584,1,0,0:0:0:0:
192,192,187644,1,0,0:0:0:0:
64,192,187644,1,0,0:0:0:0:
448,192,187704,1,0,0:0:0:0:
320,192,187764,1,0,0:0:0:0:
192,192,187764,1,0,0:0:0:0:
64,192,187824,1,0,0:0:0:0:
448,192,187884,1,0,0:0:0:0:
192,192,187884,1,0,0:0:0:0:
320,192,187944,1,0,0:0:0:0:
448,192,188004,1,0,0:0:0:0:
192,192,188004,1,0,0:0:0:0:
64,192,188064,1,0,0:0:0:0:
448,192,188124,1,0,0:0:0:0:
192,192,188124,1,0,0:0:0:0:
320,192,188184,1,0,0:0:0:0:
192,192,188244,1,0,0:0:0:0:
64,192,188244,1,0,0:0:0:0:
448,192,188304,1,0,0:0:0:0:
320,192,188364,1,0,0:0:0:0:
64,192,188364,1,0,0:0:0:0:
192,192,188424,1,0,0:0:0:0:
448,192,188484,1,0,0:0:0:0:
320,192,188484,1,0,0:0:0:0:
64,192,188484,1,0,0:0:0:0:
320,192,188604,1,0,0:0:0:0:
192,192,188604,1,0,0:0:0:0:
64,192,188604,1,0,0:0:0:0:
448,192,188724,1,0,0:0:0:0:
192,192,188724,1,0,0:0:0:0:
64,192,188724,1,0,0:0:0:0:
320,192,188844,1,0,0:0:0:0:
448,192,188844,1,0,0:0:0:0:
64,192,188844,1,0,0:0:0:0:
192,192,188844,1,0,0:0:0:0:
448,192,189084,1,0,0:0:0:0:
320,192,189084,1,0,0:0:0:0:
64,192,189144,1,0,0:0:0:0:
320,192,189204,1,0,0:0:0:0:
192,192,189204,1,0,0:0:0:0:
448,192,189264,1,0,0:0:0:0:
320,192,189324,1,0,0:0:0:0:
64,192,189324,1,0,0:0:0:0:
192,192,189384,1,0,0:0:0:0:
320,192,189444,1,0,0:0:0:0:
64,192,189444,1,0,0:0:0:0:
448,192,189504,1,0,0:0:0:0:
320,192,189564,1,0,0:0:0:0:
64,192,189564,1,0,0:0:0:0:
192,192,189624,1,0,0:0:0:0:
448,192,189684,1,0,0:0:0:0:
320,192,189684,1,0,0:0:0:0:
192,192,189744,1,0,0:0:0:0:
448,192,189804,1,0,0:0:0:0:
64,192,189804,1,0,0:0:0:0:
320,192,189864,1,0,0:0:0:0:
448,192,189924,1,0,0:0:0:0:
64,192,189924,1,0,0:0:0:0:
192,192,189984,1,0,0:0:0:0:
448,192,190044,1,0,0:0:0:0:
64,192,190044,1,0,0:0:0:0:
320,192,190104,1,0,0:0:0:0:
448,192,190164,1,0,0:0:0:0:
192,192,190164,1,0,0:0:0:0:
320,192,190224,1,0,0:0:0:0:
192,192,190284,1,0,0:0:0:0:
64,192,190284,1,0,0:0:0:0:
448,192,190344,1,0,0:0:0:0:
192,192,190404,1,0,0:0:0:0:
64,192,190404,1,0,0:0:0:0:
448,192,190464,1,0,0:0:0:0:
192,192,190524,1,0,0:0:0:0:
64,192,190524,1,0,0:0:0:0:
320,192,190584,1,0,0:0:0:0:
448,192,190644,1,0,0:0:0:0:
64,192,190644,1,0,0:0:0:0:
192,192,190704,1,0,0:0:0:0:
448,192,190764,1,0,0:0:0:0:
320,192,190764,1,0,0:0:0:0:
64,192,190824,1,0,0:0:0:0:
192,192,190884,1,0,0:0:0:0:
320,192,190944,1,0,0:0:0:0:
448,192,191004,1,0,0:0:0:0:
64,192,191004,1,0,0:0:0:0:
192,192,191064,1,0,0:0:0:0:
320,192,191124,1,0,0:0:0:0:
64,192,191124,1,0,0:0:0:0:
192,192,191184,1,0,0:0:0:0:
448,192,191244,1,0,0:0:0:0:
320,192,191244,1,0,0:0:0:0:
64,192,191304,1,0,0:0:0:0:
448,192,191364,1,0,0:0:0:0:
320,192,191364,1,0,0:0:0:0:
192,192,191424,1,0,0:0:0:0:
448,192,191484,1,0,0:0:0:0:
320,192,191484,1,0,0:0:0:0:
64,192,191544,1,0,0:0:0:0:
448,192,191604,1,0,0:0:0:0:
192,192,191604,1,0,0:0:0:0:
320,192,191664,1,0,0:0:0:0:
192,192,191724,1,0,0:0:0:0:
64,192,191724,1,0,0:0:0:0:
448,192,191784,1,0,0:0:0:0:
192,192,191844,1,0,0:0:0:0:
64,192,191844,1,0,0:0:0:0:
320,192,191904,1,0,0:0:0:0:
192,192,191964,1,0,0:0:0:0:
64,192,191964,1,0,0:0:0:0:
448,192,192024,1,0,0:0:0:0:
320,192,192084,1,0,0:0:0:0:
192,192,192084,1,0,0:0:0:0:
448,192,192144,1,0,0:0:0:0:
320,192,192204,1,0,0:0:0:0:
64,192,192204,1,0,0:0:0:0:
192,192,192264,1,0,0:0:0:0:
320,192,192324,1,0,0:0:0:0:
64,192,192324,1,0,0:0:0:0:
448,192,192384,1,0,0:0:0:0:
320,192,192444,1,0,0:0:0:0:
64,192,192444,1,0,0:0:0:0:
192,192,192504,1,0,0:0:0:0:
448,192,192564,1,0,0:0:0:0:
320,192,192564,1,0,0:0:0:0:
192,192,192624,1,0,0:0:0:0:
448,192,192684,1,0,0:0:0:0:
64,192,192684,1,0,0:0:0:0:
192,192,192744,1,0,0:0:0:0:
320,192,192804,1,0,0:0:0:0:
448,192,192864,1,0,0:0:0:0:
192,192,192924,1,0,0:0:0:0:
64,192,192924,1,0,0:0:0:0:
320,192,192984,1,0,0:0:0:0:
448,192,193044,1,0,0:0:0:0:
192,192,193044,1,0,0:0:0:0:
64,192,193104,1,0,0:0:0:0:
448,192,193164,1,0,0:0:0:0:
320,192,193164,1,0,0:0:0:0:
192,192,193224,1,0,0:0:0:0:
448,192,193284,1,0,0:0:0:0:
320,192,193284,1,0,0:0:0:0:
64,192,193344,1,0,0:0:0:0:
448,192,193404,1,0,0:0:0:0:
320,192,193404,1,0,0:0:0:0:
192,192,193464,1,0,0:0:0:0:
320,192,193524,1,0,0:0:0:0:
64,192,193524,1,0,0:0:0:0:
448,192,193584,1,0,0:0:0:0:
192,192,193644,1,0,0:0:0:0:
64,192,193644,1,0,0:0:0:0:
320,192,193704,1,0,0:0:0:0:
192,192,193764,1,0,0:0:0:0:
64,192,193764,1,0,0:0:0:0:
448,192,193824,1,0,0:0:0:0:
192,192,193884,1,0,0:0:0:0:
64,192,193884,1,0,0:0:0:0:
320,192,193944,1,0,0:0:0:0:
448,192,194004,1,0,0:0:0:0:
192,192,194004,1,0,0:0:0:0:
320,192,194064,1,0,0:0:0:0:
448,192,194124,1,0,0:0:0:0:
64,192,194124,1,0,0:0:0:0:
192,192,194184,1,0,0:0:0:0:
448,192,194244,1,0,0:0:0:0:
64,192,194244,1,0,0:0:0:0:
320,192,194304,1,0,0:0:0:0:
448,192,194364,1,0,0:0:0:0:
64,192,194364,1,0,0:0:0:0:
192,192,194424,1,0,0:0:0:0:
448,192,194484,1,0,0:0:0:0:
320,192,194484,1,0,0:0:0:0:
192,192,194544,1,0,0:0:0:0:
320,192,194604,1,0,0:0:0:0:
64,192,194604,1,0,0:0:0:0:
448,192,194664,1,0,0:0:0:0:
192,192,194724,1,0,0:0:0:0:
320,192,194784,1,0,0:0:0:0:
64,192,194844,1,0,0:0:0:0:
192,192,194904,1,0,0:0:0:0:
320,192,194964,1,0,0:0:0:0:
448,192,195024,1,0,0:0:0:0:
192,192,195084,1,0,0:0:0:0:
320,192,195144,1,0,0:0:0:0:
448,192,195204,1,0,0:0:0:0:
64,192,195264,1,0,0:0:0:0:
320,192,195324,1,0,0:0:0:0:
448,192,195384,1,0,0:0:0:0:
64,192,195444,1,0,0:0:0:0:
192,192,195504,1,0,0:0:0:0:
320,192,195564,1,0,0:0:0:0:
64,192,195624,1,0,0:0:0:0:
448,192,195684,1,0,0:0:0:0:
320,192,195684,1,0,0:0:0:0:
192,192,195744,1,0,0:0:0:0:
448,192,195804,1,0,0:0:0:0:
320,192,195804,1,0,0:0:0:0:
64,192,195864,1,0,0:0:0:0:
448,192,195924,1,0,0:0:0:0:
320,192,195924,1,0,0:0:0:0:
192,192,195984,1,0,0:0:0:0:
448,192,196044,1,0,0:0:0:0:
320,192,196044,1,0,0:0:0:0:
64,192,196104,1,0,0:0:0:0:
448,192,196164,1,0,0:0:0:0:
320,192,196164,1,0,0:0:0:0:
192,192,196224,1,0,0:0:0:0:
448,192,196284,1,0,0:0:0:0:
320,192,196284,1,0,0:0:0:0:
64,192,196284,1,0,0:0:0:0:
448,192,196404,1,0,0:0:0:0:
320,192,196404,1,0,0:0:0:0:
64,192,196404,1,0,0:0:0:0:
192,192,196524,128,0,197004:0:0:0:0:
64,192,196524,128,0,197004:0:0:0:0:
