osu file format v14

[General]
AudioFilename: audio.mp3
AudioLeadIn: 0
PreviewTime: 27805
Countdown: 0
SampleSet: Soft
StackLeniency: 0.4
Mode: 0
LetterboxInBreaks: 0
WidescreenStoryboard: 0

[Editor]
DistanceSpacing: 2
BeatDivisor: 4
GridSize: 4
TimelineZoom: 1.9

[Metadata]
Title:This Will Be the Day (feat. Casey Lee Williams) (TV Size)
TitleUnicode:This Will Be the Day (feat. Casey Lee Williams) (TV Size)
Artist:Jeff Williams
ArtistUnicode:Jeff Williams
Creator:browiec
Version:Revolution
Source:RWBY
Tags:volume 1 opening theme short version nyantiaz red ruby white black yellow rose yang xiao long weiss schnee blake belladonna english rock
BeatmapID:2151203
BeatmapSetID:1028804

[Difficulty]
HPDrainRate:6.5
CircleSize:4
OverallDifficulty:9.2
ApproachRate:9.3
SliderMultiplier:1.9
SliderTickRate:1

[Events]
//Background and Video events
0,0,"this will be the day we open up the dooooooor.png",0,0
//Break Periods
//Storyboard Layer 0 (Background)
//Storyboard Layer 1 (Fail)
//Storyboard Layer 2 (Pass)
//Storyboard Layer 3 (Foreground)
//Storyboard Layer 4 (Overlay)
//Storyboard Sound Samples

[TimingPoints]
95,315.789473684211,4,2,1,60,1,0
2621,-133.333333333333,4,2,1,60,0,0
7673,-133.333333333333,4,2,1,50,0,0
17779,-100,4,2,1,65,0,0
27884,-133.333333333333,4,2,1,50,0,0
30095,-133.333333333333,4,2,1,60,0,0
30410,-133.333333333333,4,2,1,50,0,0
32621,-100,4,2,1,60,0,0
32779,-100,4,2,1,65,0,0
37989,-90.9090909090909,4,2,1,70,0,0
63095,-100,4,2,1,70,0,0
63963,-200,4,2,1,50,0,0

[Colours]
Combo1 : 255,255,0
Combo2 : 242,0,0
Combo3 : 212,212,212
Combo4 : 63,63,63

[HitObjects]
73,146,2621,5,0,3:2:0:0:
136,88,2779,1,0,0:2:0:0:
200,144,2937,1,0,0:2:0:0:
300,36,3095,2,0,B|376:28|376:28|444:68,1,142.500005435944,8|0,0:2|3:2,0:0:0:0:
512,144,3568,2,0,L|420:164,1,71.2500027179719,0|0,3:2|3:2,0:0:0:0:
336,248,3884,5,0,3:2:0:0:
273,190,4042,1,0,0:2:0:0:
209,246,4200,1,0,0:2:0:0:
140,128,4358,2,0,B|72:120|72:120|-8:144,1,142.500005435944,8|0,0:2|3:2,0:0:0:0:
12,264,4831,2,0,L|96:236,1,71.2500027179719,0|0,3:2|0:2,0:0:0:0:
196,192,5147,5,0,3:2:0:0:
259,250,5305,1,0,0:2:0:0:
323,194,5463,1,0,0:2:0:0:
460,240,5621,2,0,P|480:296|420:368,1,142.500005435944,8|0,0:2|3:2,0:0:0:0:
304,352,6095,2,0,P|296:304|296:268,1,71.2500027179719,0|0,3:2|3:2,0:0:0:0:
400,184,6410,5,0,3:2:0:0:
342,121,6568,1,0,0:2:0:0:
398,57,6726,1,0,0:2:0:0:
276,4,6884,2,0,B|200:-12|212:28|124:8,1,142.500005435944,8|0,0:2|3:2,0:0:0:0:
80,112,7279,1,8,0:2:0:0:
80,112,7358,2,0,P|120:108|168:112,1,71.2500027179719,8|0,3:2|0:2,0:0:0:0:
328,160,7673,5,0,3:2:0:0:
328,160,7989,1,2,0:2:0:0:
444,244,8147,2,0,B|468:292|468:292|416:392,1,142.500005435944,10|2,0:2|3:2,0:0:0:0:
324,272,8621,1,0,3:2:0:0:
452,224,8779,1,2,3:2:0:0:
280,160,8937,6,0,P|232:152|196:164,1,71.2500027179719,2|0,3:2|0:2,0:0:0:0:
204,296,9252,2,0,P|234:258|242:221,1,71.2500027179719,2|8,3:2|0:2,0:0:0:0:
124,162,9568,2,0,P|141:207|169:232,1,71.2500027179719,2|0,0:2|3:2,0:0:0:0:
280,160,9884,2,0,P|262:114|234:89,1,71.2500027179719,2|0,3:2|0:2,0:0:0:0:
156,64,10200,5,0,3:2:0:0:
156,64,10516,1,2,3:2:0:0:
32,144,10673,2,0,B|8:196|8:196|52:288,1,142.500005435944,10|2,0:2|3:2,0:0:0:0:
196,296,11147,1,0,3:2:0:0:
72,368,11305,1,2,3:2:0:0:
160,216,11463,6,0,P|204:208|248:224,1,71.2500027179719,2|0,3:2|0:2,0:0:0:0:
352,280,11779,2,0,P|308:288|264:272,1,71.2500027179719,2|8,3:2|0:2,0:0:0:0:
316,132,12095,2,0,L|316:212,1,71.2500027179719,2|0,0:2|3:2,0:0:0:0:
320,372,12410,1,0,3:2:0:0:
320,372,12726,6,0,B|260:368|260:368|240:360|240:360|156:356,1,142.500005435944,0|2,3:2|0:2,0:0:0:0:
64,280,13200,2,0,B|124:276|124:276|144:268|144:268|228:264,1,142.500005435944,10|2,0:2|3:2,0:0:0:0:
368,236,13673,1,0,3:2:0:0:
248,340,13831,1,2,3:2:0:0:
296,176,13989,6,0,L|308:96,1,71.2500027179719,2|0,3:2|0:2,0:0:0:0:
392,44,14305,2,0,L|404:124,1,71.2500027179719,2|8,3:2|0:2,0:0:0:0:
356,248,14621,2,0,P|316:268|264:264,1,71.2500027179719,2|0,0:2|3:2,0:0:0:0:
240,127,14937,2,0,P|280:107|332:111,1,71.2500027179719,2|0,3:2|0:2,0:0:0:0:
444,208,15252,6,0,B|464:256|464:256|408:360,1,142.500005435944,2|2,3:2|3:2,0:0:0:0:
308,372,15726,2,0,B|248:372|248:372|224:364|224:364|144:364,1,142.500005435944,10|0,0:2|3:2,0:0:0:0:
64,240,16200,1,2,3:2:0:0:
220,276,16358,1,2,3:2:0:0:
64,344,16516,5,0,3:2:0:0:
156,200,16673,2,0,B|176:156|176:156|176:100|176:100|172:96|172:96|172:44,1,142.500005435944,2|0,3:2|0:2,0:0:0:0:
80,152,17147,2,0,P|20:144|88:140,1,213.750008153916,2|0,0:2|0:2,0:0:0:0:
168,308,17779,6,0,P|224:320|268:308,1,95,4|0,3:2|3:2,0:0:0:0:
368,248,18095,1,10,0:2:0:0:
172,160,18252,2,0,B|128:120|136:72|136:72|160:28|232:28,1,190,2|0,3:2|3:2,0:0:0:0:
292,196,18726,1,10,0:2:0:0:
356,32,18884,1,2,3:2:0:0:
448,208,19042,6,0,P|456:256|456:316,1,95,2|0,3:2|3:2,0:0:0:0:
320,364,19358,2,0,P|320:315|330:256,1,95,10|0,0:2|3:2,0:0:0:0:
468,124,19673,2,0,L|364:116,1,95,2|0,0:2|3:2,0:0:0:0:
208,192,19989,2,0,L|312:184,1,95,10|0,0:2|0:2,0:0:0:0:
460,312,20305,5,0,3:2:0:0:
404,140,20463,1,0,3:2:0:0:
312,300,20621,1,10,0:2:0:0:
256,96,20779,2,0,B|176:80|176:80|148:84|148:84|48:64,1,190,2|0,3:2|3:2,0:0:0:0:
168,176,21252,1,10,0:2:0:0:
256,12,21410,1,2,3:2:0:0:
332,192,21568,6,0,P|340:244|324:288,1,95,2|0,3:2|3:2,0:0:0:0:
168,276,21884,2,0,P|209:243|255:234,1,95,10|0,0:2|3:2,0:0:0:0:
344,376,22200,1,2,0:2:0:0:
332,192,22358,1,0,3:2:0:0:
208,352,22516,2,0,P|155:360|111:344,1,95,8|0,0:2|0:2,0:0:0:0:
24,144,22831,6,0,B|20:220|20:220|28:260|28:260|24:344,1,190,4|10,3:2|0:2,0:0:0:0:
116,128,23305,2,0,L|114:228,1,95,2|0,3:2|0:2,0:0:0:0:
216,372,23621,1,2,3:2:0:0:
216,204,23779,1,8,0:2:0:0:
100,340,23937,1,2,3:2:0:0:
308,280,24095,6,0,P|364:272|412:276,1,95,2|0,3:2|3:2,0:0:0:0:
504,188,24410,2,0,P|448:180|400:184,1,95,10|0,0:2|3:2,0:0:0:0:
308,100,24726,2,0,P|364:92|412:96,1,95,2|0,0:2|3:2,0:0:0:0:
484,272,25042,2,0,P|472:320|424:352,1,95,10|0,0:2|0:2,0:0:0:0:
264,268,25358,5,2,3:2:0:0:
440,140,25516,2,0,B|448:92|448:92|436:36,1,95,2|8,3:2|0:2,0:0:0:0:
280,8,25831,2,0,B|272:56|272:56|284:112,1,95,2|0,3:2|0:2,0:0:0:0:
396,248,26147,1,2,3:2:0:0:
360,60,26305,1,8,0:2:0:0:
268,232,26463,1,2,3:2:0:0:
496,160,26621,5,8,0:2:0:0:
220,140,26779,1,10,0:2:0:0:
472,304,26937,1,8,0:2:0:0:
220,324,27095,1,10,0:2:0:0:
444,84,27252,5,8,0:2:0:0:
356,352,27410,1,10,0:2:0:0:
280,80,27568,1,8,0:2:0:0:
472,280,27726,1,8,0:2:0:0:
176,184,27884,6,0,B|104:156|104:216|16:192|16:192|92:224|120:288|120:288|80:340|0:312,1,427.500016307831,6|0,3:2|0:2,0:0:0:0:
204,268,29147,6,0,B|316:256|316:344|444:312|444:312|384:304|364:236|364:236,1,356.25001358986,2|0,0:2|0:2,0:0:0:0:
448,48,30095,1,8,0:2:0:0:
448,65,30173,1,8,0:2:0:0:
449,83,30252,1,8,0:2:0:0:
450,101,30331,1,8,0:2:0:0:
450,119,30410,6,0,B|402:183|330:143|330:143|314:83|358:47|358:47|270:111|174:31,1,427.500016307831,6|0,3:2|0:2,0:0:0:0:
28,140,31673,6,0,B|96:184|184:152|184:152|136:176|124:232|124:232|176:200|232:224,1,356.25001358986,2|0,0:2|0:2,0:0:0:0:
320,284,32621,1,8,0:2:0:0:
400,56,32779,6,0,B|432:4|432:4|444:164,1,190,6|2,3:2|0:2,0:0:0:0:
452,288,33252,1,8,0:2:0:0:
344,140,33410,2,0,P|284:128|244:140,1,95,2|0,0:2|3:2,0:0:0:0:
128,244,33726,2,0,P|188:232|228:244,1,95,2|8,3:2|0:2,0:0:0:0:
68,328,34042,6,0,B|28:276|28:276|60:152,1,190,2|2,3:2|3:2,0:0:0:0:
200,16,34516,2,0,L|216:132,1,95,8|2,0:2|0:2,0:0:0:0:
256,296,34831,1,0,3:2:0:0:
336,116,34989,1,0,3:2:0:0:
392,304,35147,1,8,0:2:0:0:
148,176,35305,6,0,P|92:176|48:200,1,95,6|0,3:2|3:2,0:0:0:0:
32,344,35621,1,2,3:2:0:0:
128,88,35779,5,8,3:2:0:0:
196,320,35937,1,10,3:2:0:0:
264,76,36095,1,8,3:2:0:0:
88,256,36252,1,10,3:2:0:0:
188,0,36410,5,8,3:2:0:0:
292,248,36568,1,10,3:2:0:0:
64,56,36726,1,8,0:2:0:0:
356,144,36884,1,10,0:2:0:0:
116,332,37042,5,0,3:2:0:0:
93,339,37120,1,0,3:2:0:0:
70,343,37199,1,0,3:2:0:0:
46,343,37278,1,0,3:2:0:0:
23,337,37357,1,10,3:2:0:0:
156,88,37516,1,10,0:2:0:0:
272,348,37673,5,8,3:2:0:0:
319,352,37751,1,8,3:2:0:0:
366,357,37830,1,8,3:2:0:0:
413,362,37909,1,8,3:2:0:0:
460,367,37988,5,6,3:2:0:0:
392,104,38147,1,2,3:2:0:0:
272,348,38305,1,10,0:2:0:0:
512,216,38463,1,2,3:2:0:0:
232,188,38621,2,0,P|160:160|132:120,1,104.500003189087,2|0,3:2|3:2,0:0:0:0:
224,0,38937,1,10,0:2:0:0:
340,188,39095,6,0,L|352:304,1,104.500003189087,2|0,3:2|3:2,0:0:0:0:
452,144,39410,2,0,L|464:28,1,104.500003189087,2|8,3:2|0:2,0:0:0:0:
220,200,39726,2,0,B|140:200|140:200|112:208|112:208|12:208,1,209.000006378174,2|0,3:2|3:2,0:0:0:0:
160,300,40200,1,8,0:2:0:0:
232,64,40358,1,0,3:2:0:0:
232,64,40437,1,0,3:2:0:0:
232,64,40516,5,2,3:2:0:0:
320,292,40673,1,2,3:2:0:0:
116,144,40831,1,10,0:2:0:0:
208,368,40989,1,2,3:2:0:0:
320,148,41147,2,0,P|380:132|432:140,1,104.500003189087,2|0,3:2|3:2,0:0:0:0:
512,256,41463,1,10,0:2:0:0:
256,272,41621,6,0,L|140:276,1,104.500003189087,2|0,3:2|3:2,0:0:0:0:
0,168,41937,2,0,L|116:172,1,104.500003189087,2|8,3:2|0:2,0:0:0:0:
256,64,42252,2,0,L|140:68,1,104.500003189087,2|0,3:2|3:2,0:0:0:0:
48,292,42568,1,2,3:2:0:0:
252,180,42726,1,8,0:2:0:0:
56,0,42884,6,0,B|12:72|12:72|84:200,1,209.000006378174,6|0,3:2|3:2,0:0:0:0:
200,328,43358,1,10,0:2:0:0:
260,156,43516,1,2,3:2:0:0:
312,352,43673,1,2,3:2:0:0:
176,200,43831,1,2,3:2:0:0:
120,380,43989,1,10,0:2:0:0:
296,240,44147,1,2,3:2:0:0:
112,140,44305,6,0,P|88:200|192:288,1,209.000006378174,2|8,3:2|0:2,0:0:0:0:
360,240,44779,2,0,L|252:232,1,104.500003189087,2|0,3:2|3:2,0:0:0:0:
412,328,45095,2,0,L|304:336,1,104.500003189087,2|8,3:2|0:2,0:0:0:0:
179,289,45410,1,0,3:2:0:0:
320,148,45568,6,0,L|424:155,1,104.500003189087,0|0,0:2|3:2,0:0:0:0:
284,264,45884,1,10,0:2:0:0:
236,84,46042,1,2,3:2:0:0:
372,240,46200,1,2,3:2:0:0:
352,56,46358,1,2,3:2:0:0:
216,208,46516,1,10,0:2:0:0:
424,155,46673,1,2,3:2:0:0:
160,124,46831,5,6,3:2:0:0:
384,252,46989,1,0,3:2:0:0:
116,280,47147,1,10,0:2:0:0:
312,132,47305,1,2,3:2:0:0:
236,368,47463,1,0,3:2:0:0:
412,160,47621,1,2,3:2:0:0:
424,384,47779,1,8,0:2:0:0:
236,192,47937,1,0,3:2:0:0:
236,192,48016,1,0,3:2:0:0:
236,192,48095,5,6,3:2:0:0:
496,248,48252,1,2,3:2:0:0:
372,28,48410,1,10,0:2:0:0:
320,276,48568,1,2,3:2:0:0:
192,56,48726,2,0,P|132:48|76:64,1,104.500003189087,2|0,3:2|3:2,0:0:0:0:
8,200,49042,1,10,0:2:0:0:
264,200,49200,6,0,L|384:204,1,104.500003189087,2|0,3:2|3:2,0:0:0:0:
512,336,49516,2,0,L|392:340,1,104.500003189087,2|8,3:2|0:2,0:0:0:0:
196,264,49831,2,0,P|172:204|188:148,1,104.500003189087,2|0,3:2|3:2,0:0:0:0:
372,28,50147,2,0,P|396:88|380:144,1,104.500003189087,2|8,3:2|0:2,0:0:0:0:
272,345,50463,5,0,3:2:0:0:
272,345,50542,1,0,3:2:0:0:
272,345,50621,1,6,3:2:0:0:
228,79,50779,1,2,3:2:0:0:
92,306,50937,1,10,0:2:0:0:
346,197,51095,1,2,3:2:0:0:
68,128,51252,2,0,P|48:72|52:20,1,104.500003189087,2|0,3:2|3:2,0:0:0:0:
184,176,51568,1,10,0:2:0:0:
344,28,51726,6,0,B|392:-4|448:36|448:36|452:104|368:132,1,209.000006378174,6|2,3:2|3:2,0:0:0:0:
220,76,52200,1,8,0:2:0:0:
392,208,52358,2,0,P|408:268|388:320,1,104.500003189087,2|0,3:2|3:2,0:0:0:0:
256,360,52673,2,0,P|240:300|260:248,1,104.500003189087,2|8,3:2|0:2,0:0:0:0:
468,120,52989,6,0,B|392:104|392:104|364:108|364:108|260:88,1,209.000006378174,6|0,3:2|3:2,0:0:0:0:
88,196,53463,2,0,L|204:172,1,104.500003189087,10|0,0:2|3:2,0:0:0:0:
316,256,53779,1,0,3:2:0:0:
252,84,53937,2,0,P|188:68|128:88,1,104.500003189087,2|8,3:2|0:2,0:0:0:0:
0,268,54252,6,0,B|104:292|104:292|220:264,1,209.000006378174,6|0,3:2|3:2,0:0:0:0:
416,176,54726,2,0,L|288:156,1,104.500003189087,8|0,0:2|3:2,0:0:0:0:
116,108,55042,1,0,3:2:0:0:
324,60,55200,1,0,3:2:0:0:
200,220,55358,1,8,0:2:0:0:
204,4,55516,1,2,3:2:0:0:
368,188,55673,6,0,P|376:252|376:308,1,104.500003189087,6|0,3:2|3:2,0:0:0:0:
512,368,55989,1,10,0:2:0:0:
436,120,56147,2,0,P|384:96|324:104,1,104.500003189087,2|0,3:2|3:2,0:0:0:0:
188,264,56463,2,0,P|240:288|300:280,1,104.500003189087,2|8,3:2|0:2,0:0:0:0:
500,48,56779,6,0,B|532:116|532:116|480:244,1,209.000006378174,6|0,3:2|3:2,0:0:0:0:
364,376,57252,2,0,L|344:268,1,104.500003189087,8|0,0:2|3:2,0:0:0:0:
316,56,57568,1,0,3:2:0:0:
216,256,57726,1,0,3:2:0:0:
208,24,57884,1,8,0:2:0:0:
108,224,58042,1,6,3:2:0:0:
416,148,58200,6,0,B|464:164|480:200|480:200|440:260|356:220,1,209.000006378174,2|10,3:2|0:2,0:0:0:0:
200,136,58673,2,0,P|144:128|84:144,1,104.500003189087,2|0,3:2|3:2,0:0:0:0:
16,284,58989,2,0,P|72:292|132:276,1,104.500003189087,2|8,3:2|0:2,0:0:0:0:
276,68,59305,6,0,B|316:20|316:20|324:184,1,209.000006378174,6|0,3:2|3:2,0:0:0:0:
264,360,59779,1,8,3:2:0:0:
214,372,59857,1,0,3:2:0:0:
166,353,59936,1,0,3:2:0:0:
138,310,60015,1,0,3:2:0:0:
141,258,60094,1,8,3:2:0:0:
384,264,60252,1,8,3:2:0:0:
200,120,60410,1,8,3:2:0:0:
244,344,60568,1,6,3:2:0:0:
376,112,60726,6,0,L|504:104,1,104.500003189087,2|8,3:2|0:2,0:0:0:0:
336,300,61042,1,10,0:2:0:0:
244,36,61200,6,0,L|116:28,1,104.500003189087,6|0,3:2|3:2,0:0:0:0:
220,252,61516,1,10,0:2:0:0:
336,24,61673,1,8,0:2:0:0:
424,256,61831,1,6,3:2:0:0:
168,168,61989,5,0,0:0:0:0:
133,206,62067,1,0,3:2:0:0:
123,257,62146,1,2,3:2:0:0:
140,305,62225,1,0,3:2:0:0:
179,339,62304,1,0,3:2:0:0:
230,348,62383,1,0,3:2:0:0:
278,330,62462,1,6,3:2:0:0:
311,290,62541,1,0,3:2:0:0:
314,233,62620,5,8,3:2:0:0:
347,187,62699,1,8,3:2:0:0:
401,168,62778,1,10,3:2:0:0:
456,181,62857,1,8,3:2:0:0:
494,223,62936,1,8,0:2:0:0:
504,279,63015,1,8,3:2:0:0:
481,330,63095,6,0,B|313:422|313:226|139:331|139:331|228:300|296:372,1,522.5,6|0,3:2|3:2,0:0:0:0:
