osu file format v14

[General]
AudioFilename: audio.mp3
AudioLeadIn: 0
PreviewTime: 27805
Countdown: 0
SampleSet: Soft
StackLeniency: 0.4
Mode: 0
LetterboxInBreaks: 0
WidescreenStoryboard: 1

[Editor]
DistanceSpacing: 1.1
BeatDivisor: 4
GridSize: 4
TimelineZoom: 1.8

[Metadata]
Title:This Will Be the Day (feat. Casey Lee Williams) (TV Size)
TitleUnicode:This Will Be the Day (feat. Casey Lee Williams) (TV Size)
Artist:Jeff Williams
ArtistUnicode:Jeff Williams
Creator:browiec
Version:Nyantiaz's Hard
Source:RWBY
Tags:volume 1 opening theme short version nyantiaz red ruby white black yellow rose yang xiao long weiss schnee blake belladonna english rock
BeatmapID:2151202
BeatmapSetID:1028804

[Difficulty]
HPDrainRate:5
CircleSize:3.5
OverallDifficulty:6
ApproachRate:7.3
SliderMultiplier:1.5
SliderTickRate:1

[Events]
//Background and Video events
0,0,"nyantiaz bg blake fanboy F.png",0,0
//Break Periods
//Storyboard Layer 0 (Background)
//Storyboard Layer 1 (Fail)
//Storyboard Layer 2 (Pass)
//Storyboard Layer 3 (Foreground)
//Storyboard Layer 4 (Overlay)
//Storyboard Sound Samples

[TimingPoints]
95,315.789473684211,4,2,1,60,1,0
2621,-100,4,2,1,60,0,0
7673,-111.111111111111,4,2,1,50,0,0
17779,-100,4,2,1,65,0,0
27884,-222.222222222222,4,2,1,50,0,0
30095,-100,4,2,1,60,0,0
30410,-222.222222222222,4,2,1,50,0,0
32621,-111.111111111111,4,2,1,60,0,0
32779,-111.111111111111,4,2,1,65,0,0
37989,-95.2380952380952,4,2,1,70,0,0
63095,-200,4,2,1,70,0,0
63963,-200,4,2,1,50,0,0

[Colours]
Combo1 : 255,255,0
Combo2 : 242,0,0
Combo3 : 212,212,212
Combo4 : 63,63,63

[HitObjects]
76,278,2621,6,0,P|120:243|224:278,1,150,0|0,3:2|0:2,0:0:0:0:
271,310,3095,2,0,L|263:158,1,150,8|0,0:2|3:2,0:0:0:0:
284,80,3568,2,0,L|368:73,1,75,0|0,3:2|3:2,0:0:0:0:
423,21,3884,2,0,B|456:61|456:61|453:184,1,150,0|0,3:2|0:2,0:0:0:0:
383,203,4358,2,0,B|350:243|350:243|353:366,1,150,8|0,0:2|3:2,0:0:0:0:
274,368,4831,1,0,3:2:0:0:
274,368,4988,1,0,0:2:0:0:
196,339,5147,6,0,L|176:177,1,150,0|0,3:2|0:2,0:0:0:0:
111,140,5621,2,0,P|49:144|40:64,1,150,8|0,0:2|3:2,0:0:0:0:
102,22,6095,2,0,P|154:14|206:27,1,75,0|0,3:2|3:2,0:0:0:0:
246,59,6410,2,0,L|238:220,1,150,0|0,3:2|0:2,0:0:0:0:
157,228,6884,2,0,L|165:389,1,150,8|0,0:2|3:2,0:0:0:0:
244,357,7358,1,8,3:2:0:0:
244,357,7516,1,0,0:2:0:0:
325,371,7673,6,0,L|408:367,1,67.4999979400635,0|0,3:2|0:0,0:0:0:0:
456,329,7989,1,2,0:2:0:0:
456,329,8147,2,0,P|432:266|446:172,2,134.999995880127,10|2|2,0:2|3:2|3:2,0:0:0:0:
398,376,8937,1,2,3:2:0:0:
272,332,9252,2,0,P|263:286|270:241,1,67.4999979400635,2|8,3:2|0:2,0:0:0:0:
285,193,9568,2,0,P|238:216|143:190,1,134.999995880127,2|2,0:2|3:2,0:0:0:0:
55,95,10200,6,0,L|48:16,2,67.4999979400635,0|0|2,3:2|0:0|3:2,0:0:0:0:
83,163,10673,2,0,L|75:318,2,134.999995880127,10|2|2,0:2|3:2|3:2,0:0:0:0:
134,108,11463,1,2,3:2:0:0:
268,171,11779,2,0,L|343:167,1,67.4999979400635,2|8,3:2|0:2,0:0:0:0:
397,125,12095,2,0,L|406:267,1,134.999995880127,2|0,0:2|3:2,0:0:0:0:
273,328,12726,5,0,3:2:0:0:
140,260,13042,1,2,0:2:0:0:
195,211,13200,2,0,P|207:160|176:81,2,134.999995880127,10|2|2,0:2|3:2|3:2,0:0:0:0:
144,265,13989,1,2,3:2:0:0:
25,175,14305,2,0,L|19:98,1,67.4999979400635,2|8,3:2|0:2,0:0:0:0:
50,39,14621,2,0,L|194:46,1,134.999995880127,2|2,0:2|3:2,0:0:0:0:
332,29,15252,5,2,3:2:0:0:
298,95,15410,2,0,L|300:180,1,67.4999979400635,0|2,0:0|3:2,0:0:0:0:
356,210,15726,2,0,P|411:234|453:163,2,134.999995880127,10|0|2,0:2|3:2|3:2,0:0:0:0:
288,242,16516,1,0,3:2:0:0:
146,198,16831,1,0,3:0:0:0:
21,278,17147,1,2,0:2:0:0:
21,278,17779,6,0,P|47:220|21:108,1,150,4|10,3:2|0:2,0:0:0:0:
9,58,18252,2,0,B|102:30|63:101|187:66,1,150,2|0,3:2|3:2,0:0:0:0:
225,31,18726,1,10,0:2:0:0:
301,62,18884,1,2,3:2:0:0:
256,131,19042,2,0,L|261:210,1,75,2|0,3:2|3:2,0:0:0:0:
194,255,19358,2,0,P|150:262|108:255,1,75,10|0,0:2|3:2,0:0:0:0:
59,201,19673,2,0,P|39:248|92:340,1,150,2|10,0:2|0:2,0:0:0:0:
242,358,20305,6,0,B|299:344|299:344|393:359,1,150,0|10,3:2|0:2,0:0:0:0:
469,337,20779,2,0,L|461:179,1,150,2|0,3:2|3:2,0:0:0:0:
433,119,21252,1,10,0:2:0:0:
377,58,21409,1,2,3:2:0:0:
316,115,21568,2,0,P|307:151|310:192,1,75,2|0,3:2|3:2,0:0:0:0:
259,255,21884,2,0,P|190:283|129:236,2,150,10|2|8,0:2|0:2|0:2,0:0:0:0:
121,163,22831,6,0,P|72:190|70:293,1,150,4|10,3:2|0:2,0:0:0:0:
124,329,23305,2,0,L|282:321,1,150,2|2,3:2|3:2,0:0:0:0:
324,255,23779,1,8,0:2:0:0:
369,324,23937,1,2,3:2:0:0:
434,273,24095,2,0,L|516:269,1,75,2|0,3:2|3:2,0:0:0:0:
509,186,24410,2,0,P|513:144|501:103,1,75,10|0,0:2|3:2,0:0:0:0:
428,81,24726,2,0,P|378:107|293:67,1,150,2|10,0:2|0:2,0:0:0:0:
160,49,25358,5,2,3:2:0:0:
95,100,25516,2,0,L|100:182,1,75,2|8,3:2|0:2,0:0:0:0:
79,254,25831,2,0,P|120:254|182:160,2,150,2|2|2,3:2|3:2|3:2,0:0:0:0:
22,333,26621,1,8,0:2:0:0:
86,384,26779,1,10,0:2:0:0:
155,339,26937,2,0,L|262:345,1,75,8|10,0:2|0:2,0:0:0:0:
333,330,27252,1,8,0:2:0:0:
391,272,27410,1,10,0:2:0:0:
362,194,27568,1,8,0:2:0:0:
409,126,27726,1,8,0:2:0:0:
345,40,27884,6,0,B|232:15|282:89|149:76,1,202.499993820191,6|0,3:2|0:2,0:0:0:0:
81,22,29147,2,0,L|91:197,1,168.749994850159,2|0,0:2|0:2,0:0:0:0:
35,262,30095,2,0,L|26:221,3,37.5,8|8|8|8,0:2|0:2|0:2|0:2,0:0:0:0:
52,290,30410,6,0,P|109:321|219:256,1,202.499993820191,6|0,3:2|0:2,0:0:0:0:
263,187,31673,2,0,L|255:39,1,134.999995880127,2|0,0:2|0:0,0:0:0:0:
392,8,32621,1,8,0:2:0:0:
450,53,32779,6,0,L|447:204,1,134.999995880127,6|2,3:2|0:2,0:0:0:0:
381,221,33252,2,0,P|344:228|288:213,1,67.4999979400635,8|2,0:2|0:2,0:0:0:0:
256,176,33568,2,0,P|219:169|163:184,1,67.4999979400635,0|2,3:2|3:2,0:0:0:0:
136,225,33884,1,8,0:2:0:0:
66,198,34042,2,0,L|65:46,1,134.999995880127,2|2,3:2|3:2,0:0:0:0:
132,30,34516,2,0,L|214:28,1,67.4999979400635,8|2,0:2|0:2,0:0:0:0:
264,64,34831,1,0,3:2:0:0:
406,23,35147,1,8,0:2:0:0:
477,95,35305,6,0,L|482:241,1,134.999995880127,6|2,3:2|3:2,0:0:0:0:
405,249,35779,1,8,3:2:0:0:
335,223,35937,1,10,3:2:0:0:
267,253,36095,1,8,3:2:0:0:
223,312,36252,2,0,L|227:395,2,67.4999979400635,10|8|10,3:2|3:2|3:2,0:0:0:0:
162,267,36726,6,0,L|158:199,1,67.4999979400635,8|10,0:2|0:2,0:0:0:0:
103,148,37042,2,0,L|65:150,4,33.7499989700318,0|0|0|0|10,3:2|3:2|3:2|3:2|3:2,0:0:0:0:
159,99,37516,1,10,0:2:0:0:
222,137,37673,1,8,3:2:0:0:
238,139,37751,1,8,3:2:0:0:
255,137,37830,1,8,3:2:0:0:
271,132,37909,1,8,3:2:0:0:
286,123,37989,6,0,L|376:115,1,78.7499975967408,6|2,3:2|3:2,0:0:0:0:
456,161,38305,2,0,P|466:201|453:259,1,78.7499975967408,10|2,0:2|3:2,0:0:0:0:
376,281,38621,2,0,P|295:256|226:315,1,157.499995193482,2|10,3:2|0:2,0:0:0:0:
167,370,39095,2,0,P|127:378|59:358,1,78.7499975967408,2|0,3:2|3:2,0:0:0:0:
33,295,39410,1,2,3:2:0:0:
62,206,39567,1,8,0:2:0:0:
13,122,39726,2,0,B|59:139|59:139|183:126,1,157.499995193482,2|0,3:2|3:2,0:0:0:0:
248,88,40200,2,0,L|244:1,1,78.7499975967408,8|0,0:2|3:2,0:0:0:0:
383,17,40516,6,0,L|379:95,1,78.7499975967408,2|2,3:2|3:2,0:0:0:0:
365,191,40831,1,10,0:2:0:0:
455,145,40989,1,2,3:2:0:0:
505,229,41147,2,0,B|522:316|522:316|496:396,1,157.499995193482,2|10,3:2|0:2,0:0:0:0:
399,348,41621,2,0,L|315:356,1,78.7499975967408,2|0,3:2|3:2,0:0:0:0:
256,278,41937,2,0,L|172:270,1,78.7499975967408,2|8,3:2|0:2,0:0:0:0:
116,324,42252,2,0,P|97:282|148:192,1,157.499995193482,2|2,3:2|3:2,0:0:0:0:
177,270,42726,1,8,0:2:0:0:
253,174,42884,6,0,L|248:15,1,157.499995193482,6|0,3:2|3:2,0:0:0:0:
341,0,43358,2,0,P|382:-6|420:4,1,78.7499975967408,10|2,0:2|3:2,0:0:0:0:
471,82,43673,2,0,L|465:163,1,78.7499975967408,2|2,3:2|3:2,0:0:0:0:
372,204,43989,1,10,0:2:0:0:
430,288,44147,1,2,3:2:0:0:
335,288,44305,2,0,P|294:251|296:152,1,157.499995193482,2|8,3:2|0:2,0:0:0:0:
352,78,44779,2,0,B|263:55|302:130|171:100,1,157.499995193482,2|2,3:2|3:2,0:0:0:0:
119,80,45252,2,0,L|112:-5,1,78.7499975967408,8|0,0:2|3:2,0:0:0:0:
4,79,45568,5,0,0:2:0:0:
133,190,45884,2,0,L|126:275,1,78.7499975967408,10|2,0:2|3:2,0:0:0:0:
196,341,46200,2,0,P|252:351|295:342,1,78.7499975967408,2|2,3:2|3:2,0:0:0:0:
347,285,46516,1,10,0:2:0:0:
326,195,46673,1,2,3:2:0:0:
250,105,46831,6,0,P|289:129|386:91,1,157.499995193482,6|10,3:2|0:2,0:0:0:0:
470,54,47305,1,2,3:2:0:0:
497,136,47463,2,0,L|492:224,1,78.7499975967408,0|2,3:2|3:2,0:0:0:0:
425,270,47779,1,8,0:2:0:0:
425,270,47858,1,0,3:2:0:0:
425,270,47936,1,0,3:2:0:0:
299,242,48095,6,0,P|256:235|210:246,1,78.7499975967408,6|2,3:2|3:2,0:0:0:0:
186,333,48410,2,0,P|143:340|97:329,1,78.7499975967408,10|2,0:2|3:2,0:0:0:0:
32,267,48726,2,0,L|28:90,1,157.499995193482,2|10,3:2|0:2,0:0:0:0:
95,40,49200,2,0,L|177:38,1,78.7499975967408,2|0,3:2|3:2,0:0:0:0:
204,127,49516,2,0,L|286:129,1,78.7499975967408,2|8,3:2|0:2,0:0:0:0:
379,113,49831,2,0,L|370:275,1,157.499995193482,2|2,3:2|3:2,0:0:0:0:
286,321,50305,2,0,L|186:318,1,78.7499975967408,8|0,0:2|3:2,0:0:0:0:
92,264,50621,6,0,P|99:222|87:175,1,78.7499975967408,6|2,3:2|3:2,0:0:0:0:
55,102,50937,1,10,0:2:0:0:
132,45,51095,1,2,3:2:0:0:
198,110,51252,2,0,B|282:90|256:145|379:128,1,157.499995193482,2|10,3:2|0:2,0:0:0:0:
415,72,51726,2,0,P|437:121|379:219,1,157.499995193482,6|2,3:2|3:2,0:0:0:0:
325,261,52200,1,8,0:2:0:0:
385,322,52358,2,0,L|211:303,1,157.499995193482,2|2,3:2|3:2,0:0:0:0:
146,333,52831,1,8,0:2:0:0:
38,266,52989,6,0,P|16:184|56:106,1,157.499995193482,6|0,3:2|3:2,0:0:0:0:
140,147,53463,2,0,P|187:155|234:144,1,78.7499975967408,10|0,0:2|3:2,0:0:0:0:
306,131,53779,2,0,L|303:41,1,78.7499975967408,0|2,3:2|3:2,0:0:0:0:
383,0,54095,1,8,0:2:0:0:
457,67,54252,2,0,L|449:227,1,157.499995193482,6|0,3:2|3:2,0:0:0:0:
353,246,54726,2,0,L|265:248,1,78.7499975967408,8|0,0:2|3:2,0:0:0:0:
199,201,55042,1,0,3:2:0:0:
102,66,55358,2,0,L|106:150,1,78.7499975967408,8|2,0:2|3:2,0:0:0:0:
30,226,55673,6,0,L|40:397,1,157.499995193482,6|10,3:2|0:2,0:0:0:0:
130,351,56147,2,0,L|215:346,1,78.7499975967408,2|0,3:2|3:2,0:0:0:0:
285,291,56463,2,0,L|370:296,1,78.7499975967408,2|8,3:2|0:2,0:0:0:0:
442,245,56779,2,0,P|474:197|422:92,1,157.499995193482,6|0,3:2|3:2,0:0:0:0:
359,71,57252,2,0,P|312:72|265:62,1,78.7499975967408,8|0,0:2|3:2,0:0:0:0:
190,27,57568,1,0,3:2:0:0:
219,125,57726,1,0,3:2:0:0:
134,168,57884,2,0,L|138:267,1,78.7499975967408,8|6,0:2|3:2,0:0:0:0:
211,350,58200,6,0,P|264:367|360:320,1,157.499995193482,2|10,3:2|0:2,0:0:0:0:
387,241,58673,2,0,L|376:75,1,157.499995193482,2|2,3:2|3:2,0:0:0:0:
303,14,59147,1,8,0:2:0:0:
225,71,59305,2,0,B|177:103|177:103|65:94,1,157.499995193482,6|0,3:2|3:2,0:0:0:0:
95,193,59779,2,0,L|185:200,1,78.7499975967408,8|0,3:2|3:2,0:0:0:0:
243,266,60095,2,0,P|248:307|229:358,1,78.7499975967408,8|8,3:2|3:2,0:0:0:0:
321,384,60410,1,8,3:2:0:0:
394,331,60568,1,6,3:2:0:0:
511,377,60726,6,0,L|501:205,1,157.499995193482,2|10,3:2|0:2,0:0:0:0:
496,120,61200,2,0,P|437:111|358:177,1,157.499995193482,6|10,3:2|0:2,0:0:0:0:
298,233,61673,1,8,0:2:0:0:
260,154,61831,1,6,3:2:0:0:
183,194,61989,2,0,L|125:189,3,39.3749987983704,0|0|2|0,0:0|3:2|3:2|3:2,0:0:0:0:
131,148,62305,2,0,L|73:153,3,39.3749987983704,0|0|6|0,3:2|3:2|3:2|3:2,0:0:0:0:
59,125,62621,1,8,3:2:0:0:
57,106,62699,1,8,3:2:0:0:
57,86,62778,1,10,3:2:0:0:
131,40,62937,1,8,0:2:0:0:
238,70,63095,6,0,B|377:45|300:102|442:85,1,206.25,6|0,3:2|3:2,0:0:0:0:
