osu file format v14

[General]
AudioFilename: audio.mp3
AudioLeadIn: 0
PreviewTime: 723382
Countdown: 0
SampleSet: None
StackLeniency: 0.4
Mode: 0
LetterboxInBreaks: 0
EpilepsyWarning: 1
WidescreenStoryboard: 1

[Editor]
Bookmarks: 183188,392990,577240
DistanceSpacing: 1
BeatDivisor: 4
GridSize: 32
TimelineZoom: 1.8

[Metadata]
Title:Songs Compilation
TitleUnicode:Songs Compilation
Artist:Jeff Williams
ArtistUnicode:Jeff Williams
Creator:Goldenux
Version:Scattered Petals
Source:RWBY
Tags:rooster teeth casey lee ruby rose yang blake weiss marathon this will be the day die time to say goodbye red like roses guitar
BeatmapID:2735903
BeatmapSetID:1320674

[Difficulty]
HPDrainRate:5
CircleSize:4
OverallDifficulty:9.7
ApproachRate:9.6
SliderMultiplier:1.7
SliderTickRate:1

[Events]
//Background and Video events
0,0,"RubyRose.jpg",0,0
//Break Periods
2,182052,191493
2,322177,330282
2,375229,391190
2,571636,576731
//Storyboard Layer 0 (Background)
//Storyboard Layer 1 (Fail)
//Storyboard Layer 2 (Pass)
//Storyboard Layer 3 (Foreground)
//Storyboard Layer 4 (Overlay)
//Storyboard Sound Samples

[TimingPoints]
105,315.789473684211,4,2,1,50,1,0
105,-133.333333333333,4,2,2,50,0,0
2631,-111.111111111111,4,2,1,70,0,0
7526,-117.647058823529,4,2,1,70,0,0
7999,-117.647058823529,4,2,2,60,0,0
17631,-100,4,2,2,5,0,0
17789,-100,4,2,1,70,0,0
27894,315.789473684211,4,2,1,70,1,0
27894,-200,4,2,2,50,0,0
32630,-100,4,2,1,70,0,0
37999,-80,4,2,1,85,0,1
62078,-71.4285714285714,4,2,1,85,0,1
62472,-76.9230769230769,4,2,1,85,0,1
62946,-66.6666666666667,4,2,1,85,0,1
63104,-125,4,2,1,70,0,0
63894,-100,4,2,1,5,0,0
65630,-100,4,2,1,5,0,0
65788,-100,4,2,1,70,0,0
88525,322.58064516129,4,2,1,50,1,0
88525,-200,4,2,2,50,0,0
93432,315.789473684211,4,2,1,70,1,0
93432,-90.9090909090909,4,2,1,70,0,0
93589,315.789473684211,4,2,1,70,1,0
98641,-83.3333333333333,4,2,1,70,0,0
100378,-100,4,2,1,70,0,0
102273,-83.3333333333333,4,2,1,70,0,0
102904,-90.9090909090909,4,2,1,70,0,0
103536,-100,4,2,1,70,0,0
104010,-100,4,2,1,70,0,0
111746,-86.9565217391304,4,2,1,70,0,0
112378,-100,4,2,1,70,0,0
116641,-83.3333333333333,4,2,1,70,0,0
117589,-90.9090909090909,4,2,1,70,0,0
119957,-83.3333333333333,4,2,1,70,0,0
121220,-100,4,2,1,70,0,0
121852,-90.9090909090909,4,2,1,70,0,0
122483,-83.3333333333333,4,2,1,70,0,0
123115,-100,4,2,1,70,0,0
123746,-125,4,2,1,70,0,0
124378,-100,4,2,1,5,0,0
126431,-133.333333333333,4,2,2,40,0,0
128957,-125,4,2,2,45,0,0
151694,-100,4,2,1,60,0,0
154220,-76.9230769230769,4,2,1,85,0,1
178378,-83.3333333333333,4,2,1,85,0,1
178694,-76.9230769230769,4,2,1,85,0,1
179010,-71.4285714285714,4,2,1,85,0,1
179325,-100,4,2,1,70,0,0
180115,-100,4,2,1,5,0,0
183188,315.789473684211,4,2,1,70,1,0
193293,-100,4,2,1,70,0,0
202135,-100,4,2,1,70,0,0
203398,-90.9090909090909,4,2,1,70,0,0
205924,-125,4,2,1,70,0,0
206556,-83.3333333333333,4,2,1,70,0,0
207188,-90.9090909090909,4,2,1,70,0,0
216661,-125,4,2,1,70,0,0
217135,-100,4,2,1,70,0,0
226609,-83.3333333333333,4,2,1,70,0,0
227714,-90.9090909090909,4,2,1,70,0,0
235766,-100,4,2,1,70,0,0
237345,-83.3333333333333,4,2,1,85,0,0
238845,-90.9090909090909,4,2,1,85,0,0
239556,-83.3333333333333,4,2,1,85,0,0
241293,-90.9090909090909,4,2,1,85,0,0
246345,-81.9672131147541,4,2,1,85,0,0
246977,-71.4285714285714,4,2,1,85,0,0
247451,-100,4,2,1,100,0,1
255188,-100,4,2,1,70,0,0
255819,-100,4,2,1,68,0,0
256451,-100,4,2,1,66,0,0
257082,-100,4,2,1,64,0,0
267819,-100,4,2,1,70,0,0
276661,-100,4,2,1,70,0,0
277924,-90.9090909090909,4,2,1,70,0,0
280451,-125,4,2,1,70,0,0
281082,-83.3333333333333,4,2,1,70,0,0
281714,-90.9090909090909,4,2,1,70,0,0
291188,-125,4,2,1,70,0,0
291661,-100,4,2,1,70,0,0
300503,-125,4,2,1,70,0,0
300977,-76.9230769230769,4,2,1,70,0,0
301451,-71.4285714285714,4,2,1,70,0,0
301766,-76.9230769230769,4,2,1,80,0,0
305714,-90.9090909090909,4,2,1,80,0,0
306503,-76.9230769230769,4,2,1,80,0,0
308240,-83.3333333333333,4,2,1,80,0,0
309030,-76.9230769230769,4,2,1,80,0,0
309503,-100,4,2,1,80,0,0
312503,-90.9090909090909,4,2,1,80,0,0
314398,-111.111111111111,4,2,1,80,0,0
314714,-76.9230769230769,4,2,1,80,0,0
318345,-74.0740740740741,4,2,1,80,0,0
319609,-68.9655172413793,4,2,1,90,0,0
320240,-64.5161290322581,4,2,1,95,0,0
320872,-60.6060606060606,4,2,1,100,0,0
332082,-100,4,2,1,60,0,0
339661,-90.9090909090909,4,2,1,70,0,0
342188,-83.3333333333333,4,2,1,80,0,0
347240,-90.9090909090909,4,2,1,70,0,0
354819,-83.3333333333333,4,2,1,85,0,0
356240,-90.9090909090909,4,2,1,85,0,0
357819,-83.3333333333333,4,2,1,85,0,0
358766,-90.9090909090909,4,2,1,85,0,0
359556,-83.3333333333333,4,2,1,85,0,0
363819,-76.9230769230769,4,2,1,85,0,0
364451,-71.4285714285714,4,2,1,85,0,0
364924,-100,4,2,1,100,0,1
372503,-100,4,2,1,75,0,0
392990,240,4,2,1,70,1,0
393830,-100,4,2,1,75,0,0
407270,-90.9090909090909,4,2,1,85,0,0
411110,-83.3333333333333,5,2,1,100,0,1
426470,-100,5,2,1,80,0,0
443870,-125,5,2,1,75,0,0
444350,-142.857142857143,5,2,1,70,0,0
444830,-166.666666666667,5,2,1,70,0,0
445310,-200,5,2,1,70,0,0
445630,-100,5,2,1,75,0,0
452030,-90.9090909090909,5,2,1,75,0,0
452270,-83.3333333333333,5,2,1,75,0,0
452510,-76.9230769230769,5,2,1,75,0,0
453350,-100,5,2,1,75,0,0
474470,-90.9090909090909,5,2,1,85,0,0
476510,-133.333333333333,5,2,1,90,0,0
477470,-200,5,2,1,90,0,0
478310,-83.3333333333333,5,2,1,100,0,1
491750,-200,5,2,1,70,0,0
492710,-100,5,2,1,5,0,0
493670,-100,5,2,1,5,0,0
493916,521.739130434783,4,2,2,50,1,0
493916,-111.111111111111,4,2,2,40,0,0
510611,-100,4,2,2,50,0,0
516872,-133.333333333333,4,2,2,50,0,0
518698,-100,4,2,2,50,0,0
523133,560.747663551402,4,2,2,45,1,0
523133,-125,4,2,2,45,0,0
526497,588.235294117647,4,2,2,45,1,0
526497,-125,4,2,2,45,0,0
527673,594.059405940594,4,2,2,40,1,0
527673,-142.857142857143,4,2,2,40,0,0
528861,681.818181818182,4,2,2,38,1,0
528861,-166.666666666667,4,2,2,38,0,0
530224,750,4,2,2,36,1,0
530224,-200,4,2,2,36,0,0
530974,681.818181818182,4,2,2,36,1,0
531655,705.882352941176,4,2,2,34,1,0
531655,-250,4,2,2,34,0,0
532360,681.818181818182,4,2,2,34,1,0
533041,1153.84615384615,4,2,2,32,1,0
533041,-333.333333333333,4,2,2,32,0,0
534194,-100,4,2,2,5,0,0
534956,240,4,2,1,70,1,0
536996,240,4,2,1,80,1,0
537956,-83.3333333333333,4,2,1,80,0,0
538796,-90.9090909090909,4,2,1,80,0,0
554156,-125,4,2,1,80,0,0
554756,-100,4,2,1,85,0,0
555236,-100,4,2,1,90,0,0
555716,-200,4,2,1,90,0,0
556076,-83.3333333333333,4,2,1,100,0,1
569516,-133.333333333333,4,2,1,90,0,0
577240,285.714285714286,4,2,1,70,1,0
577382,285.714285714286,4,2,1,70,1,0
595525,-90.9090909090909,4,2,1,85,0,0
632096,-83.3333333333333,4,2,1,90,0,0
641239,-71.4285714285714,4,2,1,100,0,1
659524,-105.263157894737,4,2,1,70,0,0
661525,-133.333333333333,4,2,1,70,0,0
661811,-86.9565217391304,4,2,1,70,0,0
662097,-105.263157894737,4,2,1,70,0,0
663811,-133.333333333333,4,2,1,70,0,0
664097,-86.9565217391304,4,2,1,70,0,0
664382,-105.263157894737,4,2,1,70,0,0
666097,-133.333333333333,4,2,1,70,0,0
666382,-86.9565217391304,4,2,1,70,0,0
666811,-105.263157894737,4,2,1,70,0,0
668954,-100,4,2,1,75,0,0
670954,-83.3333333333333,4,2,1,75,0,0
671240,-100,4,2,1,75,0,0
673240,-83.3333333333333,4,2,1,75,0,0
673525,-100,4,2,1,75,0,0
675811,-95.2380952380952,4,2,1,75,0,0
677811,-90.9090909090909,4,2,1,85,0,0
702954,-133.333333333333,4,2,1,85,0,0
705240,-90.9090909090909,4,2,1,80,0,0
714382,-83.3333333333333,4,2,1,90,0,0
723524,-71.4285714285714,4,2,1,100,0,1
741810,-86.9565217391304,4,2,1,90,0,0
757596,-86.9565217391304,4,2,1,5,0,0
757667,-86.9565217391304,4,2,1,90,0,0
769239,-100,4,2,1,80,0,0
770097,-83.3333333333333,4,2,1,80,0,0
776097,-117.647058823529,4,2,1,80,0,0
778382,-83.3333333333333,4,2,1,80,0,0
787524,-83.3333333333333,4,2,1,90,0,0
796667,-68.9655172413793,4,2,1,100,0,1
813810,-86.9565217391304,4,2,1,85,0,0
814096,-86.9565217391304,4,2,1,70,0,0
814953,-86.9565217391304,4,2,1,70,0,0
816097,-125,4,2,1,60,0,0
816667,-125,4,2,1,5,0,0

[Colours]
Combo1 : 115,115,115
Combo2 : 255,0,0
Combo3 : 227,232,236
Combo4 : 255,106,106
Combo5 : 0,210,210
Combo6 : 176,0,88

[HitObjects]
127,301,105,5,0,0:0:0:0:
199,213,262,1,0,0:0:0:0:
257,312,420,1,0,0:0:0:0:
199,213,578,2,0,P|145:221|75:181,1,127.500004863739,8|0,0:0|0:0,0:0:0:0:
161,77,1052,2,0,L|152:149,1,63.7500024318696,0|0,0:0|0:0,0:0:0:0:
266,162,1368,5,0,0:0:0:0:
279,65,1526,1,0,0:0:0:0:
363,175,1683,1,0,0:0:0:0:
376,78,1841,2,0,L|509:91,1,127.500004863739,8|0,0:0|0:0,0:0:0:0:
363,175,2315,2,0,L|284:167,1,63.7500024318696,0|0,0:0|0:0,0:0:0:0:
488,354,2631,5,0,0:0:0:0:
432,192,2789,1,0,0:0:0:0:
306,311,2947,1,0,0:0:0:0:
512,175,3105,2,0,P|476:120|374:129,1,152.999995330811,8|0,0:0|0:0,0:0:0:0:
284,186,3578,1,0,0:0:0:0:
284,186,3736,1,0,0:0:0:0:
361,288,3894,5,0,0:0:0:0:
144,244,4052,1,0,0:0:0:0:
359,156,4210,1,0,0:0:0:0:
125,253,4368,2,0,B|130:200|130:200|116:143|116:143|121:93,1,152.999995330811,8|0,0:0|0:0,0:0:0:0:
138,2,4841,1,0,0:0:0:0:
138,2,4999,1,0,0:0:0:0:
221,126,5157,5,0,0:0:0:0:
42,208,5315,1,0,0:0:0:0:
229,257,5473,1,0,0:0:0:0:
18,199,5631,2,0,L|4:351,1,152.999995330811,8|0,0:0|0:0,0:0:0:0:
210,303,6105,2,0,L|216:226,1,76.4999976654053,0|0,0:0|0:0,0:0:0:0:
386,256,6420,5,0,0:0:0:0:
227,115,6578,1,0,0:0:0:0:
404,149,6736,1,0,0:0:0:0:
215,226,6894,2,0,P|260:232|310:198,1,76.4999976654053,8|0,0:0|0:0,0:0:0:0:
359,57,7210,5,0,0:0:0:0:
359,57,7289,1,0,0:0:0:0:
359,57,7368,1,0,0:0:0:0:
444,235,7526,1,0,0:0:0:0:
444,235,7683,2,0,L|441:139,1,72.2500013780594
313,92,7999,5,0,0:0:0:0:
313,92,8157,2,0,P|361:99|407:122,1,72.2500013780594,8|0,0:0|0:0,0:0:0:0:
512,255,8473,2,0,P|463:247|417:224,1,72.2500013780594
327,201,8789,1,0,0:0:0:0:
201,354,8947,6,0,P|223:324|229:288,1,72.2500013780594,0|0,0:0|0:0,0:0:0:0:
252,179,9262,2,0,P|215:174|181:187,1,72.2500013780594,0|8,0:0|0:0,0:0:0:0:
76,222,9578,2,0,P|90:256|118:278,1,72.2500013780594,0|0,0:0|0:0,0:0:0:0:
201,354,9894,2,0,P|129:378|44:356,1,144.500002756119,0|0,0:0|0:0,0:0:0:0:
54,125,10526,5,0,0:0:0:0:
54,125,10683,2,0,P|104:111|155:123,1,72.2500013780594,8|0,0:0|0:0,0:0:0:0:
188,204,10999,2,0,P|223:204|257:191,1,72.2500013780594
350,66,11315,1,0,0:0:0:0:
451,223,11473,6,0,L|443:123,1,72.2500013780594,0|0,0:0|0:0,0:0:0:0:
307,271,11789,2,0,L|315:171,1,72.2500013780594,0|8,0:0|0:0,0:0:0:0:
503,357,12105,2,0,B|437:301|370:340|370:340|292:384|237:331,1,289.000005512238,0|0,0:0|0:0,0:0:0:0:
203,221,13052,5,0,0:0:0:0:
203,221,13210,2,0,P|154:221|102:203,1,72.2500013780594,8|0,0:0|0:0,0:0:0:0:
65,107,13526,2,0,P|64:58|82:6,1,72.2500013780594,0|0,0:0|0:0,0:0:0:0:
6,181,13841,1,0,0:0:0:0:
6,181,13999,6,0,P|3:220|30:272,1,72.2500013780594,0|0,0:0|0:0,0:0:0:0:
90,365,14315,2,0,P|129:368|181:341,1,72.2500013780594,0|8,0:0|0:0,0:0:0:0:
192,249,14631,2,0,P|226:238|261:241,1,72.2500013780594,0|0,0:0|0:0,0:0:0:0:
313,344,14947,2,0,P|348:347|382:336,1,72.2500013780594,0|0,0:0|0:0,0:0:0:0:
379,126,15262,6,0,B|382:161|382:161|370:195,1,72.2500013780594
313,344,15578,1,0,0:0:0:0:
313,344,15736,2,0,B|347:354|347:354|460:341,1,144.500002756119,8|0,0:0|0:0,0:0:0:0:
454,231,16210,1,0,0:0:0:0:
454,231,16368,2,0,L|450:132,1,72.2500013780594,0|0,0:0|0:0,0:0:0:0:
321,76,16683,2,0,L|319:149,2,72.2500013780594,0|0|0,0:0|0:0|0:0,0:0:0:0:
283,232,17157,2,0,B|355:251|384:209|384:209|447:174|500:220,1,216.750004134178
53,342,17789,6,0,L|61:243,1,85,4|0,0:0|0:0,0:0:0:0:
318,148,18105,1,8,0:0:0:0:
339,288,18262,2,0,P|235:271|188:189,1,170
456,227,18736,5,8,0:0:0:0:
347,384,18894,1,0,0:0:0:0:
294,195,19052,2,0,P|344:184|398:203,1,85
155,371,19368,2,0,P|105:382|51:363,1,85,8|0,0:0|0:0,0:0:0:0:
337,267,19683,2,0,P|348:317|329:371,1,85
131,154,19999,2,0,P|120:104|139:50,1,85,8|0,0:0|0:0,0:0:0:0:
410,167,20315,5,0,0:0:0:0:
205,109,20473,1,0,0:0:0:0:
424,172,20631,1,8,0:0:0:0:
265,368,20789,2,0,B|271:309|271:309|252:243|252:243|256:182,1,170
244,58,21262,5,8,0:0:0:0:
168,211,21420,1,0,0:0:0:0:
362,218,21578,2,0,P|366:161|345:123,1,85
168,211,21894,2,0,P|163:267|184:305,1,85,8|0,0:0|0:0,0:0:0:0:
439,117,22210,5,0,0:0:0:0:
247,219,22368,1,0,0:0:0:0:
434,266,22526,1,8,0:0:0:0:
285,93,22683,1,0,0:0:0:0:
330,384,22841,6,0,B|322:351|322:351|340:322|340:322|309:270|335:212,1,170,4|8,0:0|0:0,0:0:0:0:
283,47,23315,2,0,P|324:39|362:56,1,85
497,278,23631,2,0,P|455:286|417:269,1,85,0|8,0:0|0:0,0:0:0:0:
316,117,23947,1,0,0:0:0:0:
155,233,24105,6,0,L|144:149,1,85
182,47,24420,2,0,P|140:33|97:43,1,85,8|0,0:0|0:0,0:0:0:0:
328,23,24736,2,0,L|339:107,1,85
300,213,25051,2,0,P|342:227|384:216,1,85,8|0,0:0|0:0,0:0:0:0:
508,11,25368,5,0,0:0:0:0:
495,240,25526,2,0,B|483:191|483:191|495:152,1,85,0|8,0:0|0:0,0:0:0:0:
348,369,25841,2,0,B|359:322|359:322|346:279,1,85
112,200,26157,5,0,0:0:0:0:
234,196,26315,1,8,0:0:0:0:
164,100,26473,1,0,0:0:0:0:
177,333,26631,5,8,0:0:0:0:
285,48,26789,1,8,0:0:0:0:
458,212,26947,1,8,0:0:0:0:
172,166,27105,1,8,0:0:0:0:
442,354,27262,1,8,0:0:0:0:
187,169,27420,1,8,0:0:0:0:
475,217,27578,1,8,0:0:0:0:
199,336,27736,1,8,0:0:0:0:
396,52,27894,6,0,B|320:81|261:33|261:33|185:-25|110:39,1,297.5,4|0,0:0|0:0,0:0:0:0:
37,59,29157,2,0,B|67:112|128:125|185:83|185:83|224:99,1,212.5,0|0,0:0|0:0,0:0:0:0:
304,66,30104,5,0,0:0:0:0:
304,66,30183,1,0,0:0:0:0:
304,66,30262,1,0,0:0:0:0:
304,66,30341,1,0,0:0:0:0:
304,66,30420,2,0,B|320:131|265:171|265:171|304:176|332:204|332:204|284:245|295:294,1,297.5,4|0,0:0|0:0,0:0:0:0:
345,351,31683,2,0,B|302:400|195:358|213:254,1,212.5,0|0,0:0|0:0,0:0:0:0:
237,179,32630,6,0,L|176:181,1,42.5,0|0,0:0|0:0,0:0:0:0:
26,261,32788,2,0,P|85:198|46:103,1,170,4|0,0:0|0:0,0:0:0:0:
185,17,33262,1,8,0:0:0:0:
2,180,33420,6,0,L|98:192,1,85,0|0,0:0|0:0,0:0:0:0:
273,74,33736,2,0,L|214:151,1,85,0|8,0:0|0:0,0:0:0:0:
42,315,34051,2,0,L|138:327,1,85,0|0,0:0|0:0,0:0:0:0:
313,209,34367,2,0,L|254:286,1,85,0|8,0:0|0:0,0:0:0:0:
267,384,34683,5,0,0:0:0:0:
184,162,34841,1,0,0:0:0:0:
399,263,34999,1,0,0:0:0:0:
150,322,35157,1,8,0:0:0:0:
348,77,35315,6,0,B|306:102|307:142|307:142|309:195|270:225,1,170,12|8,0:0|0:0,0:0:0:0:
202,41,35788,1,8,0:0:0:0:
45,163,35946,1,8,0:0:0:0:
228,160,36104,1,8,0:0:0:0:
72,43,36262,1,8,0:0:0:0:
138,240,36420,1,8,0:0:0:0:
227,21,36578,1,8,0:0:0:0:
265,301,36736,1,8,0:0:0:0:
140,129,36894,1,8,0:0:0:0:
140,384,37051,5,0,0:0:0:0:
125,337,37130,1,0,0:0:0:0:
124,286,37209,1,0,0:0:0:0:
139,238,37288,1,0,0:0:0:0:
168,197,37367,2,0,L|263:194,1,85,8|8,0:0|0:0,0:0:0:0:
473,169,37683,6,0,L|467:121,1,42.5,8|0,0:0|0:0,0:0:0:0:
484,297,37841,1,8,0:0:0:0:
431,297,37920,1,8,0:0:0:0:
378,299,37999,2,0,L|271:302,1,106.25,12|0,0:0|0:0,0:0:0:0:
27,307,38315,1,8,0:0:0:0:
115,106,38472,5,0,0:0:0:0:
179,340,38630,2,0,P|205:243|330:224,1,212.5,0|8,0:0|0:0,0:0:0:0:
435,93,39104,2,0,P|370:92|313:62,1,106.25
271,301,39420,1,0,0:0:0:0:
392,13,39578,1,8,0:0:0:0:
476,358,39736,2,0,B|483:290|483:290|444:225|444:225|448:139,1,212.5
273,296,40209,1,8,0:0:0:0:
126,96,40367,5,0,0:0:0:0:
126,96,40446,1,0,0:0:0:0:
126,96,40525,1,0,0:0:0:0:
332,197,40683,1,0,0:0:0:0:
165,286,40841,1,8,0:0:0:0:
395,114,40999,1,0,0:0:0:0:
248,344,41157,2,0,B|274:291|253:246|253:246|230:189|258:138,1,212.5,0|8,0:0|0:0,0:0:0:0:
511,226,41630,6,0,L|401:216,1,106.25
212,42,41946,2,0,L|258:142,1,106.25,0|8,0:0|0:0,0:0:0:0:
202,379,42262,2,0,L|265:288,1,106.25
312,216,42578,1,0,0:0:0:0:
105,329,42736,1,8,0:0:0:0:
104,147,42894,6,0,P|151:238|105:330,1,212.5,4|0,0:0|0:0,0:0:0:0:
52,238,43367,1,8,0:0:0:0:
300,322,43525,1,0,0:0:0:0:
142,68,43683,1,0,0:0:0:0:
105,370,43841,1,0,0:0:0:0:
322,154,43999,1,8,0:0:0:0:
52,238,44157,1,0,0:0:0:0:
300,322,44315,6,0,P|303:268|260:215,1,106.25
218,40,44630,1,8,0:0:0:0:
130,260,44788,2,0,P|175:289|242:278,1,106.25
268,143,45104,2,0,P|219:167|195:231,1,106.25,0|8,0:0|0:0,0:0:0:0:
377,304,45420,1,0,0:0:0:0:
155,329,45578,1,0,0:0:0:0:
155,329,45894,5,8,0:0:0:0:
198,90,46051,1,0,0:0:0:0:
391,269,46209,1,0,0:0:0:0:
59,176,46367,1,0,0:0:0:0:
349,56,46525,1,8,0:0:0:0:
280,377,46683,1,0,0:0:0:0:
158,27,46841,6,0,B|198:83|198:83|200:155|200:155|252:240,1,212.5,4|8,0:0|0:0,0:0:0:0:
408,124,47315,1,0,0:0:0:0:
104,119,47472,1,0,0:0:0:0:
262,2,47630,1,0,0:0:0:0:
286,286,47788,1,8,0:0:0:0:
261,243,47867,1,0,0:0:0:0:
250,196,47946,1,0,0:0:0:0:
253,147,48025,1,0,0:0:0:0:
271,102,48104,2,0,L|389:98,1,106.25,4|0,0:0|0:0,0:0:0:0:
98,276,48420,5,8,0:0:0:0:
364,197,48578,1,0,0:0:0:0:
199,149,48736,2,0,P|183:98|201:49,1,106.25
504,90,49051,1,8,0:0:0:0:
194,255,49209,6,0,L|200:104,1,106.25
396,347,49525,2,0,L|391:239,1,106.25,0|8,0:0|0:0,0:0:0:0:
149,331,49841,1,0,0:0:0:0:
297,63,49999,1,0,0:0:0:0:
477,296,50157,1,0,0:0:0:0:
291,221,50315,1,8,0:0:0:0:
449,93,50472,5,0,0:0:0:0:
449,93,50551,1,0,0:0:0:0:
449,93,50630,1,4,0:0:0:0:
176,77,50788,1,0,0:0:0:0:
378,248,50946,1,8,0:0:0:0:
334,0,51104,1,0,0:0:0:0:
195,240,51262,6,0,P|118:235|65:200,1,106.25
76,75,51578,1,8,0:0:0:0:
442,123,51736,2,0,P|463:205|397:314,1,212.5,4|0,0:0|0:0,0:0:0:0:
230,5,52209,1,8,0:0:0:0:
230,5,52367,2,0,P|216:60|230:131,1,106.25
229,346,52683,2,0,P|243:291|229:219,1,106.25,0|8,0:0|0:0,0:0:0:0:
512,59,52999,6,0,B|459:44|409:63|409:63|355:87|296:58,1,212.5,4|0,0:0|0:0,0:0:0:0:
478,256,53472,2,0,P|486:176|433:238,1,212.5,8|0,0:0|0:0,0:0:0:0:
250,348,53946,6,0,L|244:224,1,106.25,0|8,0:0|0:0,0:0:0:0:
120,27,54262,2,0,L|110:243,1,212.5,4|0,0:0|0:0,0:0:0:0:
432,206,54736,1,8,0:0:0:0:
184,235,54894,1,0,0:0:0:0:
403,124,55051,1,0,0:0:0:0:
264,328,55209,1,0,0:0:0:0:
360,33,55367,1,8,0:0:0:0:
250,241,55525,5,0,0:0:0:0:
250,241,55604,1,0,0:0:0:0:
250,241,55683,2,0,B|172:233|172:233|99:253|99:253|41:244,1,212.5,4|8,0:0|0:0,0:0:0:0:
213,109,56157,2,0,L|330:120,1,106.25
284,363,56472,2,0,L|174:351,1,106.25,0|8,0:0|0:0,0:0:0:0:
419,9,56788,2,0,P|446:106|381:222,1,212.5,4|0,0:0|0:0,0:0:0:0:
141,103,57262,5,8,0:0:0:0:
89,259,57420,1,0,0:0:0:0:
277,147,57578,1,0,0:0:0:0:
260,357,57736,1,0,0:0:0:0:
416,126,57894,1,8,0:0:0:0:
500,309,58051,5,4,0:0:0:0:
500,309,58130,1,0,0:0:0:0:
500,309,58209,2,0,P|406:368|334:319,1,195.500003728867,0|8,0:0|0:0,0:0:0:0:
114,153,58683,2,0,P|161:140|243:152,1,106.25
342,332,58999,2,0,P|295:345|213:333,1,106.25,0|8,0:0|0:0,0:0:0:0:
67,374,59315,2,0,P|150:328|162:210,1,212.5,4|0,0:0|0:0,0:0:0:0:
238,128,59788,5,8,0:0:0:0:
66,273,59946,1,0,0:0:0:0:
366,239,60104,1,0,0:0:0:0:
219,379,60262,1,0,0:0:0:0:
106,142,60420,1,8,0:0:0:0:
346,380,60578,5,4,0:0:0:0:
337,139,60736,1,8,0:0:0:0:
206,276,60894,1,8,0:0:0:0:
467,278,61051,1,8,0:0:0:0:
307,7,61209,5,4,0:0:0:0:
304,228,61367,1,8,0:0:0:0:
166,88,61525,1,8,0:0:0:0:
437,94,61683,1,8,0:0:0:0:
363,307,61841,6,0,P|297:322|238:309,1,106.25,4|0,0:0|0:0,0:0:0:0:
198,307,62078,1,8,0:0:0:0:
138,291,62157,1,8,0:0:0:0:
96,245,62236,1,8,0:0:0:0:
86,184,62315,1,8,0:0:0:0:
113,128,62394,1,8,0:0:0:0:
164,95,62472,5,8,0:0:0:0:
215,120,62551,1,8,0:0:0:0:
272,128,62630,1,8,0:0:0:0:
328,113,62709,1,8,0:0:0:0:
380,90,62788,1,8,0:0:0:0:
438,88,62867,1,0,0:0:0:0:
492,109,62946,5,8,0:0:0:0:
491,176,63025,1,0,0:0:0:0:
485,244,63104,6,0,B|411:178|333:219|333:219|252:267|175:194,1,340,10|0,0:0|0:0,0:0:0:0:
256,192,63972,12,0,65630,0:0:0:0:
130,286,65788,5,8,0:0:0:0:
314,181,65946,1,0,0:0:0:0:
124,91,66104,1,0,0:0:0:0:
304,351,66262,2,0,L|315:169,1,170,8|0,0:0|0:0,0:0:0:0:
435,291,66736,1,8,0:0:0:0:
198,204,66894,1,0,0:0:0:0:
448,117,67051,5,8,0:0:0:0:
429,154,67130,1,0,0:0:0:0:
396,180,67209,1,8,0:0:0:0:
355,190,67288,1,0,0:0:0:0:
314,179,67367,5,0,0:0:0:0:
272,169,67446,1,0,0:0:0:0:
231,178,67525,1,0,0:0:0:0:
198,204,67604,1,0,0:0:0:0:
180,242,67683,5,8,0:0:0:0:
166,282,67762,1,0,0:0:0:0:
136,312,67841,1,0,0:0:0:0:
97,327,67920,1,0,0:0:0:0:
55,324,67999,1,0,0:0:0:0:
18,304,68078,1,0,0:0:0:0:
0,270,68157,1,0,0:0:0:0:
0,228,68236,1,0,0:0:0:0:
0,187,68315,2,0,B|4:50|4:50|47:86,1,170,4|8,0:0|0:0,0:0:0:0:
238,119,68788,6,0,L|125:110,1,85
239,280,69104,2,0,L|329:273,1,85,0|8,0:0|0:0,0:0:0:0:
461,139,69420,1,0,0:0:0:0:
406,320,69578,6,0,P|418:280|409:239,1,85
361,98,69894,2,0,P|320:106|289:135,1,85,8|0,0:0|0:0,0:0:0:0:
194,233,70209,2,0,P|222:263|262:276,1,85
357,173,70525,1,8,0:0:0:0:
145,148,70683,1,0,0:0:0:0:
347,279,70841,2,0,L|232:274,1,85
79,312,71157,5,8,0:0:0:0:
86,82,71315,2,0,P|68:130|83:183,1,85,0|0,0:0|0:0,0:0:0:0:
293,186,71630,2,0,P|311:138|296:85,1,85,0|8,0:0|0:0,0:0:0:0:
195,15,71946,1,0,0:0:0:0:
180,232,72104,6,0,L|186:136,1,85,0|0,0:0|0:0,0:0:0:0:
379,301,72420,2,0,L|385:217,1,85,8|0,0:0|0:0,0:0:0:0:
200,369,72736,2,0,L|381:380,1,170,0|8,0:0|0:0,0:0:0:0:
385,217,73209,5,0,0:0:0:0:
385,217,73288,1,0,0:0:0:0:
385,217,73367,2,0,L|289:211,1,85,4|0,0:0|0:0,0:0:0:0:
434,53,73683,1,8,0:0:0:0:
237,257,73841,6,0,P|222:209|235:166,1,85,0|0,0:0|0:0,0:0:0:0:
434,53,74157,2,0,P|449:101|436:144,1,85,0|8,0:0|0:0,0:0:0:0:
303,135,74472,1,0,0:0:0:0:
110,163,74630,2,0,L|222:153,1,85,0|0,0:0|0:0,0:0:0:0:
404,278,74946,2,0,L|319:270,1,85,8|0,0:0|0:0,0:0:0:0:
295,50,75262,2,0,L|305:162,1,85,0|0,0:0|0:0,0:0:0:0:
170,340,75578,2,0,L|177:255,1,85,8|0,0:0|0:0,0:0:0:0:
376,180,75894,5,0,0:0:0:0:
337,311,76051,2,0,P|376:322|434:307,1,85,0|8,0:0|0:0,0:0:0:0:
425,67,76367,2,0,P|379:56|327:70,1,85
208,186,76683,1,0,0:0:0:0:
374,273,76841,1,8,0:0:0:0:
372,133,76999,1,0,0:0:0:0:
210,270,77157,2,0,L|207:185,1,85,0|0,0:0|0:0,0:0:0:0:
372,133,77472,2,0,L|374:48,1,85,8|0,0:0|0:0,0:0:0:0:
197,72,77788,5,0,0:0:0:0:
93,235,77946,1,0,0:0:0:0:
311,221,78104,1,8,0:0:0:0:
188,35,78262,1,0,0:0:0:0:
211,348,78420,2,0,B|202:307|202:307|214:274|214:274|187:219|214:170,1,170,4|8,0:0|0:0,0:0:0:0:
439,211,78894,6,0,B|300:219|300:219|334:239,1,170,0|0,0:0|0:0,0:0:0:0:
319,342,79367,1,8,0:0:0:0:
289,109,79525,1,0,0:0:0:0:
113,245,79683,2,0,P|163:257|204:246,1,85,0|0,0:0|0:0,0:0:0:0:
289,109,79999,2,0,P|238:96|197:107,1,85,8|0,0:0|0:0,0:0:0:0:
45,194,80315,2,0,P|32:244|43:285,1,85,0|0,0:0|0:0,0:0:0:0:
181,370,80630,2,0,P|193:319|182:278,1,85,8|0,0:0|0:0,0:0:0:0:
161,144,80946,5,0,0:0:0:0:
109,319,81104,1,0,0:0:0:0:
333,106,81262,1,8,0:0:0:0:
359,273,81420,2,0,L|327:68,1,170,0|0,0:0|0:0,0:0:0:0:
250,281,81894,5,8,0:0:0:0:
476,241,82051,1,0,0:0:0:0:
332,105,82209,2,0,L|216:97,1,85,0|0,0:0|0:0,0:0:0:0:
169,257,82525,2,0,L|253:251,1,85,8|0,0:0|0:0,0:0:0:0:
502,191,82841,2,0,L|328:191,1,170,0|8,0:0|0:0,0:0:0:0:
93,118,83315,5,0,0:0:0:0:
93,118,83394,1,0,0:0:0:0:
93,118,83472,2,0,P|61:197|97:280,1,170,4|8,0:0|0:0,0:0:0:0:
314,345,83946,2,0,P|325:293|308:244,1,85,0|0,0:0|0:0,0:0:0:0:
211,41,84262,2,0,P|200:93|217:142,1,85,0|8,0:0|0:0,0:0:0:0:
317,262,84578,1,0,0:0:0:0:
368,92,84736,6,0,P|316:81|267:98,1,85,0|0,0:0|0:0,0:0:0:0:
234,258,85051,2,0,P|286:269|335:252,1,85,8|0,0:0|0:0,0:0:0:0:
136,0,85367,2,0,L|136:106,1,85,0|0,0:0|0:0,0:0:0:0:
234,258,85683,2,0,L|234:173,1,85,8|0,0:0|0:0,0:0:0:0:
424,277,85999,5,0,0:0:0:0:
338,80,86157,2,0,B|375:72|375:72|421:83,1,85,0|8,0:0|0:0,0:0:0:0:
424,277,86472,2,0,B|386:284|386:284|340:273,1,85,0|0,0:0|0:0,0:0:0:0:
234,173,86788,2,0,B|226:135|226:135|237:89,1,85,0|8,0:0|0:0,0:0:0:0:
372,150,87104,5,0,0:0:0:0:
424,277,87262,1,0,0:0:0:0:
234,173,87420,1,0,0:0:0:0:
457,84,87578,1,0,0:0:0:0:
344,302,87736,1,0,0:0:0:0:
348,87,87894,1,0,0:0:0:0:
488,290,88051,1,0,0:0:0:0:
307,232,88209,1,0,0:0:0:0:
457,84,88367,1,0,0:0:0:0:
252,322,88525,6,0,B|359:338|407:259|407:259|406:327|461:365,1,297.5,0|0,0:0|0:0,0:0:0:0:
492,266,89815,2,0,B|487:199|433:155|359:176|329:216|329:216|314:175|278:165,1,297.5,0|0,0:0|0:0,0:0:0:0:
250,234,91105,2,0,P|151:298|163:174,1,297.5,0|0,0:0|0:0,0:0:0:0:
85,126,92395,2,0,B|149:79|202:108|202:108|261:141|315:109,1,233.75,0|0,0:0|0:0,0:0:0:0:
5,78,93432,6,0,B|-2:137|-2:137|22:212|22:212|17:266,1,187.000005706787,4|0,0:0|0:0,0:0:0:0:
158,383,93904,1,8,0:0:0:0:
316,310,94062,2,0,L|325:192,1,85,0|0,0:0|0:0,0:0:0:0:
207,51,94378,2,0,L|199:135,1,85,0|8,0:0|0:0,0:0:0:0:
417,305,94694,2,0,L|426:188,1,85,0|0,0:0|0:0,0:0:0:0:
308,46,95010,2,0,L|300:130,1,85,0|8,0:0|0:0,0:0:0:0:
288,310,95325,5,0,0:0:0:0:
450,160,95483,1,0,0:0:0:0:
236,126,95641,1,0,0:0:0:0:
441,312,95799,1,8,0:0:0:0:
321,52,95957,6,0,P|351:134|310:218,1,170,4|8,0:0|0:0,0:0:0:0:
107,174,96431,1,8,0:0:0:0:
241,7,96589,1,8,0:0:0:0:
226,232,96746,1,8,0:0:0:0:
116,57,96904,1,8,0:0:0:0:
345,152,97062,6,0,L|274:152,3,42.5,8|0|8|0,0:0|0:0|0:0|0:0,0:0:0:0:
301,259,97378,2,0,L|251:209,3,42.5,0|0|0|0,0:0|0:0|0:0|0:0,0:0:0:0:
193,303,97694,2,0,L|192:232,3,42.5,0|0|0|0,0:0|0:0|0:0|0:0,0:0:0:0:
86,259,98010,6,0,L|135:209,1,42.5,0|0,0:0|0:0,0:0:0:0:
41,152,98167,2,0,L|111:152,1,42.5,0|0,0:0|0:0,0:0:0:0:
212,182,98325,2,0,L|261:132,1,42.5,0|0,0:0|0:0,0:0:0:0:
167,75,98483,2,0,L|237:75,1,42.5,0|0,0:0|0:0,0:0:0:0:
343,53,98641,5,4,0:0:0:0:
144,146,98799,1,0,0:0:0:0:
368,187,98957,1,8,0:0:0:0:
219,6,99115,1,0,0:0:0:0:
214,246,99273,1,0,0:0:0:0:
368,64,99431,1,0,0:0:0:0:
389,285,99589,1,8,0:0:0:0:
163,138,99746,6,0,B|210:123|210:123|271:135,1,101.999996887207
263,332,100062,2,0,B|215:346|215:346|154:334,1,101.999996887207,0|8,0:0|0:0,0:0:0:0:
381,79,100378,2,0,B|401:142|401:142|371:196|371:196|403:253|403:253|401:318,1,254.999992218018,0|8,0:0|0:0,0:0:0:0:
489,198,101010,5,0,0:0:0:0:
500,205,101089,1,0,0:0:0:0:
499,191,101167,1,0,0:0:0:0:
259,135,101325,1,0,0:0:0:0:
381,338,101483,1,8,0:0:0:0:
402,88,101641,1,0,0:0:0:0:
242,284,101799,1,0,0:0:0:0:
472,283,101957,1,0,0:0:0:0:
312,85,102115,1,8,0:0:0:0:
332,357,102273,6,0,B|230:373|230:373|136:328,1,203.999993774414
411,161,102746,1,8,0:0:0:0:
243,260,102904,2,0,B|227:158|227:158|272:64,1,187.000005706787
393,349,103378,1,8,0:0:0:0:
319,176,103536,2,0,B|410:160|410:160|515:205,1,170,4|0,0:0|0:0,0:0:0:0:
271,373,104010,5,8,0:0:0:0:
272,355,104167,1,0,0:0:0:0:
217,177,104326,5,0,0:0:0:0:
216,195,104483,1,0,0:0:0:0:
85,342,104641,5,8,0:0:0:0:
86,324,104799,1,0,0:0:0:0:
137,182,104957,6,0,B|164:166|164:166|256:184,1,85,0|0,0:0|0:0,0:0:0:0:
338,69,105273,1,8,0:0:0:0:
323,245,105431,2,0,P|352:205|334:140,1,85,0|0,0:0|0:0,0:0:0:0:
338,69,105746,2,0,B|393:93|431:56|431:56|488:186|427:295,1,340,0|0,0:0|0:0,0:0:0:0:
285,298,106536,5,8,0:0:0:0:
258,297,106694,1,0,0:0:0:0:
106,210,106852,5,0,0:0:0:0:
133,209,107010,1,0,0:0:0:0:
316,56,107167,5,8,0:0:0:0:
261,170,107325,1,0,0:0:0:0:
111,14,107483,2,0,P|129:128|179:154,1,170,0|8,0:0|0:0,0:0:0:0:
473,35,107957,2,0,P|430:47|392:94,1,85,0|0,0:0|0:0,0:0:0:0:
251,105,108273,2,0,P|294:117|332:164,1,85,0|8,0:0|0:0,0:0:0:0:
438,182,108589,5,0,0:0:0:0:
438,182,108667,1,0,0:0:0:0:
438,182,108746,2,0,L|421:262,2,56.6666666666667,4|0|0,0:0|0:0|0:0,0:0:0:0:
497,302,109062,2,0,L|442:362,2,56.6666666666667,8|0|0,0:0|0:0|0:0,0:0:0:0:
350,324,109378,2,0,L|324:246,2,56.6666666666667,0|0|0,0:0|0:0|0:0,0:0:0:0:
392,183,109694,5,8,0:0:0:0:
338,164,109799,1,0,0:0:0:0:
283,172,109904,1,0,0:0:0:0:
237,204,110010,5,0,0:0:0:0:
191,237,110115,1,0,0:0:0:0:
136,245,110220,1,0,0:0:0:0:
83,227,110325,1,8,0:0:0:0:
58,177,110431,1,0,0:0:0:0:
73,123,110536,1,0,0:0:0:0:
119,94,110641,5,0,0:0:0:0:
170,116,110746,1,0,0:0:0:0:
226,115,110852,1,0,0:0:0:0:
278,93,110957,1,8,0:0:0:0:
332,102,111062,1,0,0:0:0:0:
367,145,111167,1,0,0:0:0:0:
366,200,111273,6,0,P|316:215|261:201,1,85,0|0,0:0|0:0,0:0:0:0:
145,197,111589,1,8,0:0:0:0:
15,107,111746,6,0,B|5:151|34:185|34:185|19:208|19:208|37:253|16:289,1,195.500003728867,0|0,0:0|0:0,0:0:0:0:
103,119,112220,1,8,0:0:0:0:
251,282,112378,2,0,B|176:330|176:330|-10:283,1,255,4|8,0:0|0:0,0:0:0:0:
34,186,113010,2,0,L|116:206,1,85,0|0,0:0|0:0,0:0:0:0:
194,82,113325,5,0,0:0:0:0:
251,282,113483,1,8,0:0:0:0:
116,206,113641,2,0,P|90:101|120:20,1,170,4|0,0:0|0:0,0:0:0:0:
291,27,114115,1,8,0:0:0:0:
278,195,114273,2,0,P|173:221|92:191,1,170,0|0,0:0|0:0,0:0:0:0:
194,82,114746,1,8,0:0:0:0:
121,303,114904,2,0,B|203:326|287:294|287:294|368:264|453:298,1,340,4|0,0:0|0:0,0:0:0:0:
369,384,115694,1,0,0:0:0:0:
172,228,115852,6,0,L|239:226,1,42.5,0|0,0:0|0:0,0:0:0:0:
399,94,116010,2,0,L|332:92,1,42.5,8|0,0:0|0:0,0:0:0:0:
155,23,116167,2,0,B|146:90|146:90|178:154|178:154|171:229,1,212.5,4|0,0:0|0:0,0:0:0:0:
83,290,116641,5,8,0:0:0:0:
127,314,116720,1,0,0:0:0:0:
177,320,116799,1,0,0:0:0:0:
226,305,116878,1,0,0:0:0:0:
265,273,116957,1,0,0:0:0:0:
288,228,117036,1,0,0:0:0:0:
293,178,117115,5,0,0:0:0:0:
297,127,117194,1,0,0:0:0:0:
321,82,117273,1,8,0:0:0:0:
360,50,117352,1,0,0:0:0:0:
408,36,117431,1,4,0:0:0:0:
459,41,117510,1,0,0:0:0:0:
503,66,117589,2,0,B|531:125|531:125|511:274,1,187.000005706787,0|8,0:0|0:0,0:0:0:0:
318,172,118062,5,0,0:0:0:0:
506,331,118220,1,0,0:0:0:0:
316,316,118378,1,0,0:0:0:0:
512,187,118536,1,8,0:0:0:0:
402,384,118694,1,4,0:0:0:0:
407,124,118852,2,0,P|338:71|248:108,1,187.000005706787,0|8,0:0|0:0,0:0:0:0:
90,61,119325,6,0,B|76:107|76:107|86:163,1,93.5000028533936
327,157,119641,2,0,B|341:203|341:203|331:259,1,93.5000028533936,0|8,0:0|0:0,0:0:0:0:
38,310,119957,2,0,B|90:348|141:321|141:321|196:295|261:347,1,203.999993774414,4|0,0:0|0:0,0:0:0:0:
97,227,120431,1,8,0:0:0:0:
413,304,120589,2,0,B|402:351|341:359|341:359|364:279|289:238,1,203.999993774414
300,139,121062,1,8,0:0:0:0:
440,182,121220,5,4,0:0:0:0:
461,145,121299,1,0,0:0:0:0:
461,103,121378,1,0,0:0:0:0:
441,66,121457,1,0,0:0:0:0:
405,44,121536,1,0,0:0:0:0:
363,43,121615,1,0,0:0:0:0:
326,62,121694,1,0,0:0:0:0:
303,97,121773,1,0,0:0:0:0:
300,139,121852,5,4,0:0:0:0:
341,160,121931,1,0,0:0:0:0:
366,199,122010,1,0,0:0:0:0:
367,246,122089,1,0,0:0:0:0:
345,286,122167,1,0,0:0:0:0:
305,309,122246,1,0,0:0:0:0:
259,309,122325,1,0,0:0:0:0:
219,285,122404,1,0,0:0:0:0:
197,244,122483,5,4,0:0:0:0:
179,292,122562,1,0,0:0:0:0:
138,320,122641,1,0,0:0:0:0:
88,321,122720,1,0,0:0:0:0:
46,294,122799,1,0,0:0:0:0:
27,247,122878,1,0,0:0:0:0:
38,198,122957,1,0,0:0:0:0:
74,163,123036,1,0,0:0:0:0:
123,155,123115,6,0,P|226:177|197:50,1,255,4|0,0:0|0:0,0:0:0:0:
130,256,123746,2,0,B|191:282|251:251|251:251|313:215|393:267,1,272,4|0,0:0|0:0,0:0:0:0:
256,192,124457,12,0,126115,0:0:0:0:
327,32,128957,6,0,L|187:30,1,136
155,31,129904,1,0,0:0:0:0:
119,32,130536,1,0,0:0:0:0:
83,33,131167,1,0,0:0:0:0:
24,298,131799,5,0,0:0:0:0:
25,262,132431,1,0,0:0:0:0:
26,226,133062,1,0,0:0:0:0:
27,190,133694,1,0,0:0:0:0:
94,191,134010,6,0,L|12:189,1,68
155,262,134325,2,0,L|237:260,1,68,8|0,0:0|0:0,0:0:0:0:
310,193,134641,2,0,P|336:262|303:331,1,136,0|8,0:0|0:0,0:0:0:0:
436,362,135115,2,0,L|438:280,1,68
510,221,135431,2,0,L|508:139,1,68,0|8,0:0|0:0,0:0:0:0:
446,63,135746,6,0,L|237:57,1,204,0|8,0:0|0:0,0:0:0:0:
91,59,136852,5,0,0:0:0:0:
90,95,137484,1,0,0:0:0:0:
89,131,138115,1,0,0:0:0:0:
88,167,138747,1,0,0:0:0:0:
421,138,139378,5,0,0:0:0:0:
422,174,140010,1,0,0:0:0:0:
423,210,140641,1,0,0:0:0:0:
424,246,141273,1,0,0:0:0:0:
182,340,141904,5,0,0:0:0:0:
330,267,142536,1,0,0:0:0:0:
182,194,143167,1,0,0:0:0:0:
330,121,143799,1,0,0:0:0:0:
330,121,144115,6,0,P|395:108|490:138,1,136
400,218,145062,1,0,0:0:0:0:
400,218,145378,6,0,P|335:231|240:201,1,136
73,149,146325,1,0,0:0:0:0:
73,149,146641,6,0,P|59:215|72:282,1,136
266,282,147588,1,0,0:0:0:0:
266,282,147904,6,0,P|279:217|249:122,1,136
153,211,148852,1,0,0:0:0:0:
149,278,149167,6,0,L|152:210,1,68
280,210,149483,2,0,L|283:277,1,68,8|0,0:0|0:0,0:0:0:0:
222,351,149799,2,0,P|292:371|365:337,1,136,0|8,0:0|0:0,0:0:0:0:
477,292,150273,2,0,L|399:282,1,68
317,202,150589,2,0,L|395:192,1,68,0|8,0:0|0:0,0:0:0:0:
477,112,150904,2,0,L|399:102,1,68
362,9,151220,2,0,P|313:61|315:142,1,136
218,148,151694,5,0,0:0:0:0:
166,57,151852,1,0,0:0:0:0:
62,57,152010,1,0,0:0:0:0:
10,148,152167,1,0,0:0:0:0:
62,238,152325,1,0,0:0:0:0:
166,238,152483,1,0,0:0:0:0:
114,328,152641,1,0,0:0:0:0:
218,328,152799,5,0,0:0:0:0:
235,337,153115,5,0,0:0:0:0:
252,346,153431,5,0,0:0:0:0:
375,366,153589,5,8,0:0:0:0:
391,339,153667,1,8,0:0:0:0:
398,308,153746,1,8,0:0:0:0:
393,276,153825,1,8,0:0:0:0:
378,248,153904,1,8,0:0:0:0:
361,221,153983,1,8,0:0:0:0:
354,190,154062,1,8,0:0:0:0:
359,158,154141,1,8,0:0:0:0:
374,130,154220,5,4,0:0:0:0:
280,301,154378,1,0,0:0:0:0:
467,183,154536,1,8,0:0:0:0:
286,75,154694,1,0,0:0:0:0:
149,358,154852,2,0,P|181:280|98:180,1,220.999989883423,0|8,0:0|0:0,0:0:0:0:
320,72,155325,6,0,P|271:80|212:52,1,110.499994941712
88,283,155641,1,0,0:0:0:0:
276,1,155799,1,8,0:0:0:0:
367,367,155957,6,0,P|370:237|491:202,1,220.999989883423
260,188,156431,1,8,0:0:0:0:
441,297,156589,5,0,0:0:0:0:
441,297,156667,1,0,0:0:0:0:
441,297,156746,1,0,0:0:0:0:
193,274,156904,1,0,0:0:0:0:
402,118,157062,1,8,0:0:0:0:
301,363,157220,1,0,0:0:0:0:
319,30,157378,2,0,P|270:94|317:215,1,220.999989883423,0|8,0:0|0:0,0:0:0:0:
221,359,157852,6,0,L|101:353,1,110.499994941712
78,129,158167,2,0,L|188:121,1,110.499994941712,0|8,0:0|0:0,0:0:0:0:
9,320,158483,2,0,L|1:209,1,110.499994941712
331,289,158799,1,0,0:0:0:0:
188,120,158957,1,8,0:0:0:0:
445,340,159115,2,0,B|478:280|441:222|441:222|418:175|446:121,1,220.999989883423,4|0,0:0|0:0,0:0:0:0:
118,127,159589,5,8,0:0:0:0:
371,297,159746,1,0,0:0:0:0:
274,22,159904,1,0,0:0:0:0:
167,295,160062,1,0,0:0:0:0:
417,110,160220,1,8,0:0:0:0:
118,127,160378,1,0,0:0:0:0:
459,256,160536,6,0,P|415:271|357:244,1,110.499994941712
270,27,160852,1,8,0:0:0:0:
270,27,161010,2,0,P|314:12|372:39,1,110.499994941712
167,295,161325,2,0,P|152:251|179:193,1,110.499994941712,0|8,0:0|0:0,0:0:0:0:
315,89,161641,1,0,0:0:0:0:
88,34,161799,1,0,0:0:0:0:
88,34,162115,5,8,0:0:0:0:
122,274,162273,1,0,0:0:0:0:
371,37,162431,1,0,0:0:0:0:
337,277,162589,1,0,0:0:0:0:
95,175,162746,1,8,0:0:0:0:
417,175,162904,1,0,0:0:0:0:
31,303,163062,6,0,P|127:330|251:294,1,220.999989883423,4|8,0:0|0:0,0:0:0:0:
462,246,163536,1,0,0:0:0:0:
227,212,163694,1,0,0:0:0:0:
377,41,163852,1,0,0:0:0:0:
323,259,164010,5,8,0:0:0:0:
286,288,164089,1,0,0:0:0:0:
242,300,164167,1,0,0:0:0:0:
195,295,164246,1,0,0:0:0:0:
155,272,164325,6,0,L|158:156,1,110.499994941712,4|0,0:0|0:0,0:0:0:0:
164,24,164641,1,8,0:0:0:0:
369,167,164799,1,0,0:0:0:0:
155,272,164957,2,0,L|31:266,1,110.499994941712
25,141,165273,1,8,0:0:0:0:
264,124,165431,6,0,P|217:148|143:134,1,110.499994941712
392,323,165746,2,0,P|345:299|271:313,1,110.499994941712,0|8,0:0|0:0,0:0:0:0:
379,107,166062,1,0,0:0:0:0:
328,375,166220,1,0,0:0:0:0:
129,124,166378,1,0,0:0:0:0:
377,191,166536,1,8,0:0:0:0:
97,247,166694,5,0,0:0:0:0:
97,247,166773,1,0,0:0:0:0:
97,247,166852,1,4,0:0:0:0:
295,240,167010,1,0,0:0:0:0:
88,90,167167,1,8,0:0:0:0:
301,89,167325,1,0,0:0:0:0:
207,244,167483,2,0,L|89:246,1,110.499994941712
295,240,167799,1,8,0:0:0:0:
51,29,167957,6,0,L|274:35,1,220.999989883423,4|0,0:0|0:0,0:0:0:0:
54,132,168431,1,8,0:0:0:0:
54,132,168589,2,0,P|35:80|65:12,1,110.499994941712
284,176,168904,2,0,P|303:228|273:296,1,110.499994941712,0|8,0:0|0:0,0:0:0:0:
0,237,169220,2,0,B|40:259|40:259|214:231,1,220.999989883423,4|0,0:0|0:0,0:0:0:0:
496,170,169694,2,0,B|455:147|455:147|283:175,1,220.999989883423,8|0,0:0|0:0,0:0:0:0:
178,250,170167,6,0,P|153:199|162:143,1,110.499994941712,0|8,0:0|0:0,0:0:0:0:
496,170,170483,2,0,P|529:252|435:355,1,220.999989883423,4|0,0:0|0:0,0:0:0:0:
213,345,170957,1,8,0:0:0:0:
441,246,171115,1,0,0:0:0:0:
132,243,171273,1,0,0:0:0:0:
378,350,171431,1,0,0:0:0:0:
293,110,171589,1,8,0:0:0:0:
213,345,171746,5,0,0:0:0:0:
213,345,171825,1,0,0:0:0:0:
213,345,171904,2,0,B|128:333|128:333|65:356|65:356|-2:351,1,220.999989883423,4|8,0:0|0:0,0:0:0:0:
312,276,172378,2,0,P|331:321|325:379,1,110.499994941712
45,254,172694,2,0,P|25:208|31:150,1,110.499994941712,0|8,0:0|0:0,0:0:0:0:
331,157,173010,2,0,B|157:189|157:189|195:214,1,220.999989883423,4|0,0:0|0:0,0:0:0:0:
226,2,173483,5,8,0:0:0:0:
24,189,173641,1,0,0:0:0:0:
57,0,173799,1,0,0:0:0:0:
193,213,173957,1,0,0:0:0:0:
378,2,174115,1,8,0:0:0:0:
407,234,174273,5,4,0:0:0:0:
407,234,174352,1,0,0:0:0:0:
407,234,174431,2,0,B|334:249|334:249|186:211,1,220.999989883423,0|8,0:0|0:0,0:0:0:0:
428,4,174904,2,0,P|440:55|430:110,1,110.499994941712
192,212,175220,2,0,P|179:160|189:105,1,110.499994941712,0|8,0:0|0:0,0:0:0:0:
298,322,175536,2,0,P|187:367|88:314,1,220.999989883423,4|0,0:0|0:0,0:0:0:0:
52,254,175931,6,0,L|3:304,1,55.2499974708558,0|8,0:0|0:0,0:0:0:0:
88,161,176089,2,0,L|20:179,1,55.2499974708558
165,98,176246,2,0,L|97:80,1,55.2499974708558,0|8,0:0|0:0,0:0:0:0:
263,81,176404,2,0,L|213:32,1,55.2499974708558,0|8,0:0|0:0,0:0:0:0:
356,115,176562,2,0,L|337:47,1,55.2499974708558,0|8,0:0|0:0,0:0:0:0:
241,295,176799,5,12,0:0:0:0:
149,21,176957,1,8,0:0:0:0:
356,115,177115,1,8,0:0:0:0:
122,193,177273,1,8,0:0:0:0:
454,287,177431,5,4,0:0:0:0:
224,57,177589,1,8,0:0:0:0:
465,95,177746,1,8,0:0:0:0:
181,228,177904,1,8,0:0:0:0:
382,352,178062,5,4,0:0:0:0:
341,376,178141,1,0,0:0:0:0:
293,383,178220,1,0,0:0:0:0:
247,373,178299,1,8,0:0:0:0:
208,345,178378,5,8,0:0:0:0:
165,315,178457,1,8,0:0:0:0:
116,298,178536,1,8,0:0:0:0:
64,296,178615,1,8,0:0:0:0:
13,309,178694,5,8,0:0:0:0:
38,258,178773,1,8,0:0:0:0:
51,204,178852,1,8,0:0:0:0:
50,147,178931,1,8,0:0:0:0:
36,92,179010,5,8,0:0:0:0:
84,55,179089,1,8,0:0:0:0:
144,55,179167,1,8,0:0:0:0:
190,93,179246,1,8,0:0:0:0:
207,153,179325,6,0,B|254:206|311:167|311:167|354:227|354:227|413:139|537:196|493:299,1,425,10|0,0:0|0:0,0:0:0:0:
256,192,180194,12,0,181852,0:0:0:0:
90,293,193293,6,0,P|66:210|98:127,1,170,4|8,0:0|0:0,0:0:0:0:
227,48,193766,2,0,P|254:90|234:155,1,85
357,158,194082,1,0,0:0:0:0:
161,211,194240,1,8,0:0:0:0:
430,58,194398,2,0,B|465:103|465:103|446:229,1,170
272,244,194872,5,8,0:0:0:0:
470,357,195030,2,0,P|412:358|373:330,1,85
266,137,195345,2,0,P|326:131|368:153,1,85,0|8,0:0|0:0,0:0:0:0:
97,308,195661,2,0,P|184:282|168:189,1,170
28,14,196135,5,8,0:0:0:0:
124,142,196293,2,0,L|39:136,1,85
223,21,196609,2,0,L|307:15,1,85,0|8,0:0|0:0,0:0:0:0:
465,25,196924,5,0,0:0:0:0:
465,25,197003,1,0,0:0:0:0:
465,25,197082,2,0,P|476:71|455:135,1,85
339,311,197398,2,0,P|328:265|349:201,1,85,8|0,0:0|0:0,0:0:0:0:
385,65,197714,1,0,0:0:0:0:
412,265,197872,1,0,0:0:0:0:
285,66,198030,1,8,0:0:0:0:
421,288,198188,1,0,0:0:0:0:
32,183,198345,6,0,L|216:174,1,170,4|8,0:0|0:0,0:0:0:0:
253,344,198819,2,0,L|154:344,1,85
38,211,199135,2,0,L|137:205,1,85,0|8,0:0|0:0,0:0:0:0:
252,80,199451,2,0,L|160:81,1,85
236,275,199766,1,0,0:0:0:0:
344,49,199924,5,8,0:0:0:0:
344,49,200003,1,0,0:0:0:0:
344,49,200082,2,0,P|350:87|335:133,1,85
490,91,200398,1,0,0:0:0:0:
430,275,200556,1,8,0:0:0:0:
498,68,200714,2,0,P|433:30|328:61,1,170
230,195,201188,5,8,0:0:0:0:
260,73,201345,2,0,L|238:171,1,85
343,48,201661,2,0,P|289:-4|191:17,1,170
126,119,202135,6,0,P|159:151|200:158,1,85,4|0,0:0|0:0,0:0:0:0:
260,73,202451,2,0,P|300:82|330:112,1,85
315,219,202766,2,0,P|348:251|389:258,1,85
494,345,203082,2,0,P|460:377|419:384,1,85,0|0,0:0|0:0,0:0:0:0:
221,335,203398,6,0,L|327:347,1,93.5000028533936,0|0,0:0|0:0,0:0:0:0:
145,218,203714,2,0,L|237:207,1,93.5000028533936,0|0,0:0|0:0,0:0:0:0:
28,126,204030,2,0,L|17:218,1,93.5000028533936,0|0,0:0|0:0,0:0:0:0:
213,24,204345,2,0,L|223:116,1,93.5000028533936,0|0,0:0|0:0,0:0:0:0:
416,68,204661,5,12,0:0:0:0:
395,286,204819,1,0,0:0:0:0:
395,286,204977,1,0,0:0:0:0:
119,155,205135,5,12,0:0:0:0:
337,176,205293,1,0,0:0:0:0:
337,176,205451,1,0,0:0:0:0:
206,384,205609,5,12,0:0:0:0:
227,166,205766,1,0,0:0:0:0:
65,339,205924,5,0,0:0:0:0:
37,319,206003,1,0,0:0:0:0:
22,289,206082,1,0,0:0:0:0:
21,255,206161,1,0,0:0:0:0:
36,225,206240,1,0,0:0:0:0:
62,204,206319,1,0,0:0:0:0:
95,198,206398,1,0,0:0:0:0:
128,207,206477,1,0,0:0:0:0:
153,229,206556,5,8,0:0:0:0:
192,261,206635,1,0,0:0:0:0:
240,277,206714,1,8,0:0:0:0:
290,274,206793,1,0,0:0:0:0:
336,252,206872,1,0,0:0:0:0:
371,215,206951,1,0,0:0:0:0:
390,168,207030,1,8,0:0:0:0:
390,118,207109,1,8,0:0:0:0:
372,70,207188,6,0,B|321:63|295:88|295:88|268:73|268:73|226:93|166:69,1,187.000005706787,12|8,0:0|0:0,0:0:0:0:
41,126,207661,2,0,P|24:71|50:12,1,93.5000028533936,0|0,0:0|0:0,0:0:0:0:
222,0,207977,1,0,0:0:0:0:
363,233,208135,2,0,P|370:187|354:144,1,93.5000028533936,8|0,0:0|0:0,0:0:0:0:
29,255,208451,6,0,B|76:277|76:277|250:253,1,187.000005706787,0|8,0:0|0:0,0:0:0:0:
338,357,208924,1,0,0:0:0:0:
403,182,209082,2,0,P|427:232|419:282,1,93.5000028533936,0|0,0:0|0:0,0:0:0:0:
209,258,209398,5,8,0:0:0:0:
209,258,209477,1,0,0:0:0:0:
209,258,209556,2,0,P|177:154|250:74,1,187.000005706787,4|0,0:0|0:0,0:0:0:0:
494,53,210030,2,0,L|380:59,1,93.5000028533936,8|0,0:0|0:0,0:0:0:0:
267,179,210345,2,0,L|381:185,1,93.5000028533936,0|0,0:0|0:0,0:0:0:0:
494,305,210661,2,0,L|380:311,1,93.5000028533936,8|0,0:0|0:0,0:0:0:0:
266,178,210977,6,0,P|251:221|267:265,1,93.5000028533936,0|0,0:0|0:0,0:0:0:0:
141,41,211293,2,0,P|155:84|139:127,1,93.5000028533936,8|0,0:0|0:0,0:0:0:0:
266,15,211609,1,0,0:0:0:0:
326,176,211766,1,0,0:0:0:0:
85,83,211924,1,8,0:0:0:0:
243,297,212082,6,0,P|168:308|111:220,1,187.000005706787,4|0,0:0|0:0,0:0:0:0:
347,234,212556,2,0,P|367:275|367:321,1,93.5000028533936,8|0,0:0|0:0,0:0:0:0:
245,34,212872,1,0,0:0:0:0:
194,234,213030,2,0,L|220:113,1,93.5000028533936,0|8,0:0|0:0,0:0:0:0:
408,92,213345,2,0,L|388:0,1,93.5000028533936,0|0,0:0|0:0,0:0:0:0:
213,142,213661,2,0,L|121:122,1,93.5000028533936,0|8,0:0|0:0,0:0:0:0:
133,294,213977,1,0,0:0:0:0:
354,147,214135,1,0,0:0:0:0:
318,336,214293,1,0,0:0:0:0:
447,95,214451,5,8,0:0:0:0:
447,95,214530,1,0,0:0:0:0:
447,95,214609,2,0,P|358:57|253:95,1,187.000005706787,4|0,0:0|0:0,0:0:0:0:
145,43,215082,1,8,0:0:0:0:
130,251,215240,2,0,L|137:140,1,93.5000028533936,0|0,0:0|0:0,0:0:0:0:
356,153,215556,2,0,L|361:246,1,93.5000028533936,0|8,0:0|0:0,0:0:0:0:
150,363,215872,2,0,L|337:366,1,187.000005706787,0|0,0:0|0:0,0:0:0:0:
469,341,216345,5,8,0:0:0:0:
503,310,216424,1,0,0:0:0:0:
512,266,216503,1,0,0:0:0:0:
497,223,216582,1,0,0:0:0:0:
458,199,216661,5,0,0:0:0:0:
435,199,216740,1,0,0:0:0:0:
411,199,216819,1,0,0:0:0:0:
388,199,216898,1,0,0:0:0:0:
364,199,216977,1,0,0:0:0:0:
341,199,217056,1,0,0:0:0:0:
318,199,217135,2,0,P|221:187|272:66,1,255,4|8,0:0|0:0,0:0:0:0:
140,194,217766,5,0,0:0:0:0:
140,194,217845,1,0,0:0:0:0:
140,194,217924,1,0,0:0:0:0:
274,138,218082,2,0,L|365:105,1,85,0|8,0:0|0:0,0:0:0:0:
180,106,218398,2,0,L|147:15,1,85,0|0,0:0|0:0,0:0:0:0:
236,240,218714,2,0,L|269:331,1,85,0|8,0:0|0:0,0:0:0:0:
426,203,219030,2,0,P|391:246|350:256,1,85,0|0,0:0|0:0,0:0:0:0:
228,126,219345,1,0,0:0:0:0:
359,365,219503,1,8,0:0:0:0:
354,93,219661,6,0,L|354:177,1,85,4|0,0:0|0:0,0:0:0:0:
235,322,219977,2,0,L|234:237,1,85,0|8,0:0|0:0,0:0:0:0:
107,85,220293,2,0,L|107:169,1,85,0|0,0:0|0:0,0:0:0:0:
234,237,220609,2,0,P|278:250|342:233,1,85,0|8,0:0|0:0,0:0:0:0:
467,157,220924,2,0,P|505:227|472:307,1,170
234,237,221398,5,8,0:0:0:0:
386,332,221556,1,0,0:0:0:0:
365,192,221714,1,0,0:0:0:0:
238,351,221872,1,0,0:0:0:0:
135,196,222030,5,8,0:0:0:0:
135,196,222109,1,8,0:0:0:0:
135,196,222188,2,0,L|126:300,1,85,12|0,0:0|0:0,0:0:0:0:
324,126,222503,2,0,L|316:41,1,85,0|8,0:0|0:0,0:0:0:0:
225,195,222819,2,0,L|216:299,1,85,0|8,0:0|0:0,0:0:0:0:
414,125,223135,2,0,L|406:40,1,85,0|8,0:0|0:0,0:0:0:0:
319,203,223451,2,0,B|306:335|306:335|340:370,1,170,0|0,0:0|0:0,0:0:0:0:
473,204,223924,5,8,0:0:0:0:
183,321,224082,1,0,0:0:0:0:
466,331,224240,1,8,0:0:0:0:
190,184,224398,1,0,0:0:0:0:
332,361,224556,1,8,0:0:0:0:
354,94,224714,6,0,B|360:141|360:141|329:208|329:208|334:271,1,170,12|0,0:0|0:0,0:0:0:0:
227,112,225188,1,8,0:0:0:0:
441,242,225345,1,0,0:0:0:0:
268,291,225503,1,8,0:0:0:0:
354,94,225661,1,0,0:0:0:0:
400,306,225819,1,8,0:0:0:0:
185,188,225977,1,0,0:0:0:0:
435,127,226135,5,8,0:0:0:0:
469,151,226214,1,0,0:0:0:0:
489,188,226293,1,8,0:0:0:0:
490,230,226372,1,8,0:0:0:0:
473,269,226451,1,8,0:0:0:0:
440,296,226530,1,0,0:0:0:0:
399,305,226609,5,8,0:0:0:0:
392,255,226688,1,0,0:0:0:0:
369,210,226766,1,8,0:0:0:0:
333,174,226845,1,0,0:0:0:0:
287,153,226924,1,8,0:0:0:0:
236,147,227003,1,0,0:0:0:0:
187,158,227082,1,8,0:0:0:0:
143,184,227161,1,0,0:0:0:0:
111,223,227240,2,0,P|152:299|233:234,1,203.999993774414,12|0,0:0|0:0,0:0:0:0:
279,135,227714,5,8,0:0:0:0:
120,108,227872,1,0,0:0:0:0:
276,329,228030,2,0,P|305:275|301:203,1,93.5000028533936,0|0,0:0|0:0,0:0:0:0:
36,210,228345,2,0,P|32:256|46:301,1,93.5000028533936,8|0,0:0|0:0,0:0:0:0:
183,155,228661,1,0,0:0:0:0:
276,329,228819,2,0,L|402:354,1,93.5000028533936,0|8,0:0|0:0,0:0:0:0:
411,136,229135,1,0,0:0:0:0:
384,267,229293,5,0,0:0:0:0:
347,260,229372,1,0,0:0:0:0:
310,253,229451,1,0,0:0:0:0:
273,246,229530,1,0,0:0:0:0:
236,239,229609,1,0,0:0:0:0:
116,104,229766,6,0,B|149:145|131:193|131:193|107:243|136:296,1,187.000005706787,4|0,0:0|0:0,0:0:0:0:
260,120,230240,1,8,0:0:0:0:
59,159,230398,1,0,0:0:0:0:
289,245,230556,2,0,P|231:249|183:218,1,93.5000028533936,0|0,0:0|0:0,0:0:0:0:
366,109,230872,1,8,0:0:0:0:
429,282,231030,1,0,0:0:0:0:
255,169,231188,5,0,0:0:0:0:
229,130,231266,1,0,0:0:0:0:
233,85,231345,1,0,0:0:0:0:
264,51,231424,1,0,0:0:0:0:
309,44,231503,1,8,0:0:0:0:
349,67,231582,1,0,0:0:0:0:
366,109,231661,1,0,0:0:0:0:
338,243,231819,1,0,0:0:0:0:
297,113,231977,5,0,0:0:0:0:
250,112,232056,1,0,0:0:0:0:
203,112,232135,1,8,0:0:0:0:
156,112,232214,1,0,0:0:0:0:
110,112,232293,6,0,B|125:174|125:174|102:237|102:237|112:311,1,187.000005706787,4|0,0:0|0:0,0:0:0:0:
330,314,232766,1,8,0:0:0:0:
292,154,232924,1,0,0:0:0:0:
195,344,233082,2,0,L|183:231,1,93.5000028533936,0|0,0:0|0:0,0:0:0:0:
378,217,233398,2,0,L|390:104,1,93.5000028533936,8|0,0:0|0:0,0:0:0:0:
243,109,233714,5,0,0:0:0:0:
443,33,233872,2,0,P|394:13|339:29,1,93.5000028533936,0|8,0:0|0:0,0:0:0:0:
193,185,234188,2,0,P|240:204|296:182,1,93.5000028533936
465,160,234503,2,0,L|456:260,1,93.5000028533936,0|8,0:0|0:0,0:0:0:0:
260,293,234819,6,0,P|166:273|95:203,1,187.000005706787,4|0,0:0|0:0,0:0:0:0:
85,172,235214,1,0,0:0:0:0:
86,126,235293,1,8,0:0:0:0:
113,89,235372,1,0,0:0:0:0:
156,72,235451,1,0,0:0:0:0:
266,28,235609,1,4,0:0:0:0:
175,151,235766,5,0,0:0:0:0:
207,178,235845,1,0,0:0:0:0:
247,190,235924,1,8,0:0:0:0:
289,187,236003,1,0,0:0:0:0:
327,169,236082,1,0,0:0:0:0:
365,150,236161,1,0,0:0:0:0:
407,147,236240,1,8,0:0:0:0:
447,159,236319,1,8,0:0:0:0:
479,186,236398,5,8,0:0:0:0:
480,201,236477,1,8,0:0:0:0:
480,215,236556,1,8,0:0:0:0:
481,229,236635,1,0,0:0:0:0:
481,243,236714,1,0,0:0:0:0:
481,257,236793,1,0,0:0:0:0:
482,271,236872,1,0,0:0:0:0:
482,286,236951,1,0,0:0:0:0:
483,300,237030,1,0,0:0:0:0:
483,314,237109,1,0,0:0:0:0:
483,328,237188,1,0,0:0:0:0:
484,342,237266,1,0,0:0:0:0:
485,355,237345,6,0,B|416:379|416:379|253:351,1,203.999993774414,4|0,0:0|0:0,0:0:0:0:
60,367,237819,1,8,0:0:0:0:
57,316,237898,1,0,0:0:0:0:
76,269,237977,1,0,0:0:0:0:
112,233,238056,1,0,0:0:0:0:
160,216,238135,5,8,0:0:0:0:
210,222,238214,1,0,0:0:0:0:
261,229,238293,1,0,0:0:0:0:
311,236,238372,1,0,0:0:0:0:
362,243,238451,5,8,0:0:0:0:
411,233,238530,1,0,0:0:0:0:
443,195,238609,1,0,0:0:0:0:
445,145,238688,1,0,0:0:0:0:
415,104,238766,5,8,0:0:0:0:
418,155,238845,1,0,0:0:0:0:
398,201,238924,1,0,0:0:0:0:
359,234,239003,1,0,0:0:0:0:
310,245,239082,1,8,0:0:0:0:
261,234,239161,1,0,0:0:0:0:
222,202,239240,1,0,0:0:0:0:
202,155,239319,1,0,0:0:0:0:
204,105,239398,1,8,0:0:0:0:
229,61,239477,1,0,0:0:0:0:
271,33,239556,6,0,L|197:34,1,50.9999984436036,0|0,0:0|0:0,0:0:0:0:
50,113,239714,2,0,L|101:113,1,50.9999984436036,8|0,0:0|0:0,0:0:0:0:
210,270,239872,2,0,B|210:220,5,50.9999984436036,4|0|8|0|0|0,0:0|0:0|0:0|0:0|0:0|0:0,0:0:0:0:
0,302,240345,5,8,0:0:0:0:
36,336,240424,1,0,0:0:0:0:
85,349,240503,1,0,0:0:0:0:
134,338,240582,1,0,0:0:0:0:
172,304,240661,5,8,0:0:0:0:
210,270,240740,1,0,0:0:0:0:
259,259,240819,1,0,0:0:0:0:
308,272,240898,1,0,0:0:0:0:
344,306,240977,5,8,0:0:0:0:
346,255,241056,1,0,0:0:0:0:
348,204,241135,1,0,0:0:0:0:
350,153,241214,1,0,0:0:0:0:
352,103,241293,5,8,0:0:0:0:
320,68,241372,1,0,0:0:0:0:
280,45,241451,1,0,0:0:0:0:
234,35,241530,1,0,0:0:0:0:
188,40,241609,1,8,0:0:0:0:
145,58,241688,1,0,0:0:0:0:
110,88,241766,1,0,0:0:0:0:
85,127,241845,1,0,0:0:0:0:
73,172,241924,1,8,0:0:0:0:
75,219,242003,1,0,0:0:0:0:
92,263,242082,5,0,0:0:0:0:
126,232,242161,1,0,0:0:0:0:
171,221,242240,1,8,0:0:0:0:
216,233,242319,1,0,0:0:0:0:
248,266,242398,2,0,L|322:266,1,46.7500014266968,4|0,0:0|0:0,0:0:0:0:
350,107,242556,5,8,0:0:0:0:
350,107,242635,1,0,0:0:0:0:
350,107,242714,2,0,L|303:107,1,46.7500014266968,0|0,0:0|0:0,0:0:0:0:
412,321,242872,5,8,0:0:0:0:
412,321,242951,1,0,0:0:0:0:
412,321,243030,2,0,L|412:274,1,46.7500014266968,0|0,0:0|0:0,0:0:0:0:
199,113,243188,5,8,0:0:0:0:
199,113,243266,1,0,0:0:0:0:
199,113,243345,2,0,L|199:160,1,46.7500014266968,0|0,0:0|0:0,0:0:0:0:
310,320,243503,5,8,0:0:0:0:
310,320,243582,1,0,0:0:0:0:
310,320,243661,2,0,L|310:273,1,46.7500014266968,0|0,0:0|0:0,0:0:0:0:
97,112,243819,5,8,0:0:0:0:
97,112,243898,1,0,0:0:0:0:
97,112,243977,2,0,L|97:159,1,46.7500014266968,0|0,0:0|0:0,0:0:0:0:
92,330,244135,5,8,0:0:0:0:
92,330,244214,1,0,0:0:0:0:
92,330,244293,2,0,L|139:330,1,46.7500014266968,0|0,0:0|0:0,0:0:0:0:
299,116,244451,5,8,0:0:0:0:
299,116,244530,1,0,0:0:0:0:
299,116,244609,2,0,L|252:116,1,46.7500014266968,0|0,0:0|0:0,0:0:0:0:
298,363,244766,5,8,0:0:0:0:
298,363,244845,1,0,0:0:0:0:
298,363,244924,1,4,0:0:0:0:
306,317,245003,1,0,0:0:0:0:
298,271,245082,1,8,0:0:0:0:
273,232,245161,1,0,0:0:0:0:
235,205,245240,1,0,0:0:0:0:
190,193,245319,1,0,0:0:0:0:
144,199,245398,5,8,0:0:0:0:
97,204,245477,1,0,0:0:0:0:
53,189,245556,1,0,0:0:0:0:
19,158,245635,1,0,0:0:0:0:
2,115,245714,1,8,0:0:0:0:
4,68,245793,1,0,0:0:0:0:
25,27,245872,1,0,0:0:0:0:
62,0,245951,1,0,0:0:0:0:
107,0,246030,1,8,0:0:0:0:
152,0,246109,1,0,0:0:0:0:
190,25,246188,1,0,0:0:0:0:
212,66,246266,1,0,0:0:0:0:
215,112,246345,5,8,0:0:0:0:
248,73,246424,1,0,0:0:0:0:
294,48,246503,1,0,0:0:0:0:
345,42,246582,1,0,0:0:0:0:
395,55,246661,1,8,0:0:0:0:
436,86,246740,1,0,0:0:0:0:
463,130,246819,1,0,0:0:0:0:
473,180,246898,1,0,0:0:0:0:
463,231,246977,5,8,0:0:0:0:
429,288,247056,1,8,0:0:0:0:
366,311,247135,1,8,0:0:0:0:
304,286,247214,1,8,0:0:0:0:
273,227,247293,1,8,0:0:0:0:
289,162,247372,1,8,0:0:0:0:
343,122,247451,2,0,B|372:170|372:170|366:320,1,170,10|0,0:0|0:0,0:0:0:0:
194,286,247924,5,8,0:0:0:0:
502,241,248082,1,0,0:0:0:0:
165,126,248240,5,8,0:0:0:0:
307,357,248398,1,0,0:0:0:0:
331,73,248556,5,8,0:0:0:0:
109,329,248714,1,0,0:0:0:0:
331,227,248872,5,8,0:0:0:0:
19,178,249030,1,0,0:0:0:0:
210,361,249188,5,8,0:0:0:0:
209,74,249345,1,0,0:0:0:0:
437,370,249503,5,8,0:0:0:0:
436,226,249661,1,8,0:0:0:0:
436,83,249819,1,8,0:0:0:0:
249,180,249977,6,0,P|212:106|236:27,1,170,4|0,0:0|0:0,0:0:0:0:
443,232,250451,5,8,0:0:0:0:
303,96,250609,1,0,0:0:0:0:
177,279,250766,5,8,0:0:0:0:
236,26,250924,1,0,0:0:0:0:
358,313,251082,5,8,0:0:0:0:
217,113,251240,1,0,0:0:0:0:
218,346,251398,5,8,0:0:0:0:
468,268,251556,1,0,0:0:0:0:
426,77,251714,5,8,0:0:0:0:
358,313,251872,1,0,0:0:0:0:
194,203,252030,5,8,0:0:0:0:
194,203,252109,1,8,0:0:0:0:
194,203,252188,1,8,0:0:0:0:
369,229,252345,1,8,0:0:0:0:
121,69,252503,2,0,B|122:126|122:126|91:182|91:182|91:243,1,170,4|0,0:0|0:0,0:0:0:0:
196,356,252977,5,8,0:0:0:0:
31,107,253135,1,0,0:0:0:0:
246,280,253293,5,8,0:0:0:0:
209,49,253451,1,0,0:0:0:0:
143,287,253609,5,8,0:0:0:0:
366,117,253766,1,0,0:0:0:0:
351,302,253924,5,8,0:0:0:0:
117,128,254082,1,0,0:0:0:0:
229,378,254240,5,8,0:0:0:0:
463,222,254398,1,0,0:0:0:0:
165,254,254556,5,8,0:0:0:0:
386,328,254714,1,8,0:0:0:0:
108,198,254872,1,8,0:0:0:0:
90,224,254951,1,8,0:0:0:0:
84,255,255030,1,8,0:0:0:0:
90,286,255109,1,8,0:0:0:0:
106,313,255188,5,12,0:0:0:0:
206,311,255345,1,0,0:0:0:0:
308,311,255503,1,0,0:0:0:0:
410,311,255661,1,0,0:0:0:0:
122,214,255819,5,12,0:0:0:0:
207,212,255977,1,0,0:0:0:0:
296,212,256135,1,0,0:0:0:0:
384,212,256293,1,0,0:0:0:0:
136,120,256451,5,12,0:0:0:0:
207,118,256609,1,0,0:0:0:0:
281,118,256766,1,0,0:0:0:0:
356,118,256924,1,0,0:0:0:0:
154,25,257082,5,12,0:0:0:0:
174,25,257161,1,8,0:0:0:0:
195,25,257240,1,8,0:0:0:0:
218,25,257319,1,8,0:0:0:0:
240,25,257398,1,8,0:0:0:0:
262,25,257477,1,8,0:0:0:0:
285,25,257556,1,8,0:0:0:0:
306,25,257635,1,8,0:0:0:0:
328,25,257714,5,12,0:0:0:0:
341,31,258030,1,0,0:0:0:0:
354,37,258345,1,0,0:0:0:0:
367,43,258661,1,0,0:0:0:0:
204,249,258977,5,4,0:0:0:0:
190,255,259293,1,0,0:0:0:0:
177,261,259609,1,0,0:0:0:0:
164,267,259924,1,0,0:0:0:0:
424,200,260240,5,4,0:0:0:0:
418,186,260556,1,0,0:0:0:0:
412,173,260872,1,0,0:0:0:0:
406,160,261188,1,0,0:0:0:0:
83,93,261503,5,4,0:0:0:0:
89,107,261819,1,0,0:0:0:0:
247,212,262135,5,4,0:0:0:0:
241,226,262451,1,0,0:0:0:0:
96,322,262609,5,8,0:0:0:0:
96,322,262688,1,8,0:0:0:0:
96,322,262766,1,12,0:0:0:0:
102,336,263082,1,0,0:0:0:0:
108,350,263398,1,0,0:0:0:0:
114,364,263714,1,0,0:0:0:0:
269,199,264030,5,4,0:0:0:0:
275,185,264345,1,0,0:0:0:0:
456,79,264661,5,4,0:0:0:0:
462,93,264977,1,0,0:0:0:0:
456,299,265293,5,4,0:0:0:0:
442,305,265609,1,0,0:0:0:0:
428,311,265924,1,0,0:0:0:0:
414,317,266240,1,0,0:0:0:0:
256,363,266556,5,4,0:0:0:0:
256,339,266872,1,0,0:0:0:0:
256,79,267188,5,4,0:0:0:0:
256,103,267503,1,0,0:0:0:0:
178,188,267819,2,0,P|256:220|337:192,1,170,4|8,0:0|0:0,0:0:0:0:
411,329,268293,2,0,L|303:332,1,85
178,188,268609,1,0,0:0:0:0:
185,333,268766,1,8,0:0:0:0:
257,75,268924,2,0,P|177:49|100:81,1,170
177,187,269398,5,8,0:0:0:0:
44,197,269556,2,0,L|49:302,1,85
239,379,269872,2,0,L|243:294,1,85,0|8,0:0|0:0,0:0:0:0:
435,146,270188,2,0,L|443:327,1,170
297,139,270661,5,8,0:0:0:0:
389,55,270819,2,0,P|429:40|481:55,1,85
345,274,271135,2,0,P|305:289|253:274,1,85,0|8,0:0|0:0,0:0:0:0:
130,141,271451,5,0,0:0:0:0:
130,141,271530,1,0,0:0:0:0:
130,141,271609,2,0,L|223:141,1,85
85,270,271924,2,0,L|-8:270,1,85,8|0,0:0|0:0,0:0:0:0:
262,110,272240,1,0,0:0:0:0:
85,270,272398,1,0,0:0:0:0:
148,54,272556,1,8,0:0:0:0:
214,253,272714,1,0,0:0:0:0:
0,97,272872,6,0,P|65:47|153:57,1,170,4|8,0:0|0:0,0:0:0:0:
295,118,273345,2,0,L|291:33,1,85
90,135,273661,2,0,L|86:235,1,85,0|8,0:0|0:0,0:0:0:0:
191,336,273977,2,0,L|275:339,1,85
174,131,274293,2,0,L|89:135,1,85,0|8,0:0|0:0,0:0:0:0:
364,377,274609,2,0,P|372:329|356:272,1,85
199,336,274924,1,0,0:0:0:0:
242,102,275082,5,8,0:0:0:0:
242,102,275161,1,0,0:0:0:0:
242,102,275240,2,0,P|325:90|400:142,1,170
488,95,275714,5,8,0:0:0:0:
495,298,275872,2,0,L|492:186,1,85
302,204,276188,2,0,L|299:383,1,170
188,349,276661,6,0,P|133:342|97:292,1,85,4|0,0:0|0:0,0:0:0:0:
80,169,276977,2,0,P|135:176|171:226,1,85,0|0,0:0|0:0,0:0:0:0:
297,232,277293,2,0,P|320:197|322:155,1,85,0|0,0:0|0:0,0:0:0:0:
453,72,277609,2,0,P|454:113|478:148,1,85,0|0,0:0|0:0,0:0:0:0:
442,294,277924,6,0,L|466:387,1,93.5000028533936,0|0,0:0|0:0,0:0:0:0:
297,232,278240,2,0,L|273:325,1,93.5000028533936,0|0,0:0|0:0,0:0:0:0:
103,128,278556,2,0,L|196:104,1,93.5000028533936,0|0,0:0|0:0,0:0:0:0:
22,360,278872,2,0,L|46:267,1,93.5000028533936,0|0,0:0|0:0,0:0:0:0:
236,350,279188,5,12,0:0:0:0:
50,190,279345,1,0,0:0:0:0:
50,190,279503,1,0,0:0:0:0:
81,351,279661,5,12,0:0:0:0:
267,191,279819,1,0,0:0:0:0:
267,191,279977,1,0,0:0:0:0:
236,350,280135,5,12,0:0:0:0:
138,132,280293,1,0,0:0:0:0:
140,331,280451,5,0,0:0:0:0:
169,347,280530,1,0,0:0:0:0:
202,354,280609,1,0,0:0:0:0:
236,350,280688,1,0,0:0:0:0:
266,335,280766,1,0,0:0:0:0:
290,311,280845,1,0,0:0:0:0:
305,281,280924,1,0,0:0:0:0:
310,248,281003,1,0,0:0:0:0:
304,214,281082,5,8,0:0:0:0:
297,164,281161,1,0,0:0:0:0:
315,118,281240,1,8,0:0:0:0:
354,86,281319,1,0,0:0:0:0:
404,78,281398,1,0,0:0:0:0:
451,95,281477,1,0,0:0:0:0:
484,134,281556,1,8,0:0:0:0:
492,184,281635,1,8,0:0:0:0:
476,231,281714,6,0,B|423:263|423:263|286:242,1,187.000005706787,12|8,0:0|0:0,0:0:0:0:
184,122,282188,2,0,L|318:144,1,93.5000028533936
391,355,282503,2,0,L|256:332,1,93.5000028533936,0|8,0:0|0:0,0:0:0:0:
175,218,282819,1,0,0:0:0:0:
18,375,282977,6,0,B|54:331|54:331|66:177,1,187.000005706787,0|8,0:0|0:0,0:0:0:0:
77,19,283451,1,0,0:0:0:0:
279,43,283609,2,0,L|275:152,1,93.5000028533936
164,329,283924,5,8,0:0:0:0:
164,329,284003,1,0,0:0:0:0:
164,329,284082,2,0,P|222:360|350:309,1,187.000005706787,4|0,0:0|0:0,0:0:0:0:
413,31,284556,2,0,L|407:125,1,93.5000028533936,8|0,0:0|0:0,0:0:0:0:
243,236,284872,2,0,L|237:142,1,93.5000028533936,0|0,0:0|0:0,0:0:0:0:
87,26,285188,2,0,L|81:120,1,93.5000028533936,8|0,0:0|0:0,0:0:0:0:
151,238,285503,6,0,P|197:245|243:236,1,93.5000028533936,0|0,0:0|0:0,0:0:0:0:
295,29,285819,2,0,P|248:22|203:31,1,93.5000028533936,8|0,0:0|0:0,0:0:0:0:
392,296,286135,1,0,0:0:0:0:
250,101,286293,1,0,0:0:0:0:
133,231,286451,1,8,0:0:0:0:
439,225,286609,6,0,B|385:201|346:227|346:227|302:258|262:244,1,187.000005706787,4|0,0:0|0:0,0:0:0:0:
91,332,287082,2,0,P|73:289|76:242,1,93.5000028533936,8|0,0:0|0:0,0:0:0:0:
250,328,287398,1,0,0:0:0:0:
274,84,287556,2,0,P|291:126|288:173,1,93.5000028533936,0|8,0:0|0:0,0:0:0:0:
250,328,287872,2,0,L|346:325,1,93.5000028533936,0|0,0:0|0:0,0:0:0:0:
218,139,288188,2,0,L|124:136,1,93.5000028533936,0|8,0:0|0:0,0:0:0:0:
354,173,288503,1,0,0:0:0:0:
157,309,288661,1,0,0:0:0:0:
261,36,288819,1,0,0:0:0:0:
442,247,288977,5,8,0:0:0:0:
442,247,289056,1,0,0:0:0:0:
442,247,289135,2,0,P|348:288|274:255,1,187.000005706787,4|0,0:0|0:0,0:0:0:0:
166,150,289609,1,8,0:0:0:0:
354,80,289766,2,0,L|355:188,1,93.5000028533936
204,384,290082,2,0,L|204:290,1,93.5000028533936,0|8,0:0|0:0,0:0:0:0:
210,65,290398,2,0,B|138:46|138:46|20:80,1,187.000005706787
91,339,290872,5,8,0:0:0:0:
74,295,290951,1,0,0:0:0:0:
81,250,291030,1,0,0:0:0:0:
110,213,291109,1,0,0:0:0:0:
153,196,291188,5,0,0:0:0:0:
188,196,291266,1,0,0:0:0:0:
222,196,291345,1,0,0:0:0:0:
256,196,291424,1,0,0:0:0:0:
290,195,291503,1,0,0:0:0:0:
324,195,291582,1,0,0:0:0:0:
358,195,291661,2,0,P|453:144|371:49,1,255,4|8,0:0|0:0,0:0:0:0:
262,100,292293,5,0,0:0:0:0:
297,256,292451,2,0,P|350:280|403:278,1,85,0|0,0:0|0:0,0:0:0:0:
227,359,292766,1,8,0:0:0:0:
198,168,292924,2,0,P|145:144|92:146,1,85,0|0,0:0|0:0,0:0:0:0:
127,342,293240,2,0,L|130:226,1,85,0|8,0:0|0:0,0:0:0:0:
200,83,293556,2,0,L|197:199,1,85,0|0,0:0|0:0,0:0:0:0:
272,346,293872,1,0,0:0:0:0:
388,136,294030,1,8,0:0:0:0:
476,333,294188,6,0,P|430:345|391:329,1,85,4|0,0:0|0:0,0:0:0:0:
228,188,294503,2,0,P|274:176|313:192,1,85,0|8,0:0|0:0,0:0:0:0:
175,332,294819,2,0,P|129:344|90:328,1,85,0|0,0:0|0:0,0:0:0:0:
2,122,295135,2,0,P|-10:161|1:202,1,85,0|8,0:0|0:0,0:0:0:0:
246,138,295451,2,0,B|112:162|112:162|138:195,1,170
307,258,295924,5,8,0:0:0:0:
196,43,296082,1,0,0:0:0:0:
178,294,296240,1,0,0:0:0:0:
324,111,296398,1,0,0:0:0:0:
111,167,296556,5,8,0:0:0:0:
111,167,296635,1,8,0:0:0:0:
111,167,296714,2,0,L|113:267,1,85,12|0,0:0|0:0,0:0:0:0:
304,97,297030,2,0,L|302:-3,1,85,0|8,0:0|0:0,0:0:0:0:
241,242,297345,2,0,L|341:240,1,85,0|8,0:0|0:0,0:0:0:0:
171,49,297661,2,0,L|71:51,1,85,0|8,0:0|0:0,0:0:0:0:
154,322,297977,6,0,P|131:241|161:156,1,170,0|0,0:0|0:0,0:0:0:0:
258,312,298451,1,8,0:0:0:0:
30,151,298609,1,0,0:0:0:0:
268,154,298766,1,8,0:0:0:0:
47,314,298924,1,0,0:0:0:0:
155,65,299082,1,8,0:0:0:0:
327,379,299240,6,0,B|360:335|360:335|353:214,1,170,12|0,0:0|0:0,0:0:0:0:
442,50,299714,1,0,0:0:0:0:
442,50,299872,2,0,L|450:154,1,85,0|0,0:0|0:0,0:0:0:0:
268,314,300188,2,0,L|261:229,1,85
242,42,300503,5,0,0:0:0:0:
217,65,300582,1,0,0:0:0:0:
188,82,300661,1,0,0:0:0:0:
155,93,300740,1,0,0:0:0:0:
122,97,300819,1,0,0:0:0:0:
88,94,300898,1,0,0:0:0:0:
56,84,300977,5,0,0:0:0:0:
15,120,301056,1,0,0:0:0:0:
0,172,301135,1,0,0:0:0:0:
14,224,301214,1,0,0:0:0:0:
55,261,301293,1,0,0:0:0:0:
108,271,301372,1,0,0:0:0:0:
159,250,301451,5,0,0:0:0:0:
210,222,301530,1,0,0:0:0:0:
267,231,301609,1,0,0:0:0:0:
307,274,301688,1,0,0:0:0:0:
312,332,301766,6,0,B|271:327|271:327|383:324|389:212,1,220.999989883423,4|0,0:0|0:0,0:0:0:0:
251,131,302240,2,0,B|291:172|291:172|288:235,1,110.499994941712,8|0,0:0|0:0,0:0:0:0:
148,365,302556,2,0,B|108:324|108:324|111:261,1,110.499994941712
166,17,302872,1,8,0:0:0:0:
219,258,303030,1,0,0:0:0:0:
225,85,303188,2,0,B|171:110|112:88|112:88|43:157|78:249|78:249|121:278,1,331.499984825135
74,352,303819,5,0,0:0:0:0:
111,357,303898,1,0,0:0:0:0:
149,337,303977,1,0,0:0:0:0:
189,318,304056,1,0,0:0:0:0:
202,277,304135,6,0,B|237:253|237:253|319:260,1,110.499994941712,8|4,0:0|0:0,0:0:0:0:
447,328,304451,2,0,P|468:271|454:217,1,110.499994941712
406,205,304688,2,0,P|375:143|381:90,1,110.499994941712
408,60,304924,1,0,0:0:0:0:
268,36,305082,6,0,P|211:15|157:28,1,110.499994941712
145,77,305319,2,0,P|83:108|30:102,1,110.499994941712
0,75,305555,1,0,0:0:0:0:
136,277,305714,2,0,B|157:215|157:215|123:140|123:140|139:-1|139:-1|42:33,1,374.000011413575
37,312,306503,5,0,0:0:0:0:
78,330,306582,1,0,0:0:0:0:
109,370,306661,1,8,0:0:0:0:
151,351,306740,1,0,0:0:0:0:
201,358,306819,6,0,B|249:207|249:207|281:272|347:289|401:236,1,331.499984825135,4|8,0:0|0:0,0:0:0:0:
353,79,307451,1,0,0:0:0:0:
353,79,307609,2,0,L|327:210,2,110.499994941712,0|0|8,0:0|0:0|0:0,0:0:0:0:
240,184,308082,1,0,0:0:0:0:
274,12,308240,2,0,B|371:-4|371:-4|444:41|444:41|399:297,1,407.999987548829
491,363,309030,6,0,B|379:378|379:378|286:301,1,220.999989883423,0|4,0:0|0:0,0:0:0:0:
127,173,309503,1,0,0:0:0:0:
85,173,309582,1,0,0:0:0:0:
49,195,309661,1,0,0:0:0:0:
30,232,309740,1,0,0:0:0:0:
32,274,309819,1,8,0:0:0:0:
57,309,309898,1,0,0:0:0:0:
95,326,309977,1,0,0:0:0:0:
137,320,310056,1,0,0:0:0:0:
170,294,310135,5,0,0:0:0:0:
202,267,310214,1,0,0:0:0:0:
241,249,310293,1,0,0:0:0:0:
283,242,310372,1,0,0:0:0:0:
325,245,310451,1,8,0:0:0:0:
365,259,310530,1,0,0:0:0:0:
400,283,310609,1,0,0:0:0:0:
428,315,310688,1,0,0:0:0:0:
446,353,310766,5,0,0:0:0:0:
409,373,310845,1,0,0:0:0:0:
367,376,310924,1,0,0:0:0:0:
327,362,311003,1,0,0:0:0:0:
297,333,311082,1,0,0:0:0:0:
281,294,311161,1,0,0:0:0:0:
282,252,311240,1,0,0:0:0:0:
300,214,311319,1,0,0:0:0:0:
332,186,311398,1,0,0:0:0:0:
372,174,311477,1,0,0:0:0:0:
414,179,311556,5,0,0:0:0:0:
455,183,311635,1,0,0:0:0:0:
488,157,311714,1,8,0:0:0:0:
493,116,311793,1,8,0:0:0:0:
468,83,311872,2,0,B|444:80|444:80|426:83,7,42.5,12|0|0|0|0|0|8|0,0:0|0:0|0:0|0:0|0:0|0:0|0:0|0:0,0:0:0:0:
306,56,312503,5,0,0:0:0:0:
329,95,312582,1,0,0:0:0:0:
329,141,312661,1,8,0:0:0:0:
305,180,312740,1,0,0:0:0:0:
263,201,312819,1,0,0:0:0:0:
217,196,312898,1,0,0:0:0:0:
180,169,312977,5,8,0:0:0:0:
143,141,313056,1,0,0:0:0:0:
97,136,313135,1,0,0:0:0:0:
55,157,313214,1,0,0:0:0:0:
31,196,313293,1,8,0:0:0:0:
30,242,313372,1,0,0:0:0:0:
54,282,313451,5,0,0:0:0:0:
87,315,313530,1,0,0:0:0:0:
130,331,313609,1,8,0:0:0:0:
176,328,313688,1,0,0:0:0:0:
217,306,313766,1,0,0:0:0:0:
244,268,313845,1,0,0:0:0:0:
254,223,313924,5,8,0:0:0:0:
263,177,314003,1,0,0:0:0:0:
290,140,314082,1,0,0:0:0:0:
331,117,314161,1,0,0:0:0:0:
377,114,314240,1,8,0:0:0:0:
420,131,314319,1,0,0:0:0:0:
453,164,314398,5,0,0:0:0:0:
454,202,314477,1,0,0:0:0:0:
455,240,314556,1,12,0:0:0:0:
456,279,314635,1,0,0:0:0:0:
457,317,314714,5,0,0:0:0:0:
461,262,314793,1,0,0:0:0:0:
433,215,314872,1,8,0:0:0:0:
384,192,314951,1,0,0:0:0:0:
331,201,315030,1,0,0:0:0:0:
292,239,315109,1,0,0:0:0:0:
281,292,315188,1,8,0:0:0:0:
303,342,315266,1,0,0:0:0:0:
349,371,315345,5,0,0:0:0:0:
338,317,315424,1,0,0:0:0:0:
304,274,315503,1,8,0:0:0:0:
254,252,315582,1,0,0:0:0:0:
200,255,315661,1,0,0:0:0:0:
152,283,315740,1,0,0:0:0:0:
123,329,315819,5,8,0:0:0:0:
71,312,315898,1,0,0:0:0:0:
31,274,315977,1,0,0:0:0:0:
12,223,316056,1,0,0:0:0:0:
16,168,316135,1,8,0:0:0:0:
44,121,316214,1,0,0:0:0:0:
89,90,316293,1,0,0:0:0:0:
143,82,316372,1,0,0:0:0:0:
196,98,316451,2,0,B|201:131|201:131|192:173,7,55.2499974708558,8|0|0|0|8|0|0|0,0:0|0:0|0:0|0:0|0:0|0:0|0:0|0:0,0:0:0:0:
91,230,317082,5,8,0:0:0:0:
133,264,317161,1,0,0:0:0:0:
186,278,317240,1,0,0:0:0:0:
240,270,317319,1,0,0:0:0:0:
286,239,317398,1,12,0:0:0:0:
331,208,317477,1,0,0:0:0:0:
385,200,317556,1,0,0:0:0:0:
438,214,317635,1,0,0:0:0:0:
481,248,317714,5,8,0:0:0:0:
469,301,317793,1,0,0:0:0:0:
433,342,317872,1,0,0:0:0:0:
382,359,317951,1,0,0:0:0:0:
328,349,318030,1,12,0:0:0:0:
287,313,318109,1,0,0:0:0:0:
269,261,318188,1,0,0:0:0:0:
279,208,318266,1,0,0:0:0:0:
315,166,318345,5,8,0:0:0:0:
286,117,318424,1,0,0:0:0:0:
238,87,318503,1,0,0:0:0:0:
181,81,318582,1,0,0:0:0:0:
128,101,318661,1,8,0:0:0:0:
90,143,318740,1,0,0:0:0:0:
74,198,318819,1,0,0:0:0:0:
85,254,318898,1,0,0:0:0:0:
120,299,318977,5,8,0:0:0:0:
168,328,319056,1,0,0:0:0:0:
224,323,319135,1,0,0:0:0:0:
266,286,319214,1,0,0:0:0:0:
279,231,319293,1,8,0:0:0:0:
291,175,319372,1,0,0:0:0:0:
334,139,319451,1,0,0:0:0:0:
390,134,319530,1,0,0:0:0:0:
438,163,319609,5,12,0:0:0:0:
441,224,319688,1,0,0:0:0:0:
415,280,319766,1,0,0:0:0:0:
367,318,319845,1,0,0:0:0:0:
307,329,319924,1,8,0:0:0:0:
249,313,320003,1,0,0:0:0:0:
204,271,320082,1,0,0:0:0:0:
183,214,320161,1,0,0:0:0:0:
191,153,320240,5,12,0:0:0:0:
256,149,320319,1,0,0:0:0:0:
313,179,320398,1,0,0:0:0:0:
346,235,320477,1,0,0:0:0:0:
343,300,320556,1,8,0:0:0:0:
307,354,320635,1,0,0:0:0:0:
248,381,320714,1,0,0:0:0:0:
183,372,320793,1,0,0:0:0:0:
133,330,320872,6,0,B|124:286|124:286|135:259,1,70.1250006687641,12|0,0:0|0:0,0:0:0:0:
284,31,321030,2,0,B|293:75|293:75|282:102,1,70.1250006687641,8|0,0:0|0:0,0:0:0:0:
427,340,321188,2,0,B|418:296|418:296|429:269,1,70.1250006687641,8|0,0:0|0:0,0:0:0:0:
108,74,321345,2,0,B|152:65|152:65|179:76,1,70.1250006687641,8|0,0:0|0:0,0:0:0:0:
435,177,321503,2,0,B|391:168|391:168|364:179,1,70.1250006687641,8|0,0:0|0:0,0:0:0:0:
133,330,321661,2,0,B|177:321|177:321|204:332,1,70.1250006687641,8|0,0:0|0:0,0:0:0:0:
447,27,321819,2,0,B|456:71|456:71|445:98,1,70.1250006687641,8|0,0:0|0:0,0:0:0:0:
427,340,321977,5,8,0:0:0:0:
68,64,332082,6,0,L|253:56,1,170,0|0,0:0|0:0,0:0:0:0:
362,51,332556,1,8,0:0:0:0:
362,51,332872,5,0,0:0:0:0:
270,170,333030,1,0,0:0:0:0:
443,173,333188,1,8,0:0:0:0:
287,277,333345,2,0,P|177:214|163:153,1,170,0|0,0:0|0:0,0:0:0:0:
232,66,333819,1,8,0:0:0:0:
232,66,334135,5,0,0:0:0:0:
114,244,334293,1,0,0:0:0:0:
50,125,334451,1,8,0:0:0:0:
49,318,334609,2,0,P|127:344|199:304,1,170,0|0,0:0|0:0,0:0:0:0:
281,137,335082,1,8,0:0:0:0:
281,137,335398,6,0,B|297:197|297:197|495:224,1,255,0|0,0:0|0:0,0:0:0:0:
492,363,336030,2,0,B|476:303|476:303|278:276,1,255,0|0,0:0|0:0,0:0:0:0:
134,271,336661,2,0,L|142:215,4,42.5,0|0|0|0|0,0:0|0:0|0:0|0:0|0:0,0:0:0:0:
191,104,337135,1,0,0:0:0:0:
191,104,337293,2,0,B|133:95|133:95|20:135,1,170,0|8,0:0|0:0,0:0:0:0:
28,132,337924,5,0,0:0:0:0:
146,175,338082,1,0,0:0:0:0:
16,263,338240,1,8,0:0:0:0:
279,269,338398,2,0,P|197:336|122:330,1,170,0|0,0:0|0:0,0:0:0:0:
175,228,338872,1,8,0:0:0:0:
175,228,339188,5,0,0:0:0:0:
301,370,339345,1,0,0:0:0:0:
350,194,339503,1,8,0:0:0:0:
464,375,339661,2,0,B|494:326|494:326|496:192,1,187.000005706787,4|0,0:0|0:0,0:0:0:0:
279,38,340135,6,0,P|324:26|380:41,1,93.5000028533936,0|0,0:0|0:0,0:0:0:0:
495,196,340451,2,0,P|450:208|394:193,1,93.5000028533936,0|0,0:0|0:0,0:0:0:0:
220,145,340766,2,0,P|210:190|222:235,1,93.5000028533936,0|0,0:0|0:0,0:0:0:0:
356,384,341082,2,0,P|365:338|353:293,1,93.5000028533936,0|0,0:0|0:0,0:0:0:0:
106,317,341398,5,0,0:0:0:0:
286,343,341556,1,0,0:0:0:0:
220,145,341714,1,0,0:0:0:0:
192,367,341872,1,0,0:0:0:0:
351,192,342030,1,0,0:0:0:0:
55,218,342188,6,0,B|65:146|65:146|49:73|49:73|61:14,1,203.999993774414,12|0,0:0|0:0,0:0:0:0:
190,288,342661,1,0,0:0:0:0:
302,47,342819,1,0,0:0:0:0:
490,244,342977,6,0,B|421:243|421:243|287:170,1,203.999993774414,12|0,0:0|0:0,0:0:0:0:
196,105,343451,1,0,0:0:0:0:
190,288,343609,1,12,0:0:0:0:
302,47,343766,5,0,0:0:0:0:
362,363,343924,1,12,0:0:0:0:
106,45,344082,5,0,0:0:0:0:
92,369,344240,1,8,0:0:0:0:
92,369,344319,1,8,0:0:0:0:
92,369,344398,1,8,0:0:0:0:
92,369,344477,1,8,0:0:0:0:
383,276,347240,6,0,B|323:297|323:297|180:282,1,187.000005706787,4|0,0:0|0:0,0:0:0:0:
64,139,347714,1,8,0:0:0:0:
284,293,347872,1,0,0:0:0:0:
312,174,348030,2,0,P|314:127|291:87,1,93.5000028533936,0|0,0:0|0:0,0:0:0:0:
116,260,348345,2,0,P|113:306|136:346,1,93.5000028533936,8|0,0:0|0:0,0:0:0:0:
353,375,348661,5,0,0:0:0:0:
397,363,348740,1,0,0:0:0:0:
419,324,348819,1,0,0:0:0:0:
406,280,348898,1,0,0:0:0:0:
366,259,348977,1,8,0:0:0:0:
190,284,349135,2,0,L|193:155,1,93.5000028533936,0|0,0:0|0:0,0:0:0:0:
286,84,349451,5,0,0:0:0:0:
243,64,349530,1,0,0:0:0:0:
197,57,349609,1,8,0:0:0:0:
151,62,349688,1,0,0:0:0:0:
107,79,349766,6,0,B|107:148|107:148|84:204|84:204|83:264,1,187.000005706787,4|0,0:0|0:0,0:0:0:0:
81,372,350240,1,8,0:0:0:0:
277,159,350398,1,0,0:0:0:0:
282,370,350556,2,0,L|279:268,1,93.5000028533936,0|0,0:0|0:0,0:0:0:0:
432,95,350872,2,0,L|429:188,1,93.5000028533936,8|0,0:0|0:0,0:0:0:0:
277,201,351188,5,0,0:0:0:0:
468,339,351345,2,0,P|414:342|365:315,1,93.5000028533936,0|8,0:0|0:0,0:0:0:0:
242,111,351661,2,0,P|295:107|344:134,1,93.5000028533936,0|0,0:0|0:0,0:0:0:0:
213,369,351977,2,0,P|209:315|236:266,1,93.5000028533936,0|8,0:0|0:0,0:0:0:0:
385,64,352293,6,0,P|296:28|194:52,1,187.000005706787,4|0,0:0|0:0,0:0:0:0:
169,67,352688,1,0,0:0:0:0:
145,107,352766,1,8,0:0:0:0:
144,153,352845,1,0,0:0:0:0:
165,194,352924,1,0,0:0:0:0:
375,188,353082,1,4,0:0:0:0:
278,133,353240,5,0,0:0:0:0:
268,178,353319,1,0,0:0:0:0:
275,224,353398,1,8,0:0:0:0:
300,263,353477,1,0,0:0:0:0:
337,291,353556,1,0,0:0:0:0:
382,302,353635,1,0,0:0:0:0:
429,296,353714,5,8,0:0:0:0:
403,256,353793,1,8,0:0:0:0:
369,224,353872,1,8,0:0:0:0:
328,203,353951,1,8,0:0:0:0:
283,192,354030,1,8,0:0:0:0:
236,193,354109,1,0,0:0:0:0:
191,206,354188,5,0,0:0:0:0:
170,217,354266,1,0,0:0:0:0:
148,223,354345,1,0,0:0:0:0:
124,225,354424,1,0,0:0:0:0:
102,220,354503,1,0,0:0:0:0:
80,211,354582,1,0,0:0:0:0:
62,197,354661,1,0,0:0:0:0:
47,179,354740,1,0,0:0:0:0:
36,158,354819,6,0,B|68:105|68:105|216:106,1,203.999993774414,4|0,0:0|0:0,0:0:0:0:
445,20,355293,1,8,0:0:0:0:
480,56,355372,1,0,0:0:0:0:
492,105,355451,1,0,0:0:0:0:
479,153,355530,1,0,0:0:0:0:
444,190,355609,5,8,0:0:0:0:
408,226,355688,1,0,0:0:0:0:
396,275,355766,1,0,0:0:0:0:
408,323,355845,1,0,0:0:0:0:
443,360,355924,5,8,0:0:0:0:
411,320,356003,1,0,0:0:0:0:
367,296,356082,1,0,0:0:0:0:
317,291,356161,1,0,0:0:0:0:
268,306,356240,5,8,0:0:0:0:
241,344,356319,1,0,0:0:0:0:
201,367,356398,1,0,0:0:0:0:
155,372,356477,1,0,0:0:0:0:
111,357,356556,1,8,0:0:0:0:
77,326,356635,1,0,0:0:0:0:
59,283,356714,1,0,0:0:0:0:
60,237,356793,1,0,0:0:0:0:
80,195,356872,1,8,0:0:0:0:
116,165,356951,1,0,0:0:0:0:
160,153,357030,6,0,L|250:153,1,46.7500014266968,0|0,0:0|0:0,0:0:0:0:
372,56,357188,2,0,L|326:133,1,46.7500014266968,8|0,0:0|0:0,0:0:0:0:
350,288,357345,2,0,L|305:209,5,46.7500014266968,4|0|8|0|0|0,0:0|0:0|0:0|0:0|0:0|0:0,0:0:0:0:
360,384,357819,5,8,0:0:0:0:
404,360,357898,1,0,0:0:0:0:
433,319,357977,1,0,0:0:0:0:
439,269,358056,1,0,0:0:0:0:
422,221,358135,5,8,0:0:0:0:
403,173,358214,1,0,0:0:0:0:
410,123,358293,1,0,0:0:0:0:
439,82,358372,1,0,0:0:0:0:
483,59,358451,5,8,0:0:0:0:
456,101,358530,1,0,0:0:0:0:
412,125,358609,1,0,0:0:0:0:
361,125,358688,1,0,0:0:0:0:
318,100,358766,5,8,0:0:0:0:
280,73,358845,1,0,0:0:0:0:
234,66,358924,1,0,0:0:0:0:
190,79,359003,1,0,0:0:0:0:
156,110,359082,1,8,0:0:0:0:
139,154,359161,1,0,0:0:0:0:
143,200,359240,1,0,0:0:0:0:
167,240,359319,1,0,0:0:0:0:
206,265,359398,1,8,0:0:0:0:
252,270,359477,1,0,0:0:0:0:
296,255,359556,5,0,0:0:0:0:
276,208,359635,1,0,0:0:0:0:
237,176,359714,1,8,0:0:0:0:
187,167,359793,1,0,0:0:0:0:
139,181,359872,2,0,L|139:240,1,50.9999984436036,4|0,0:0|0:0,0:0:0:0:
351,58,360030,5,8,0:0:0:0:
351,58,360109,1,0,0:0:0:0:
351,58,360188,2,0,L|351:-1,1,50.9999984436036,0|0,0:0|0:0,0:0:0:0:
268,183,360345,5,8,0:0:0:0:
268,183,360424,1,0,0:0:0:0:
268,183,360503,2,0,L|268:242,1,50.9999984436036,0|0,0:0|0:0,0:0:0:0:
453,62,360661,5,8,0:0:0:0:
453,62,360740,1,0,0:0:0:0:
453,62,360819,2,0,L|453:3,1,50.9999984436036,0|0,0:0|0:0,0:0:0:0:
445,260,360977,5,8,0:0:0:0:
445,260,361056,1,0,0:0:0:0:
445,260,361135,2,0,L|386:260,1,50.9999984436036,0|0,0:0|0:0,0:0:0:0:
175,51,361293,5,8,0:0:0:0:
175,51,361372,1,0,0:0:0:0:
175,51,361451,2,0,L|234:51,1,50.9999984436036,0|0,0:0|0:0,0:0:0:0:
185,262,361609,5,8,0:0:0:0:
185,262,361688,1,0,0:0:0:0:
185,262,361766,2,0,L|185:203,1,50.9999984436036,0|0,0:0|0:0,0:0:0:0:
453,62,361924,5,8,0:0:0:0:
453,62,362003,1,0,0:0:0:0:
453,62,362082,2,0,L|453:121,1,50.9999984436036,0|0,0:0|0:0,0:0:0:0:
444,259,362240,5,8,0:0:0:0:
444,259,362319,1,0,0:0:0:0:
444,259,362398,1,4,0:0:0:0:
436,308,362477,1,0,0:0:0:0:
406,348,362556,1,8,0:0:0:0:
359,368,362635,1,0,0:0:0:0:
309,362,362714,1,0,0:0:0:0:
269,333,362793,1,0,0:0:0:0:
248,287,362872,1,8,0:0:0:0:
252,237,362951,1,0,0:0:0:0:
281,195,363030,5,0,0:0:0:0:
305,150,363109,1,0,0:0:0:0:
309,100,363188,1,8,0:0:0:0:
291,53,363266,1,0,0:0:0:0:
255,18,363345,1,0,0:0:0:0:
207,2,363424,1,0,0:0:0:0:
156,7,363503,1,8,0:0:0:0:
114,34,363582,1,0,0:0:0:0:
86,77,363661,1,0,0:0:0:0:
79,127,363740,1,0,0:0:0:0:
94,175,363819,5,8,0:0:0:0:
123,128,363898,1,0,0:0:0:0:
170,100,363977,1,0,0:0:0:0:
225,95,364056,1,0,0:0:0:0:
275,116,364135,1,8,0:0:0:0:
311,157,364214,1,0,0:0:0:0:
325,211,364293,1,0,0:0:0:0:
312,264,364372,1,0,0:0:0:0:
278,306,364451,5,8,0:0:0:0:
211,301,364530,1,8,0:0:0:0:
164,253,364609,1,8,0:0:0:0:
158,186,364688,1,8,0:0:0:0:
198,132,364766,1,8,0:0:0:0:
264,117,364845,1,8,0:0:0:0:
322,149,364924,2,0,B|364:188|364:188|347:304,1,170,10|0,0:0|0:0,0:0:0:0:
186,326,365398,5,8,0:0:0:0:
490,333,365556,1,0,0:0:0:0:
217,56,365714,5,8,0:0:0:0:
344,327,365872,1,0,0:0:0:0:
417,66,366030,5,8,0:0:0:0:
186,326,366188,1,0,0:0:0:0:
423,221,366345,5,8,0:0:0:0:
115,137,366503,1,0,0:0:0:0:
311,356,366661,5,8,0:0:0:0:
273,67,366819,1,0,0:0:0:0:
86,304,366977,5,8,0:0:0:0:
254,230,367135,1,8,0:0:0:0:
422,156,367293,1,8,0:0:0:0:
273,67,367451,6,0,B|278:124|278:124|252:168|252:168|254:237,1,170,10|0,0:0|0:0,0:0:0:0:
270,380,367924,5,8,0:0:0:0:
111,125,368082,1,0,0:0:0:0:
63,351,368240,5,8,0:0:0:0:
330,173,368398,1,0,0:0:0:0:
181,378,368556,5,8,0:0:0:0:
233,83,368714,1,0,0:0:0:0:
440,384,368872,5,8,0:0:0:0:
403,85,369030,1,0,0:0:0:0:
137,210,369188,5,8,0:0:0:0:
473,227,369345,1,0,0:0:0:0:
286,43,369503,5,8,0:0:0:0:
286,43,369582,1,8,0:0:0:0:
286,43,369661,1,8,0:0:0:0:
500,36,369819,1,8,0:0:0:0:
192,171,369977,6,0,B|165:120|165:120|173:-7,1,170,10|0,0:0|0:0,0:0:0:0:
31,204,370451,5,8,0:0:0:0:
323,69,370609,1,0,0:0:0:0:
176,307,370766,5,8,0:0:0:0:
172,7,370924,1,0,0:0:0:0:
370,221,371082,5,8,0:0:0:0:
63,105,371240,1,0,0:0:0:0:
256,340,371398,5,8,0:0:0:0:
323,69,371556,1,0,0:0:0:0:
462,295,371714,5,8,0:0:0:0:
199,145,371872,1,0,0:0:0:0:
330,375,372030,5,8,0:0:0:0:
330,225,372188,1,8,0:0:0:0:
330,75,372345,1,8,0:0:0:0:
69,329,372503,5,4,0:0:0:0:
69,94,373134,1,4,0:0:0:0:
304,94,373766,1,4,0:0:0:0:
304,329,374397,1,4,0:0:0:0:
187,212,374713,5,8,0:0:0:0:
187,212,374792,1,8,0:0:0:0:
187,212,374871,1,8,0:0:0:0:
187,212,374950,1,8,0:0:0:0:
187,212,375029,1,12,0:0:0:0:
170,230,392990,5,8,0:0:0:0:
248,281,393110,1,8,0:0:0:0:
337,252,393230,1,8,0:0:0:0:
369,164,393350,1,8,0:0:0:0:
321,84,393470,1,8,0:0:0:0:
228,72,393590,1,8,0:0:0:0:
161,136,393710,1,8,0:0:0:0:
78,55,393830,6,0,B|47:98|47:98|60:232,1,170,8|0,0:0|0:0,0:0:0:0:
151,334,394190,2,0,L|236:332,1,85,8|0,0:0|0:0,0:0:0:0:
362,199,394430,2,0,L|277:196,1,85,0|0,0:0|0:0,0:0:0:0:
148,74,394670,2,0,L|232:76,1,85,8|0,0:0|0:0,0:0:0:0:
435,259,394910,6,0,B|462:205|444:164|444:164|429:122|451:84,1,170,0|8,0:0|0:0,0:0:0:0:
369,305,395270,1,0,0:0:0:0:
369,305,395390,2,0,P|392:330|445:341,1,85,0|0,0:0|0:0,0:0:0:0:
214,295,395630,1,8,0:0:0:0:
76,356,395750,6,0,P|210:304|219:262,1,170,0|0,0:0|0:0,0:0:0:0:
223,145,396110,2,0,L|306:131,1,85,8|0,0:0|0:0,0:0:0:0:
125,281,396350,2,0,L|33:266,1,85,0|0,0:0|0:0,0:0:0:0:
0,88,396590,2,0,L|83:74,1,85,8|0,0:0|0:0,0:0:0:0:
223,145,396830,6,0,P|268:80|242:0,1,170,0|8,0:0|0:0,0:0:0:0:
175,218,397190,1,0,0:0:0:0:
175,218,397310,2,0,P|214:236|283:203,1,85,0|0,0:0|0:0,0:0:0:0:
280,350,397550,1,8,0:0:0:0:
119,330,397670,6,0,P|197:360|281:350,1,170,0|0,0:0|0:0,0:0:0:0:
392,161,398030,2,0,L|390:265,1,85,8|0,0:0|0:0,0:0:0:0:
209,249,398270,2,0,L|207:164,1,85,0|0,0:0|0:0,0:0:0:0:
336,41,398510,2,0,L|232:39,1,85,8|0,0:0|0:0,0:0:0:0:
67,88,398750,6,0,B|99:131|99:131|90:261,1,170,0|8,0:0|0:0,0:0:0:0:
207,164,399110,1,0,0:0:0:0:
14,328,399230,2,0,P|86:366|171:322,1,170,0|8,0:0|0:0,0:0:0:0:
355,169,399590,2,0,P|283:131|198:175,1,170,0|0,0:0|0:0,0:0:0:0:
468,302,399950,2,0,L|458:208,1,85,8|0,0:0|0:0,0:0:0:0:
281,212,400190,2,0,L|272:296,1,85,0|0,0:0|0:0,0:0:0:0:
131,274,400430,2,0,L|46:265,1,85,8|0,0:0|0:0,0:0:0:0:
52,106,400670,2,0,L|136:97,1,85,0|0,0:0|0:0,0:0:0:0:
328,155,400910,2,0,L|320:71,1,85,8|0,0:0|0:0,0:0:0:0:
253,285,401150,5,8,0:0:0:0:
409,245,401270,1,8,0:0:0:0:
328,155,401390,1,8,0:0:0:0:
433,321,401510,6,0,P|486:261|429:166,1,170,12|0,0:0|0:0,0:0:0:0:
410,72,401870,2,0,P|370:88|346:124,1,85,8|0,0:0|0:0,0:0:0:0:
326,314,402110,2,0,P|332:271|312:232,1,85,0|0,0:0|0:0,0:0:0:0:
163,123,402350,2,0,P|196:149|240:152,1,85,8|0,0:0|0:0,0:0:0:0:
266,383,402590,6,0,B|311:347|311:347|316:216,1,170,0|8,0:0|0:0,0:0:0:0:
136,226,402950,1,0,0:0:0:0:
136,226,403070,2,0,L|132:321,1,85,0|0,0:0|0:0,0:0:0:0:
65,87,403310,1,8,0:0:0:0:
220,96,403430,6,0,P|135:61|56:96,1,170,0|0,0:0|0:0,0:0:0:0:
279,174,403790,2,0,P|314:134|318:102,1,85,8|0,0:0|0:0,0:0:0:0:
138,146,404030,2,0,P|103:186|99:218,1,85,0|0,0:0|0:0,0:0:0:0:
164,371,404270,2,0,P|199:331|203:299,1,85,8|0,0:0|0:0,0:0:0:0:
345,221,404510,6,0,P|334:304|377:376,1,170,0|8,0:0|0:0,0:0:0:0:
178,161,404870,1,0,0:0:0:0:
178,161,404990,2,0,P|188:78|146:6,1,170,0|8,0:0|0:0,0:0:0:0:
50,196,405350,1,0,0:0:0:0:
50,196,405470,6,0,L|65:101,1,85,0|0,0:0|0:0,0:0:0:0:
141,285,405710,2,0,L|126:380,1,85,8|0,0:0|0:0,0:0:0:0:
313,208,405950,6,0,L|229:194,1,85,0|0,0:0|0:0,0:0:0:0:
402,117,406190,2,0,L|497:132,1,85,8|0,0:0|0:0,0:0:0:0:
410,384,406430,6,0,L|493:370,1,85,0|0,0:0|0:0,0:0:0:0:
321,293,406670,2,0,L|226:308,1,85,8|0,0:0|0:0,0:0:0:0:
241,92,406910,6,0,L|324:105,1,85,0|0,0:0|0:0,0:0:0:0:
163,190,407150,1,8,0:0:0:0:
35,315,407270,6,0,B|60:263|41:220|41:220|24:177|56:130,1,187.000005706787,0|0,0:0|0:0,0:0:0:0:
125,34,407630,2,0,P|154:69|161:114,1,93.5000028533936,8|0,0:0|0:0,0:0:0:0:
210,344,407870,2,0,P|180:308|173:263,1,93.5000028533936,0|0,0:0|0:0,0:0:0:0:
346,131,408110,2,0,P|310:160|265:167,1,93.5000028533936,8|0,0:0|0:0,0:0:0:0:
0,227,408350,2,0,P|35:197|80:190,1,93.5000028533936,0|0,0:0|0:0,0:0:0:0:
290,307,408590,2,0,P|254:336|209:343,1,93.5000028533936,8|0,0:0|0:0,0:0:0:0:
218,80,408830,2,0,P|267:81|356:193,1,187.000005706787,0|8,0:0|0:0,0:0:0:0:
221,267,409190,5,0,0:0:0:0:
429,120,409310,2,0,L|335:192,1,93.5000028533936,8|0,0:0|0:0,0:0:0:0:
221,267,409550,1,0,0:0:0:0:
265,16,409670,2,0,L|250:133,1,93.5000028533936,8|0,0:0|0:0,0:0:0:0:
221,267,409910,1,0,0:0:0:0:
74,58,410030,2,0,L|146:151,1,93.5000028533936,8|0,0:0|0:0,0:0:0:0:
221,267,410270,5,8,0:0:0:0:
11,272,410390,1,8,0:0:0:0:
131,131,410510,1,8,0:0:0:0:
131,368,410630,1,8,0:0:0:0:
310,138,410750,1,8,0:0:0:0:
310,138,411110,6,0,B|321:205|321:205|302:282|302:282|312:355,1,203.999993774414,2|0,0:0|0:0,0:0:0:0:
489,250,411470,2,0,P|445:283|392:279,1,101.999996887207,8|0,0:0|0:0,0:0:0:0:
246,97,411710,2,0,P|290:64|343:68,1,101.999996887207,0|0,0:0|0:0,0:0:0:0:
191,264,411950,1,8,0:0:0:0:
101,128,412070,1,0,0:0:0:0:
103,326,412190,6,0,P|167:366|283:319,1,203.999993774414,0|8,0:0|0:0,0:0:0:0:
430,168,412550,1,0,0:0:0:0:
398,344,412670,1,0,0:0:0:0:
313,228,412790,1,0,0:0:0:0:
512,272,412910,1,8,0:0:0:0:
469,87,413030,6,0,B|422:66|371:93|371:93|321:122|263:98,1,203.999993774414,0|0,0:0|0:0,0:0:0:0:
81,32,413390,2,0,P|59:91|72:138,1,101.999996887207,8|0,0:0|0:0,0:0:0:0:
187,373,413630,2,0,P|209:314|196:267,1,101.999996887207,0|0,0:0|0:0,0:0:0:0:
272,101,413870,2,0,L|170:96,1,101.999996887207,8|0,0:0|0:0,0:0:0:0:
382,293,414110,2,0,L|484:289,1,101.999996887207,0|0,0:0|0:0,0:0:0:0:
201,277,414350,2,0,L|205:378,1,101.999996887207,8|0,0:0|0:0,0:0:0:0:
26,343,414590,5,0,0:0:0:0:
312,196,414710,1,0,0:0:0:0:
21,162,414830,5,8,0:0:0:0:
21,162,414890,1,0,0:0:0:0:
21,162,414950,2,0,P|109:183|184:105,1,203.999993774414,0|0,0:0|0:0,0:0:0:0:
96,0,415310,2,0,L|91:104,1,101.999996887207,8|0,0:0|0:0,0:0:0:0:
295,120,415550,2,0,L|300:16,1,101.999996887207
183,109,415790,1,8,0:0:0:0:
169,303,415910,6,0,P|80:344|0:289,1,203.999993774414,0|0,0:0|0:0,0:0:0:0:
250,186,416270,2,0,P|287:223|300:287,1,101.999996887207,8|0,0:0|0:0,0:0:0:0:
398,374,416510,1,0,0:0:0:0:
500,172,416630,1,0,0:0:0:0:
151,170,416750,5,8,0:0:0:0:
151,170,416810,1,0,0:0:0:0:
151,170,416870,2,0,P|237:104|334:144,1,203.999993774414,0|0,0:0|0:0,0:0:0:0:
123,379,417230,2,0,L|132:270,1,101.999996887207,8|0,0:0|0:0,0:0:0:0:
250,186,417470,1,0,0:0:0:0:
307,365,417590,1,0,0:0:0:0:
55,322,417710,1,8,0:0:0:0:
322,79,417830,6,0,B|262:61|262:61|122:82,1,203.999993774414,0|0,0:0|0:0,0:0:0:0:
210,265,418190,5,8,0:0:0:0:
210,265,418250,1,8,0:0:0:0:
210,265,418310,1,8,0:0:0:0:
361,286,418430,1,8,0:0:0:0:
237,139,418550,1,8,0:0:0:0:
101,329,418670,1,8,0:0:0:0:
71,66,418790,6,0,P|116:127|253:129,1,203.999993774414,12|0,0:0|0:0,0:0:0:0:
447,102,419150,2,0,L|450:0,1,101.999996887207,8|0,0:0|0:0,0:0:0:0:
236,138,419390,2,0,L|240:240,1,101.999996887207,0|0,0:0|0:0,0:0:0:0:
102,220,419630,1,8,0:0:0:0:
242,52,419750,1,0,0:0:0:0:
329,295,419870,6,0,P|242:340|158:291,1,203.999993774414,0|8,0:0|0:0,0:0:0:0:
134,88,420230,1,0,0:0:0:0:
12,301,420350,1,0,0:0:0:0:
233,186,420470,1,0,0:0:0:0:
6,157,420590,1,8,0:0:0:0:
214,384,420710,6,0,B|237:345|237:345|233:179,1,203.999993774414,0|0,0:0|0:0,0:0:0:0:
468,270,421070,2,0,P|433:287|343:259,1,101.999996887207,8|0,0:0|0:0,0:0:0:0:
177,120,421310,2,0,P|212:103|302:131,1,101.999996887207,0|0,0:0|0:0,0:0:0:0:
396,50,421550,2,0,P|413:85|385:175,1,101.999996887207,8|0,0:0|0:0,0:0:0:0:
246,341,421790,2,0,P|229:306|257:216,1,101.999996887207,0|0,0:0|0:0,0:0:0:0:
468,270,422030,2,0,P|433:287|343:259,1,101.999996887207,8|0,0:0|0:0,0:0:0:0:
233,172,422270,5,0,0:0:0:0:
396,50,422390,1,0,0:0:0:0:
292,338,422510,5,8,0:0:0:0:
292,338,422570,1,0,0:0:0:0:
292,338,422630,2,0,B|270:276|300:228|300:228|335:182|311:129,1,203.999993774414,0|0,0:0|0:0,0:0:0:0:
192,98,422990,1,8,0:0:0:0:
188,285,423110,1,0,0:0:0:0:
470,285,423230,6,0,L|335:291,1,101.999996887207,0|0,0:0|0:0,0:0:0:0:
115,202,423470,1,8,0:0:0:0:
126,384,423590,6,0,P|81:280|134:187,1,203.999993774414,0|0,0:0|0:0,0:0:0:0:
342,70,423950,2,0,L|216:73,1,101.999996887207,8|0,0:0|0:0,0:0:0:0:
170,285,424190,1,0,0:0:0:0:
81,81,424310,1,0,0:0:0:0:
343,266,424430,5,8,0:0:0:0:
343,266,424490,1,0,0:0:0:0:
343,266,424550,2,0,B|368:202|368:202|340:63,1,203.999993774414,0|0,0:0|0:0,0:0:0:0:
196,114,424910,2,0,L|215:215,1,101.999996887207,8|0,0:0|0:0,0:0:0:0:
64,269,425150,2,0,L|46:169,1,101.999996887207,0|0,0:0|0:0,0:0:0:0:
369,346,425390,2,0,L|269:365,1,101.999996887207,8|0,0:0|0:0,0:0:0:0:
214,214,425630,2,0,L|315:196,1,101.999996887207,0|0,0:0|0:0,0:0:0:0:
497,144,425870,5,8,0:0:0:0:
270,281,425990,1,8,0:0:0:0:
512,282,426110,1,8,0:0:0:0:
272,124,426230,1,8,0:0:0:0:
390,322,426350,1,8,0:0:0:0:
392,45,426470,6,0,B|340:62|340:62|285:19|220:46,1,170,8|0,0:0|0:0,0:0:0:0:
116,118,426830,2,0,L|111:203,1,85,8|0,0:0|0:0,0:0:0:0:
269,375,427070,2,0,L|264:291,1,85,0|0,0:0|0:0,0:0:0:0:
97,364,427310,1,8,0:0:0:0:
415,231,427430,6,0,B|362:222|328:252|328:252|307:211|241:213,1,170,0|0,0:0|0:0,0:0:0:0:
355,8,427790,2,0,P|364:62|335:115,1,85,8|0,0:0|0:0,0:0:0:0:
190,255,428030,2,0,P|181:201|210:148,1,85,0|0,0:0|0:0,0:0:0:0:
74,97,428270,1,8,0:0:0:0:
70,313,428390,6,0,B|110:329|110:329|138:317|138:317|184:352|233:324,1,170,0|0,0:0|0:0,0:0:0:0:
443,79,428750,2,0,L|441:184,1,85,8|0,0:0|0:0,0:0:0:0:
364,377,428990,2,0,L|366:272,1,85,0|0,0:0|0:0,0:0:0:0:
292,75,429230,1,8,0:0:0:0:
492,221,429350,6,0,B|446:249|404:227|404:227|370:207|326:225,1,170,0|0,0:0|0:0,0:0:0:0:
186,353,429710,2,0,P|160:317|158:266,1,85,8|0,0:0|0:0,0:0:0:0:
279,104,429950,1,0,0:0:0:0:
165,160,430070,1,0,0:0:0:0:
162,36,430190,1,8,0:0:0:0:
100,384,430310,6,0,P|72:293|96:205,1,170,0|0,0:0|0:0,0:0:0:0:
376,205,430670,2,0,L|266:212,1,85,8|0,0:0|0:0,0:0:0:0:
294,352,430910,2,0,L|378:357,1,85,0|0,0:0|0:0,0:0:0:0:
469,188,431150,1,8,0:0:0:0:
173,279,431270,6,0,B|195:263|224:266|224:266|189:213|228:144,1,170
455,52,431630,2,0,P|398:40|350:55,1,85,8|0,0:0|0:0,0:0:0:0:
289,209,431870,2,0,P|346:221|394:206,1,85,0|0,0:0|0:0,0:0:0:0:
176,57,432110,1,8,0:0:0:0:
173,279,432230,6,0,B|111:279|111:279|59:239|59:239|6:237,1,170
255,333,432590,2,0,P|273:294|270:252,1,85,8|0,0:0|0:0,0:0:0:0:
166,56,432830,2,0,P|148:117|163:159,1,85,0|0,0:0|0:0,0:0:0:0:
346,103,433070,1,8,0:0:0:0:
504,341,433190,6,0,B|458:318|458:318|431:262|456:196,1,170,0|8,0:0|0:0,0:0:0:0:
250,119,433550,1,8,0:0:0:0:
180,329,433670,1,8,0:0:0:0:
365,198,433790,1,8,0:0:0:0:
138,200,433910,1,8,0:0:0:0:
315,329,434030,1,8,0:0:0:0:
328,71,434150,6,0,P|242:33|171:71,1,170,12|0,0:0|0:0,0:0:0:0:
104,324,434510,2,0,L|113:207,1,85,8|0,0:0|0:0,0:0:0:0:
252,112,434750,2,0,L|258:196,1,85
450,350,434990,1,8,0:0:0:0:
210,253,435110,6,0,B|258:282|298:258|298:258|334:234|385:259,1,170,0|0,0:0|0:0,0:0:0:0:
486,121,435470,2,0,P|447:123|402:145,1,85,8|0,0:0|0:0,0:0:0:0:
257,343,435710,2,0,P|296:341|341:319,1,85,0|0,0:0|0:0,0:0:0:0:
208,126,435950,1,8,0:0:0:0:
125,345,436070,6,0,B|66:324|66:324|106:271|71:214,1,170,0|0,0:0|0:0,0:0:0:0:
32,143,436430,2,0,P|73:134|114:146,1,85,8|0,0:0|0:0,0:0:0:0:
283,312,436670,2,0,P|241:321|201:309,1,85,0|0,0:0|0:0,0:0:0:0:
265,80,436910,1,8,0:0:0:0:
245,244,437030,6,0,B|270:201|270:201|265:54,1,170,0|0,0:0|0:0,0:0:0:0:
449,74,437390,2,0,L|453:186,1,85,8|0,0:0|0:0,0:0:0:0:
186,173,437630,1,8,0:0:0:0:
357,36,437750,1,8,0:0:0:0:
362,280,437870,1,8,0:0:0:0:
116,221,437990,6,0,P|193:249|266:209,1,170,12|0,0:0|0:0,0:0:0:0:
203,52,438350,1,8,0:0:0:0:
186,173,438470,1,0,0:0:0:0:
6,31,438590,6,0,L|104:41,1,85,0|0,0:0|0:0,0:0:0:0:
2,142,438830,2,0,L|100:152,1,85,8|0,0:0|0:0,0:0:0:0:
340,269,439070,6,0,L|242:259,1,85,0|0,0:0|0:0,0:0:0:0:
336,380,439310,2,0,L|238:370,1,85,8|0,0:0|0:0,0:0:0:0:
64,369,439550,2,0,P|14:292|54:209,1,170,0|8,0:0|0:0,0:0:0:0:
96,99,439910,1,0,0:0:0:0:
97,286,440030,6,0,P|140:292|181:278,1,85,0|0,0:0|0:0,0:0:0:0:
128,200,440270,2,0,P|168:183|196:151,1,85,8|0,0:0|0:0,0:0:0:0:
403,155,440510,6,0,P|360:160|319:146,1,85,0|0,0:0|0:0,0:0:0:0:
371,69,440750,2,0,P|331:52|302:19,1,85,8|0,0:0|0:0,0:0:0:0:
268,237,440990,6,0,P|262:279|276:320,1,85,0|0,0:0|0:0,0:0:0:0:
354,269,441230,2,0,P|370:308|403:337,1,85,8|0,0:0|0:0,0:0:0:0:
187,183,441470,2,0,P|165:264|189:353,1,170,0|8,0:0|0:0,0:0:0:0:
23,248,441830,1,0,0:0:0:0:
246,123,441950,6,0,P|203:102|141:103,1,85,0|0,0:0|0:0,0:0:0:0:
333,101,442190,2,0,P|302:63|246:38,1,85,8|0,0:0|0:0,0:0:0:0:
293,270,442430,6,0,P|336:291|398:290,1,85,0|0,0:0|0:0,0:0:0:0:
206,292,442670,2,0,P|236:329|292:354,1,85,8|0,0:0|0:0,0:0:0:0:
85,194,442910,6,0,P|64:237|65:299,1,85,0|0,0:0|0:0,0:0:0:0:
63,107,443150,2,0,P|25:137|0:193,1,85,8|0,0:0|0:0,0:0:0:0:
239,87,443390,6,0,P|260:44|259:-18,1,85,0|0,0:0|0:0,0:0:0:0:
261,174,443630,2,0,P|298:143|323:87,1,85,8|0,0:0|0:0,0:0:0:0:
148,279,443870,5,0,0:0:0:0:
176,318,443950,1,0,0:0:0:0:
218,345,444030,1,0,0:0:0:0:
266,353,444110,1,0,0:0:0:0:
316,345,444190,1,0,0:0:0:0:
356,317,444270,1,0,0:0:0:0:
385,276,444350,5,0,0:0:0:0:
346,278,444430,1,0,0:0:0:0:
313,259,444510,1,0,0:0:0:0:
295,224,444590,1,0,0:0:0:0:
298,185,444670,1,0,0:0:0:0:
322,154,444750,1,0,0:0:0:0:
359,141,444830,5,0,0:0:0:0:
332,121,444910,1,0,0:0:0:0:
301,107,444990,1,0,0:0:0:0:
268,100,445070,1,0,0:0:0:0:
234,101,445150,1,0,0:0:0:0:
201,109,445230,1,0,0:0:0:0:
171,124,445310,5,0,0:0:0:0:
171,152,445390,1,0,0:0:0:0:
171,181,445470,1,0,0:0:0:0:
171,209,445550,1,0,0:0:0:0:
172,235,445630,6,0,B|216:258|216:258|374:249,1,198.333333333333,4|0,0:0|0:0,0:0:0:0:
358,154,446030,1,8,0:0:0:0:
373,334,446150,2,0,L|267:341,1,85,0|0,0:0|0:0,0:0:0:0:
273,159,446390,2,0,L|357:153,1,85,0|8,0:0|0:0,0:0:0:0:
92,174,446630,2,0,L|85:68,1,85,0|0,0:0|0:0,0:0:0:0:
267,74,446870,2,0,L|272:158,1,85,0|8,0:0|0:0,0:0:0:0:
28,226,447110,6,0,P|82:252|181:187,1,170,0|0,0:0|0:0,0:0:0:0:
244,2,447470,1,8,0:0:0:0:
272,158,447590,6,0,P|249:126|193:106,1,85,0|0,0:0|0:0,0:0:0:0:
233,293,447830,2,0,P|255:324|311:344,1,85,0|8,0:0|0:0,0:0:0:0:
311,252,448070,2,0,P|342:229|362:173,1,85,0|0,0:0|0:0,0:0:0:0:
197,195,448310,2,0,P|165:217|145:273,1,85,0|8,0:0|0:0,0:0:0:0:
18,336,448550,6,0,B|63:313|100:343|100:343|138:373|200:341,1,170,0|0,0:0|0:0,0:0:0:0:
354,288,448910,1,8,0:0:0:0:
365,384,449030,2,0,P|401:375|437:341,1,85,0|0,0:0|0:0,0:0:0:0:
349,195,449270,2,0,P|312:203|276:237,1,85,0|8,0:0|0:0,0:0:0:0:
444,235,449510,6,0,P|444:155|369:98,1,170,0|0,0:0|0:0,0:0:0:0:
121,110,449870,2,0,L|207:107,1,85,8|0,0:0|0:0,0:0:0:0:
117,220,450110,2,0,L|32:222,1,85,0|0,0:0|0:0,0:0:0:0:
122,330,450350,2,0,L|208:327,1,85,8|0,0:0|0:0,0:0:0:0:
409,202,450590,6,0,B|429:252|429:252|414:367,1,170,0|8,0:0|0:0,0:0:0:0:
313,66,450950,1,0,0:0:0:0:
215,367,451070,2,0,B|200:251|200:251|220:201,1,170,0|8,0:0|0:0,0:0:0:0:
107,192,451430,5,0,0:0:0:0:
233,67,451550,1,0,0:0:0:0:
112,63,451670,1,0,0:0:0:0:
220,201,451790,2,0,L|322:191,1,85,8|0,0:0|0:0,0:0:0:0:
464,306,452030,2,0,L|362:296,1,93.5000028533936,0|0,0:0|0:0,0:0:0:0:
196,132,452270,2,0,L|298:122,1,101.999996887207,8|0,0:0|0:0,0:0:0:0:
477,380,452510,2,0,L|367:369,1,110.499994941712,0|0,0:0|0:0,0:0:0:0:
113,179,452750,5,8,0:0:0:0:
355,241,452870,1,0,0:0:0:0:
151,312,452990,1,8,0:0:0:0:
297,122,453110,1,8,0:0:0:0:
278,355,453230,1,8,0:0:0:0:
160,80,453350,6,0,B|193:122|193:122|200:187|200:187|228:229,1,170,12|0,0:0|0:0,0:0:0:0:
468,196,453710,1,8,0:0:0:0:
470,310,453830,2,0,P|428:322|373:310,1,85,0|0,0:0|0:0,0:0:0:0:
277,151,454070,2,0,P|319:139|374:151,1,85,0|8,0:0|0:0,0:0:0:0:
111,261,454310,2,0,P|99:219|111:164,1,85,0|0,0:0|0:0,0:0:0:0:
270,68,454550,2,0,P|282:110|270:165,1,85,0|8,0:0|0:0,0:0:0:0:
181,333,454790,6,0,B|125:352|125:352|4:335,1,170,0|0,0:0|0:0,0:0:0:0:
56,87,455150,1,8,0:0:0:0:
116,272,455270,2,0,L|16:257,1,85,0|0,0:0|0:0,0:0:0:0:
40,175,455510,2,0,L|124:187,1,85,0|8,0:0|0:0,0:0:0:0:
279,201,455750,2,0,L|294:101,1,85,0|0,0:0|0:0,0:0:0:0:
376,125,455990,2,0,L|363:209,1,85,0|8,0:0|0:0,0:0:0:0:
346,355,456230,6,0,P|428:348|486:288,1,170,0|0,0:0|0:0,0:0:0:0:
291,116,456590,1,8,0:0:0:0:
486,95,456710,2,0,L|401:107,1,85,0|0,0:0|0:0,0:0:0:0:
301,253,456950,2,0,L|401:268,1,85,0|8,0:0|0:0,0:0:0:0:
225,67,457190,6,0,P|145:90|113:165,1,170,0|0,0:0|0:0,0:0:0:0:
385,265,457550,2,0,P|394:217|374:165,1,85,8|0,0:0|0:0,0:0:0:0:
233,183,457790,2,0,P|270:214|325:223,1,85,0|0,0:0|0:0,0:0:0:0:
381,92,458030,2,0,P|334:108|299:151,1,85,8|0,0:0|0:0,0:0:0:0:
385,379,458270,6,0,B|327:377|327:377|269:349|269:349|202:344,1,170,0|8,0:0|0:0,0:0:0:0:
26,271,458630,1,0,0:0:0:0:
383,170,458750,2,0,B|325:172|325:172|267:200|267:200|200:205,1,170,0|8,0:0|0:0,0:0:0:0:
209,4,459110,5,0,0:0:0:0:
70,37,459230,1,8,0:0:0:0:
240,125,459350,1,0,0:0:0:0:
100,180,459470,2,0,P|96:223|125:279,1,85,0|8,0:0|0:0,0:0:0:0:
259,373,459710,2,0,P|263:330|234:274,1,85,0|0,0:0|0:0,0:0:0:0:
277,194,459950,2,0,P|234:190|178:219,1,85,8|0,0:0|0:0,0:0:0:0:
84,356,460190,2,0,P|127:360|183:331,1,85,8|8,0:0|0:0,0:0:0:0:
354,167,460430,5,8,0:0:0:0:
108,121,460550,1,8,0:0:0:0:
272,298,460670,1,8,0:0:0:0:
244,55,460790,1,8,0:0:0:0:
105,248,460910,1,8,0:0:0:0:
369,74,461030,6,0,P|437:121|450:202,1,170,12|0,0:0|0:0,0:0:0:0:
227,362,461390,2,0,L|222:278,1,85,8|0,0:0|0:0,0:0:0:0:
348,251,461630,2,0,L|354:163,1,85,0|0,0:0|0:0,0:0:0:0:
210,115,461870,2,0,L|205:31,1,85,8|0,0:0|0:0,0:0:0:0:
28,18,462110,6,0,B|53:63|53:63|61:181,1,170,0|8,0:0|0:0,0:0:0:0:
113,275,462470,1,0,0:0:0:0:
113,275,462590,2,0,P|72:291|3:280,1,85,0|0,0:0|0:0,0:0:0:0:
210,115,462830,1,8,0:0:0:0:
289,276,462950,6,0,P|381:285|477:242,1,170,0|0,0:0|0:0,0:0:0:0:
356,15,463310,2,0,L|272:29,1,85,8|0,0:0|0:0,0:0:0:0:
273,183,463550,2,0,L|364:199,1,85,0|0,0:0|0:0,0:0:0:0:
188,78,463790,2,0,P|180:120|197:167,1,85,8|0,0:0|0:0,0:0:0:0:
445,103,464030,6,0,L|261:109,1,170,0|8,0:0|0:0,0:0:0:0:
107,162,464390,1,0,0:0:0:0:
107,162,464510,2,0,L|202:159,1,85,0|0,0:0|0:0,0:0:0:0:
70,296,464750,1,8,0:0:0:0:
240,288,464870,6,0,L|39:298,1,170,0|0,0:0|0:0,0:0:0:0:
321,336,465230,2,0,P|337:287|312:224,1,85,8|0,0:0|0:0,0:0:0:0:
332,160,465470,2,0,P|281:170|239:223,1,85,0|0,0:0|0:0,0:0:0:0:
175,238,465710,2,0,P|209:276|276:286,1,85,8|0,0:0|0:0,0:0:0:0:
451,197,465950,6,0,B|470:240|470:240|460:375,1,170,0|8,0:0|0:0,0:0:0:0:
240,287,466310,1,0,0:0:0:0:
512,129,466430,2,0,P|443:101|359:166,1,170,0|8,0:0|0:0,0:0:0:0:
94,307,466790,2,0,P|162:334|246:269,1,170,0|0,0:0|0:0,0:0:0:0:
35,70,467150,2,0,L|39:183,1,85,8|0,0:0|0:0,0:0:0:0:
161,247,467390,2,0,L|164:162,1,85,0|0,0:0|0:0,0:0:0:0:
277,59,467630,2,0,L|281:172,1,85,8|0,0:0|0:0,0:0:0:0:
405,235,467870,2,0,L|408:150,1,85,0|0,0:0|0:0,0:0:0:0:
287,357,468110,2,0,L|284:273,1,85,8|0,0:0|0:0,0:0:0:0:
164,352,468350,5,8,0:0:0:0:
411,342,468470,1,8,0:0:0:0:
202,209,468590,1,8,0:0:0:0:
358,203,468710,6,0,P|268:178|198:213,1,170,12|0,0:0|0:0,0:0:0:0:
182,118,469070,2,0,L|176:33,1,85,8|0,0:0|0:0,0:0:0:0:
284,273,469310,2,0,L|278:357,1,85,0|0,0:0|0:0,0:0:0:0:
375,117,469550,2,0,L|369:26,1,85,8|0,0:0|0:0,0:0:0:0:
117,277,469790,6,0,B|176:259|176:259|308:276,1,170,0|8,0:0|0:0,0:0:0:0:
32,246,470150,1,0,0:0:0:0:
32,246,470270,2,0,P|24:283|48:339,1,85,0|0,0:0|0:0,0:0:0:0:
161,16,470510,1,8,0:0:0:0:
150,176,470630,6,0,P|180:100|146:-6,1,170,0|0,0:0|0:0,0:0:0:0:
298,8,470990,2,0,L|400:2,1,85,8|0,0:0|0:0,0:0:0:0:
89,95,471230,2,0,L|4:90,1,85,0|0,0:0|0:0,0:0:0:0:
299,193,471470,2,0,L|401:187,1,85,8|0,0:0|0:0,0:0:0:0:
194,324,471710,6,0,P|126:261|137:172,1,170,0|8,0:0|0:0,0:0:0:0:
384,189,472070,1,0,0:0:0:0:
384,189,472190,2,0,P|381:271|318:324,1,170,0|8,0:0|0:0,0:0:0:0:
288,46,472550,1,0,0:0:0:0:
212,152,472670,6,0,L|330:133,1,85,0|0,0:0|0:0,0:0:0:0:
222,241,472910,2,0,L|340:222,1,85,8|0,0:0|0:0,0:0:0:0:
499,290,473150,6,0,L|381:271,1,85,0|0,0:0|0:0,0:0:0:0:
489,379,473390,2,0,L|371:360,1,85,8|0,0:0|0:0,0:0:0:0:
208,324,473630,6,0,L|227:206,1,85,0|0,0:0|0:0,0:0:0:0:
67,308,473870,2,0,L|86:190,1,85,8|0,0:0|0:0,0:0:0:0:
185,18,474110,6,0,L|166:136,1,85,0|0,0:0|0:0,0:0:0:0:
322,34,474350,1,8,0:0:0:0:
32,169,474470,6,0,B|107:166|107:166|163:207|227:175,1,187.000005706787,0|0,0:0|0:0,0:0:0:0:
341,346,474830,2,0,P|366:298|352:234,1,93.5000028533936,8|0,0:0|0:0,0:0:0:0:
194,15,475070,2,0,P|169:63|183:127,1,93.5000028533936,0|0,0:0|0:0,0:0:0:0:
99,255,475310,2,0,P|147:280|211:266,1,93.5000028533936,8|0,0:0|0:0,0:0:0:0:
431,111,475550,2,0,P|383:86|319:100,1,93.5000028533936,0|0,0:0|0:0,0:0:0:0:
341,346,475790,2,0,P|366:298|352:234,1,93.5000028533936,8|0,0:0|0:0,0:0:0:0:
194,15,476030,2,0,B|155:59|155:59|149:206,1,187.000005706787,0|8,0:0|0:0,0:0:0:0:
321,95,476390,1,0,0:0:0:0:
35,260,476510,5,0,0:0:0:0:
66,293,476590,1,0,0:0:0:0:
109,311,476670,1,0,0:0:0:0:
156,313,476750,1,0,0:0:0:0:
200,299,476830,1,0,0:0:0:0:
236,269,476910,1,0,0:0:0:0:
258,229,476990,5,0,0:0:0:0:
280,188,477070,1,0,0:0:0:0:
316,158,477150,1,0,0:0:0:0:
360,143,477230,1,0,0:0:0:0:
406,146,477310,1,0,0:0:0:0:
449,165,477390,1,0,0:0:0:0:
481,198,477470,5,8,0:0:0:0:
481,219,477530,1,8,0:0:0:0:
481,240,477590,1,8,0:0:0:0:
482,261,477650,1,8,0:0:0:0:
482,282,477710,1,8,0:0:0:0:
482,304,477770,1,8,0:0:0:0:
483,325,477830,1,8,0:0:0:0:
483,346,477890,1,8,0:0:0:0:
483,367,477950,2,0,L|398:361,1,85,8|0,0:0|0:0,0:0:0:0:
207,383,478310,6,0,B|190:333|210:290|210:290|232:250|221:208|221:208|203:226,1,203.999993774414,2|0,0:0|0:0,0:0:0:0:
177,122,478670,2,0,P|222:109|275:125,1,101.999996887207,8|0,0:0|0:0,0:0:0:0:
388,348,478910,2,0,P|342:360|289:344,1,101.999996887207,0|0,0:0|0:0,0:0:0:0:
512,109,479150,1,8,0:0:0:0:
342,280,479270,1,0,0:0:0:0:
329,52,479390,6,0,B|364:95|364:95|515:109,1,203.999993774414,0|8,0:0|0:0,0:0:0:0:
170,142,479750,1,0,0:0:0:0:
302,162,479870,1,0,0:0:0:0:
240,32,479990,1,0,0:0:0:0:
105,231,480110,1,8,0:0:0:0:
402,191,480230,6,0,P|370:235|230:236,1,203.999993774414,0|0,0:0|0:0,0:0:0:0:
119,151,480590,1,8,0:0:0:0:
55,361,480710,1,0,0:0:0:0:
232,237,480830,1,0,0:0:0:0:
13,244,480950,1,0,0:0:0:0:
180,356,481070,2,0,P|236:370|298:350,1,101.999996887207,8|0,0:0|0:0,0:0:0:0:
297,87,481310,2,0,P|256:128|243:192,1,101.999996887207,0|0,0:0|0:0,0:0:0:0:
471,322,481550,2,0,P|455:266|406:222,1,101.999996887207,8|0,0:0|0:0,0:0:0:0:
234,290,481790,5,0,0:0:0:0:
411,100,481910,1,0,0:0:0:0:
86,200,482030,5,8,0:0:0:0:
86,200,482090,1,0,0:0:0:0:
86,200,482150,2,0,B|86:133|86:133|33:67|82:5,1,203.999993774414,0|0,0:0|0:0,0:0:0:0:
411,100,482510,2,0,L|534:114,1,101.999996887207,8|0,0:0|0:0,0:0:0:0:
238,78,482750,2,0,L|136:65,1,101.999996887207,0|0,0:0|0:0,0:0:0:0:
277,335,482990,1,8,0:0:0:0:
346,43,483110,6,0,B|310:90|329:138|329:138|356:194|309:249,1,203.999993774414,0|0,0:0|0:0,0:0:0:0:
185,305,483470,2,0,P|224:333|283:332,1,101.999996887207,8|0,0:0|0:0,0:0:0:0:
32,317,483710,1,0,0:0:0:0:
256,176,483830,1,0,0:0:0:0:
34,118,483950,5,8,0:0:0:0:
34,118,484010,1,0,0:0:0:0:
34,118,484070,2,0,B|19:189|19:189|39:260|39:260|30:338,1,203.999993774414,0|0,0:0|0:0,0:0:0:0:
164,202,484430,2,0,L|185:102,1,101.999996887207,8|0,0:0|0:0,0:0:0:0:
256,176,484670,1,0,0:0:0:0:
111,53,484790,1,0,0:0:0:0:
329,0,484910,1,8,0:0:0:0:
234,255,485030,6,0,P|141:282|81:202,1,203.999993774414
350,360,485390,5,8,0:0:0:0:
330,313,485450,1,8,0:0:0:0:
348,267,485510,1,8,0:0:0:0:
393,245,485570,1,8,0:0:0:0:
441,261,485630,2,0,L|460:202,1,50.9999984436036,8|0,0:0|0:0,0:0:0:0:
328,180,485750,2,0,L|309:121,1,50.9999984436036,8|0,0:0|0:0,0:0:0:0:
424,103,485870,2,0,L|443:44,1,50.9999984436036,8|0,0:0|0:0,0:0:0:0:
149,70,485990,6,0,B|196:37|243:64|243:64|299:16|366:51,1,203.999993774414,12|0,0:0|0:0,0:0:0:0:
48,335,486350,2,0,L|45:233,1,101.999996887207,8|0,0:0|0:0,0:0:0:0:
199,133,486590,2,0,L|196:234,1,101.999996887207,0|0,0:0|0:0,0:0:0:0:
382,298,486830,1,8,0:0:0:0:
309,113,486950,1,0,0:0:0:0:
149,332,487070,6,0,P|265:319|295:218,1,203.999993774414,0|8,0:0|0:0,0:0:0:0:
22,285,487430,1,0,0:0:0:0:
148,84,487550,1,0,0:0:0:0:
196,234,487670,1,0,0:0:0:0:
19,107,487790,1,8,0:0:0:0:
149,332,487910,6,0,B|111:278|111:278|93:131,1,203.999993774414,0|0,0:0|0:0,0:0:0:0:
225,117,488270,2,0,L|239:230,1,101.999996887207,8|0,0:0|0:0,0:0:0:0:
511,126,488510,6,0,L|497:239,1,101.999996887207,0|0,0:0|0:0,0:0:0:0:
397,111,488750,2,0,L|383:224,1,101.999996887207,8|0,0:0|0:0,0:0:0:0:
136,205,488990,6,0,L|249:219,1,101.999996887207,0|0,0:0|0:0,0:0:0:0:
121,319,489230,2,0,L|234:333,1,101.999996887207,8|0,0:0|0:0,0:0:0:0:
456,274,489470,5,0,0:0:0:0:
237,217,489590,1,0,0:0:0:0:
452,75,489710,5,8,0:0:0:0:
452,75,489770,1,0,0:0:0:0:
452,75,489830,2,0,B|467:151|467:151|449:223|449:223|457:280,1,203.999993774414,0|0,0:0|0:0,0:0:0:0:
279,152,490190,2,0,P|326:135|398:155,1,101.999996887207,8|0,0:0|0:0,0:0:0:0:
512,345,490430,2,0,P|465:362|393:342,1,101.999996887207,0|0,0:0|0:0,0:0:0:0:
376,142,490670,1,8,0:0:0:0:
217,323,490790,6,0,P|131:274|109:176,1,203.999993774414,0|0,0:0|0:0,0:0:0:0:
173,41,491150,2,0,P|126:25|54:39,1,101.999996887207,8|0,0:0|0:0,0:0:0:0:
312,44,491390,1,0,0:0:0:0:
208,206,491510,1,0,0:0:0:0:
461,170,491630,5,8,0:0:0:0:
461,170,491690,1,0,0:0:0:0:
461,170,491750,2,0,B|503:248|457:333|457:333|430:272|334:276|324:359,1,340,0|0,0:0|0:0,0:0:0:0:
256,192,492770,12,0,493670,0:0:0:0:
121,104,493916,6,0,P|195:56|321:142,1,229.499992996216
215,149,494959,1,0,0:0:0:0:
425,120,496002,2,0,L|299:113,2,114.749996498108
512,127,497046,1,0,0:0:0:0:
512,127,497568,6,0,L|506:187,1,38.2499988327027
446,221,497829,2,0,L|452:281,1,38.2499988327027
449,377,498089,2,0,P|382:353|329:369,1,114.749996498108
362,184,498872,1,0,0:0:0:0:
362,184,499133,2,0,B|359:256|301:274|301:274|244:292|242:359,1,229.499992996216
197,186,500176,2,0,L|301:194,1,76.4999976654053
283,105,500568,6,0,L|222:100,4,38.2499988327027
231,9,501220,2,0,L|178:32,1,38.2499988327027
54,10,501481,2,0,L|106:33,1,38.2499988327027
265,24,501742,2,0,L|212:0,1,38.2499988327027
19,25,502002,2,0,L|71:1,1,38.2499988327027
150,162,502263,6,0,P|100:134|31:165,2,114.749996498108
220,206,503307,2,0,P|139:243|80:181,1,152.999995330811
358,284,504350,2,0,L|366:169,2,114.749996498108
351,370,505394,1,0,0:0:0:0:
351,370,505916,6,0,L|291:364,1,38.2499988327027
257,304,506177,2,0,L|197:310,1,38.2499988327027
96,365,506437,2,0,P|122:301|81:246,1,114.749996498108
30,179,507220,1,0,0:0:0:0:
30,179,507481,2,0,B|89:139|140:165|140:165|193:195|249:156,1,229.499992996216
237,0,508524,2,0,P|197:47|195:125,1,114.749996498108
289,79,509046,6,0,L|345:95,3,38.2499988327027
398,0,509568,2,0,L|400:58,1,38.2499988327027
512,61,509829,2,0,L|457:80,1,38.2499988327027
483,194,510089,2,0,L|447:148,1,38.2499988327027,0|0,0:3|0:3,0:3:0:0:
353,195,510350,2,0,L|385:146,1,38.2499988327027,0|0,0:3|0:3,0:3:0:0:
257,192,510611,6,0,L|146:191,1,85,8|0,0:0|0:0,0:0:0:0:
83,162,511002,2,0,L|219:161,1,127.5
343,76,511655,2,0,P|385:172|333:251,1,170
162,276,512698,6,0,B|177:169,1,85,8|0,0:0|0:0,0:0:0:0:
194,296,513089,2,0,B|209:189,1,85
228,307,513481,1,0,0:0:0:0:
63,103,513742,2,0,L|33:282,1,170
141,37,514785,6,0,P|86:9|8:25,2,127.5,8|0|0,0:0|0:0|0:0,0:0:0:0:
384,139,515829,2,0,L|195:138,1,170
378,378,516872,2,0,B|418:302|377:246|377:246|343:191|388:132,1,255.000009727478,8|0,0:0|0:0,0:0:0:0:
218,310,518698,5,8,0:0:0:0:
218,310,518959,2,0,L|303:310,1,85,8|0,0:0|0:0,0:0:0:0:
407,280,519350,2,0,L|276:280,1,127.5
266,117,520002,2,0,B|292:161|292:161|275:318,1,170
325,54,521046,6,0,P|279:28|219:54,1,85,8|0,0:0|0:0,0:0:0:0:
401,75,521437,2,0,P|359:77|324:53,1,85
378,5,521829,1,0,0:0:0:0:
142,146,522089,2,0,P|205:181|289:144,1,170
148,281,523133,6,0,L|141:127,1,136,8|0,0:0|0:0,0:0:0:0:
370,145,524254,2,0,L|364:281,1,136
80,73,525375,6,0,P|143:52|205:77,1,136,8|0,0:0|0:0,0:0:0:0:
432,311,526497,2,0,P|368:331|306:306,1,136
198,76,527673,6,0,L|328:76,1,118.999996368408,8|0,0:0|0:0,0:0:0:0:
314,308,528861,2,0,L|191:308,1,101.999996887207
140,148,530224,6,0,L|140:250,1,85,8|0,0:0|0:0,0:0:0:0:
372,233,531655,2,0,L|372:153,1,68
230,192,533041,6,0,L|282:192,1,50.9999984436036,8|0,0:0|0:0,0:0:0:0:
160,27,536996,5,0,0:0:0:0:
104,26,537076,1,0,0:0:0:0:
60,59,537156,1,0,0:0:0:0:
46,113,537236,1,0,0:0:0:0:
69,164,537316,1,0,0:0:0:0:
118,189,537396,1,0,0:0:0:0:
173,179,537476,5,0,0:0:0:0:
228,169,537556,1,0,0:0:0:0:
278,194,537636,1,0,0:0:0:0:
300,245,537716,1,0,0:0:0:0:
287,299,537796,1,0,0:0:0:0:
243,333,537876,1,0,0:0:0:0:
187,332,537956,6,0,L|192:236,1,67.9999979248048,0|0,0:0|0:0,0:0:0:0:
256,127,538116,2,0,L|261:223,1,67.9999979248048,0|0,0:0|0:0,0:0:0:0:
327,353,538276,2,0,L|332:257,1,67.9999979248048,0|0,0:0|0:0,0:0:0:0:
386,113,538436,2,0,L|391:209,1,67.9999979248048,0|0,0:0|0:0,0:0:0:0:
459,357,538596,2,0,L|464:261,1,67.9999979248048,0|0,0:0|0:0,0:0:0:0:
512,115,538756,1,0,0:0:0:0:
512,115,538796,6,0,B|456:98|456:98|318:125,1,187.000005706787,4|0,0:0|0:0,0:0:0:0:
87,124,539156,2,0,P|138:119|212:136,1,93.5000028533936,8|0,0:0|0:0,0:0:0:0:
380,255,539396,2,0,P|325:248|255:267,1,93.5000028533936
329,122,539636,1,8,0:0:0:0:
327,353,539756,1,0,0:0:0:0:
496,129,539876,6,0,B|485:197|485:197|505:253|505:253|498:327,1,187.000005706787,0|8,0:0|0:0,0:0:0:0:
245,128,540236,1,0,0:0:0:0:
245,128,540356,2,0,L|349:129,1,93.5000028533936
421,267,540596,1,8,0:0:0:0:
160,360,540716,6,0,B|110:353|110:353|35:293|83:207,1,187.000005706787,0|0,0:0|0:0,0:0:0:0:
94,40,541076,2,0,B|144:47|144:47|219:107|171:193,1,187.000005706787,8|0,0:0|0:0,0:0:0:0:
418,40,541436,1,0,0:0:0:0:
418,40,541556,6,0,B|427:87|427:87|417:155,1,93.5000028533936,8|0,0:0|0:0,0:0:0:0:
501,282,541796,2,0,B|415:305|415:305|321:277,1,187.000005706787,0|8,0:0|0:0,0:0:0:0:
106,214,542156,1,0,0:0:0:0:
106,214,542276,2,0,P|155:242|223:245,1,93.5000028533936
375,384,542516,2,0,P|330:359|258:353,1,93.5000028533936,8|0,0:0|0:0,0:0:0:0:
248,43,542756,5,0,0:0:0:0:
385,161,542876,1,0,0:0:0:0:
258,164,542996,1,8,0:0:0:0:
380,36,543116,1,0,0:0:0:0:
327,246,543236,1,0,0:0:0:0:
166,110,543356,1,0,0:0:0:0:
290,347,543476,6,0,P|336:351|380:338,1,93.5000028533936,8|0,0:0|0:0,0:0:0:0:
185,193,543716,2,0,P|138:188|94:201,1,93.5000028533936,0|0,0:0|0:0,0:0:0:0:
327,242,543956,2,0,P|331:195|318:151,1,93.5000028533936,8|0,0:0|0:0,0:0:0:0:
146,290,544196,2,0,P|141:336|154:380,1,93.5000028533936,0|0,0:0|0:0,0:0:0:0:
94,200,544436,5,8,0:0:0:0:
302,324,544556,1,0,0:0:0:0:
302,324,544616,1,0,0:0:0:0:
302,324,544676,1,0,0:0:0:0:
175,96,544796,1,0,0:0:0:0:
379,240,544916,1,8,0:0:0:0:
379,240,544976,1,0,0:0:0:0:
379,240,545036,1,0,0:0:0:0:
218,326,545156,6,0,P|166:336|106:317,1,93.5000028533936
208,190,545396,2,0,P|260:180|320:199,1,93.5000028533936,8|0,0:0|0:0,0:0:0:0:
491,345,545636,2,0,P|501:293|482:233,1,93.5000028533936,0|0,0:0|0:0,0:0:0:0:
300,189,545876,2,0,P|290:241|309:301,1,93.5000028533936,8|0,0:0|0:0,0:0:0:0:
391,368,546116,5,8,0:0:0:0:
189,210,546236,1,8,0:0:0:0:
396,220,546356,1,8,0:0:0:0:
118,343,546476,6,0,B|142:305|119:256|119:256|98:212|121:163,1,187.000005706787,12|0,0:0|0:0,0:0:0:0:
210,55,546836,2,0,P|170:31|111:32,1,93.5000028533936,8|0,0:0|0:0,0:0:0:0:
189,210,547076,6,0,P|238:221|313:216,1,93.5000028533936
183,291,547316,2,0,P|232:302|307:297,1,93.5000028533936,8|0,0:0|0:0,0:0:0:0:
404,119,547556,6,0,P|415:168|410:243,1,93.5000028533936
485,113,547796,2,0,P|496:162|491:237,1,93.5000028533936,8|0,0:0|0:0,0:0:0:0:
342,16,548036,1,0,0:0:0:0:
342,16,548156,6,0,B|296:36|296:36|140:29,1,187.000005706787
83,179,548456,1,0,0:0:0:0:
83,179,548516,2,0,L|91:86,1,93.5000028533936
243,270,548756,2,0,L|251:363,1,93.5000028533936,8|0,0:0|0:0,0:0:0:0:
414,105,548996,6,0,B|367:90|367:90|294:90,1,93.5000028533936,0|0,0:0|0:0,0:0:0:0:
404,183,549236,2,0,B|357:168|357:168|284:168,1,93.5000028533936,8|0,0:0|0:0,0:0:0:0:
228,361,549476,6,0,B|243:314|243:314|243:241,1,93.5000028533936,0|0,0:0|0:0,0:0:0:0:
150,351,549716,2,0,B|165:304|165:304|165:231,1,93.5000028533936,8|0,0:0|0:0,0:0:0:0:
0,160,549956,2,0,B|96:147|96:147|214:165,1,187.000005706787,0|8,0:0|0:0,0:0:0:0:
463,21,550316,6,0,B|447:76|447:76|481:133|481:133|466:205,1,187.000005706787,4|0,0:0|0:0,0:0:0:0:
281,354,550676,1,8,0:0:0:0:
281,354,550796,6,0,B|263:300|263:300|278:260,1,93.5000028533936
153,57,551036,2,0,B|171:111|171:111|156:151,1,93.5000028533936,0|8,0:0|0:0,0:0:0:0:
39,352,551276,2,0,B|21:298|21:298|36:258,1,93.5000028533936
59,97,551516,5,0,0:0:0:0:
283,139,551636,1,8,0:0:0:0:
143,16,551756,1,0,0:0:0:0:
195,217,551876,1,0,0:0:0:0:
274,17,551996,1,0,0:0:0:0:
110,172,552116,1,8,0:0:0:0:
310,239,552236,6,0,P|390:158|349:72,1,187.000005706787,0|0,0:0|0:0,0:0:0:0:
464,324,552596,1,8,0:0:0:0:
291,364,552716,6,0,B|246:362|246:362|213:321|213:321|157:308|157:308|125:272,1,187.000005706787
149,74,553076,1,8,0:0:0:0:
61,157,553196,1,0,0:0:0:0:
214,230,553316,2,0,B|208:201|208:201|226:170|226:170|217:140,1,93.5000028533936
363,28,553556,2,0,B|334:34|334:34|303:16|303:16|273:25,1,93.5000028533936,8|0,0:0|0:0,0:0:0:0:
386,194,553796,2,0,B|415:188|415:188|446:206|446:206|476:197,1,93.5000028533936
479,22,554036,2,0,B|485:51|485:51|467:82|467:82|476:112,1,93.5000028533936,8|0,0:0|0:0,0:0:0:0:
465,311,554276,5,0,0:0:0:0:
421,320,554356,1,0,0:0:0:0:
376,313,554436,1,0,0:0:0:0:
337,290,554516,1,0,0:0:0:0:
310,254,554596,1,0,0:0:0:0:
298,211,554676,1,0,0:0:0:0:
303,166,554756,5,0,0:0:0:0:
312,110,554836,1,0,0:0:0:0:
287,60,554916,1,0,0:0:0:0:
239,33,554996,1,0,0:0:0:0:
183,39,555076,1,0,0:0:0:0:
141,76,555156,1,0,0:0:0:0:
128,130,555236,5,8,0:0:0:0:
128,151,555296,1,8,0:0:0:0:
128,172,555356,1,8,0:0:0:0:
128,193,555416,1,8,0:0:0:0:
128,215,555476,1,8,0:0:0:0:
128,236,555536,1,8,0:0:0:0:
128,257,555596,1,8,0:0:0:0:
128,278,555656,1,8,0:0:0:0:
128,300,555716,2,0,L|212:298,1,85,8|0,0:0|0:0,0:0:0:0:
371,153,556076,6,0,B|341:204|365:250|365:250|389:298|363:347,1,203.999993774414,2|0,0:0|0:0,0:0:0:0:
436,68,556436,2,0,P|387:45|324:65,1,101.999996887207,8|0,0:0|0:0,0:0:0:0:
195,282,556676,2,0,P|243:304|306:284,1,101.999996887207
150,71,556916,1,8,0:0:0:0:
66,210,557036,1,0,0:0:0:0:
248,221,557156,6,0,B|275:163|275:163|247:17,1,203.999993774414,0|8,0:0|0:0,0:0:0:0:
400,128,557516,1,0,0:0:0:0:
176,150,557636,1,0,0:0:0:0:
349,267,557756,1,0,0:0:0:0:
336,27,557876,1,8,0:0:0:0:
270,329,557996,6,0,P|365:356|448:302,1,203.999993774414,0|0,0:0|0:0,0:0:0:0:
248,221,558356,1,8,0:0:0:0:
193,348,558476,1,0,0:0:0:0:
34,224,558596,1,0,0:0:0:0:
69,342,558716,1,0,0:0:0:0:
135,130,558836,2,0,L|21:124,1,101.999996887207,8|0,0:0|0:0,0:0:0:0:
248,221,559076,2,0,L|349:215,1,101.999996887207,0|0,0:0|0:0,0:0:0:0:
354,48,559316,2,0,L|252:42,1,101.999996887207,8|0,0:0|0:0,0:0:0:0:
470,53,559556,5,0,0:0:0:0:
245,130,559676,1,0,0:0:0:0:
507,244,559796,5,8,0:0:0:0:
507,244,559856,1,0,0:0:0:0:
507,244,559916,2,0,B|455:272|455:272|291:256,1,203.999993774414,0|0,0:0|0:0,0:0:0:0:
36,235,560276,2,0,L|160:246,1,101.999996887207,8|0,0:0|0:0,0:0:0:0:
297,76,560516,2,0,L|173:87,1,101.999996887207,0|0,0:0|0:0,0:0:0:0:
51,102,560756,1,8,0:0:0:0:
143,328,560876,6,0,P|223:260|164:168,1,203.999993774414,0|0,0:0|0:0,0:0:0:0:
301,367,561236,2,0,P|327:323|335:273,1,101.999996887207,8|0,0:0|0:0,0:0:0:0:
491,345,561476,1,0,0:0:0:0:
305,167,561596,1,0,0:0:0:0:
486,38,561716,5,8,0:0:0:0:
486,38,561776,1,0,0:0:0:0:
486,38,561836,2,0,B|421:30|421:30|268:47,1,203.999993774414,0|0,0:0|0:0,0:0:0:0:
141,255,562196,2,0,L|147:133,1,101.999996887207,8|0,0:0|0:0,0:0:0:0:
241,230,562436,1,0,0:0:0:0:
57,125,562556,1,0,0:0:0:0:
283,45,562676,1,8,0:0:0:0:
233,324,562796,6,0,P|122:358|34:309,1,203.999993774414,0|0,0:0|0:0,0:0:0:0:
0,174,563156,5,8,0:0:0:0:
39,144,563216,1,8,0:0:0:0:
88,151,563276,1,8,0:0:0:0:
118,191,563336,1,8,0:0:0:0:
111,241,563396,2,0,L|193:265,1,50.9999984436036,8|0,0:0|0:0,0:0:0:0:
212,147,563516,2,0,L|294:123,1,50.9999984436036,8|0,0:0|0:0,0:0:0:0:
316,228,563636,2,0,L|398:252,1,50.9999984436036,8|0,0:0|0:0,0:0:0:0:
460,110,563756,6,0,B|484:169|484:169|462:339,1,203.999993774414,12|0,0:0|0:0,0:0:0:0:
505,36,564116,2,0,P|449:25|387:54,1,101.999996887207,8|0,0:0|0:0,0:0:0:0:
267,244,564356,2,0,P|323:255|385:226,1,101.999996887207,0|0,0:0|0:0,0:0:0:0:
260,48,564596,1,8,0:0:0:0:
156,224,564716,1,0,0:0:0:0:
416,324,564836,6,0,P|308:348|200:308,1,203.999993774414,0|8,0:0|0:0,0:0:0:0:
156,224,565196,1,0,0:0:0:0:
84,311,565316,1,0,0:0:0:0:
220,321,565436,1,0,0:0:0:0:
101,138,565556,1,8,0:0:0:0:
220,321,565676,6,0,P|268:224|215:125,1,203.999993774414,0|0,0:0|0:0,0:0:0:0:
171,49,566036,2,0,P|221:31|287:43,1,101.999996887207,8|0,0:0|0:0,0:0:0:0:
183,218,566276,6,0,L|53:208,1,101.999996887207,0|0,0:0|0:0,0:0:0:0:
139,310,566516,2,0,L|9:300,1,101.999996887207,8|0,0:0|0:0,0:0:0:0:
346,335,566756,6,0,L|336:205,1,101.999996887207,0|0,0:0|0:0,0:0:0:0:
438,291,566996,2,0,L|428:161,1,101.999996887207,8|0,0:0|0:0,0:0:0:0:
225,41,567236,5,0,0:0:0:0:
423,79,567356,1,0,0:0:0:0:
228,242,567476,5,8,0:0:0:0:
228,242,567536,1,0,0:0:0:0:
228,242,567596,2,0,B|212:177|212:177|225:34,1,203.999993774414,0|0,0:0|0:0,0:0:0:0:
89,31,567956,2,0,L|75:163,1,101.999996887207,8|0,0:0|0:0,0:0:0:0:
217,343,568196,2,0,L|227:241,1,101.999996887207,0|0,0:0|0:0,0:0:0:0:
320,204,568436,1,8,0:0:0:0:
151,179,568556,6,0,P|258:149|328:230,1,203.999993774414,0|0,0:0|0:0,0:0:0:0:
370,378,568916,2,0,P|423:365|458:323,1,101.999996887207,8|0,0:0|0:0,0:0:0:0:
217,343,569156,5,0,0:0:0:0:
443,133,569276,1,0,0:0:0:0:
185,53,569396,5,8,0:0:0:0:
185,53,569456,1,0,0:0:0:0:
185,53,569516,2,0,B|249:97|320:43|320:43|209:117|231:251|332:320|429:256,1,510.000019454957,0|0,0:0|0:0,0:0:0:0:
369,154,570596,5,8,0:0:0:0:
172,187,570716,1,8,0:0:0:0:
319,43,570836,1,8,0:0:0:0:
288,247,570956,1,8,0:0:0:0:
185,53,571076,1,8,0:0:0:0:
369,154,571196,1,8,0:0:0:0:
86,118,571316,1,8,0:0:0:0:
444,64,571436,1,12,0:0:0:0:
62,83,577240,5,4,0:0:0:0:
450,83,579524,1,4,0:0:0:0:
62,301,581810,1,4,0:0:0:0:
450,301,584096,1,4,0:0:0:0:
256,83,585239,5,4,0:0:0:0:
256,301,585810,1,4,0:0:0:0:
256,83,586382,1,4,0:0:0:0:
103,276,588667,5,4,0:0:0:0:
409,108,590953,1,4,0:0:0:0:
409,276,593239,1,4,0:0:0:0:
103,108,594382,5,4,0:0:0:0:
409,108,594953,1,4,0:0:0:0:
103,108,595525,6,0,B|87:168|87:168|103:307,1,187.000005706787,4|0,0:0|0:0,0:0:0:0:
339,194,595954,1,8,0:0:0:0:
173,173,596097,1,0,0:0:0:0:
211,317,596240,2,0,P|264:330|329:312,1,93.5000028533936,0|0,0:0|0:0,0:0:0:0:
393,113,596525,2,0,P|340:100|275:118,1,93.5000028533936,8|0,0:0|0:0,0:0:0:0:
260,251,596811,5,0,0:0:0:0:
360,27,596954,1,0,0:0:0:0:
426,252,597097,1,8,0:0:0:0:
227,111,597240,1,0,0:0:0:0:
509,120,597382,6,0,P|504:210|408:249,1,187.000005706787,0|8,0:0|0:0,0:0:0:0:
269,256,597811,1,4,0:0:0:0:
426,164,597954,1,0,0:0:0:0:
463,347,598097,1,0,0:0:0:0:
425,151,598240,1,8,0:0:0:0:
344,330,598382,1,0,0:0:0:0:
282,115,598525,2,0,P|222:115|175:143,1,93.5000028533936
69,368,598811,6,0,P|128:367|175:339,1,93.5000028533936,8|0,0:0|0:0,0:0:0:0:
249,202,599097,1,0,0:0:0:0:
41,227,599240,1,0,0:0:0:0:
114,8,599382,1,8,0:0:0:0:
101,286,599525,6,0,B|133:240|113:192|113:192|87:140|128:94,1,187.000005706787,0|0,0:0|0:0,0:0:0:0:
348,21,599954,1,8,0:0:0:0:
179,155,600097,2,0,B|231:169|231:169|396:152,1,187.000005706787,4|0,0:0|0:0,0:0:0:0:
330,283,600525,5,8,0:0:0:0:
483,155,600668,1,0,0:0:0:0:
512,283,600811,1,0,0:0:0:0:
363,155,600954,1,0,0:0:0:0:
365,360,601097,6,0,P|321:362|258:336,1,93.5000028533936,8|0,0:0|0:0,0:0:0:0:
88,141,601382,2,0,P|132:139|195:165,1,93.5000028533936,0|0,0:0|0:0,0:0:0:0:
338,242,601668,1,8,0:0:0:0:
121,258,601811,1,0,0:0:0:0:
170,9,601954,2,0,P|83:67|109:167,1,187.000005706787,0|8,0:0|0:0,0:0:0:0:
369,106,602382,5,4,0:0:0:0:
168,98,602525,1,0,0:0:0:0:
381,106,602668,1,0,0:0:0:0:
159,97,602811,1,8,0:0:0:0:
363,258,602954,5,4,0:0:0:0:
260,62,603097,1,0,0:0:0:0:
369,269,603240,1,0,0:0:0:0:
256,52,603382,1,8,0:0:0:0:
239,323,603525,5,4,0:0:0:0:
380,97,603668,1,0,0:0:0:0:
230,335,603811,1,0,0:0:0:0:
388,87,603954,1,8,0:0:0:0:
474,351,604097,5,4,0:0:0:0:
146,255,604239,2,0,P|243:220|335:277,1,187.000005706787,0|8,0:0|0:0,0:0:0:0:
151,72,604668,6,0,B|130:132|130:132|150:289,1,187.000005706787,4|0,0:0|0:0,0:0:0:0:
277,71,605097,1,8,0:0:0:0:
277,71,605240,1,0,0:0:0:0:
57,69,605382,2,0,L|191:72,1,93.5000028533936,0|0,0:0|0:0,0:0:0:0:
378,196,605668,2,0,L|244:193,1,93.5000028533936,8|0,0:0|0:0,0:0:0:0:
274,314,605954,1,0,0:0:0:0:
161,147,606097,1,0,0:0:0:0:
137,354,606240,6,0,P|124:299|150:249,1,93.5000028533936,8|0,0:0|0:0,0:0:0:0:
283,105,606525,2,0,P|296:160|270:210,1,93.5000028533936,0|0,0:0|0:0,0:0:0:0:
161,147,606811,1,8,0:0:0:0:
383,59,606954,6,0,P|408:154|377:253,1,187.000005706787,4|0,0:0|0:0,0:0:0:0:
194,384,607382,2,0,P|184:337|197:290,1,93.5000028533936,8|0,0:0|0:0,0:0:0:0:
386,237,607668,2,0,P|395:283|382:330,1,93.5000028533936,0|0,0:0|0:0,0:0:0:0:
263,146,607954,1,8,0:0:0:0:
263,146,608097,1,0,0:0:0:0:
94,212,608240,6,0,P|140:223|188:208,1,93.5000028533936,0|0,0:0|0:0,0:0:0:0:
431,84,608525,2,0,P|385:73|336:87,1,93.5000028533936,8|0,0:0|0:0,0:0:0:0:
389,341,608811,1,0,0:0:0:0:
388,151,608954,2,0,L|388:259,1,93.5000028533936,0|8,0:0|0:0,0:0:0:0:
98,339,609240,6,0,B|163:357|163:357|296:347,1,187.000005706787,4|0,0:0|0:0,0:0:0:0:
151,157,609668,2,0,L|145:282,1,93.5000028533936,8|0,0:0|0:0,0:0:0:0:
313,34,609954,2,0,L|319:159,1,93.5000028533936,0|0,0:0|0:0,0:0:0:0:
75,72,610240,1,8,0:0:0:0:
238,74,610382,1,0,0:0:0:0:
93,190,610525,1,0,0:0:0:0:
158,6,610668,1,0,0:0:0:0:
221,200,610811,6,0,L|314:199,1,93.5000028533936,8|0,0:0|0:0,0:0:0:0:
479,97,611097,2,0,L|385:97,1,93.5000028533936,0|0,0:0|0:0,0:0:0:0:
468,347,611382,1,8,0:0:0:0:
468,347,611525,5,4,0:0:0:0:
479,97,611668,1,8,0:0:0:0:
352,352,611811,5,8,0:0:0:0:
325,73,611954,1,8,0:0:0:0:
160,352,612097,5,8,0:0:0:0:
187,73,612240,1,8,0:0:0:0:
44,347,612382,5,8,0:0:0:0:
33,97,612525,1,8,0:0:0:0:
311,197,612668,5,8,0:0:0:0:
15,237,612811,1,8,0:0:0:0:
342,347,612954,5,8,0:0:0:0:
148,125,613097,1,8,0:0:0:0:
460,166,613240,5,8,0:0:0:0:
186,288,613382,1,8,0:0:0:0:
256,8,613525,5,8,0:0:0:0:
326,288,613668,1,8,0:0:0:0:
69,52,613811,6,0,B|82:112|82:112|74:248,1,187.000005706787,12|0,0:0|0:0,0:0:0:0:
307,232,614240,2,0,P|257:248|190:219,1,93.5000028533936,8|0,0:0|0:0,0:0:0:0:
69,52,614525,2,0,P|119:36|186:65,1,93.5000028533936,0|0,0:0|0:0,0:0:0:0:
259,160,614811,1,8,0:0:0:0:
79,150,614954,1,0,0:0:0:0:
357,300,615097,6,0,P|264:329|178:311,1,187.000005706787,0|8,0:0|0:0,0:0:0:0:
445,197,615525,1,0,0:0:0:0:
445,197,615668,2,0,P|486:241|492:286,1,93.5000028533936,0|0,0:0|0:0,0:0:0:0:
295,58,615954,1,8,0:0:0:0:
475,57,616097,6,0,B|424:38|380:60|380:60|330:81|285:52,1,187.000005706787,4|0,0:0|0:0,0:0:0:0:
189,151,616525,2,0,P|151:109|149:47,1,93.5000028533936,8|0,0:0|0:0,0:0:0:0:
276,256,616811,2,0,P|314:214|316:152,1,93.5000028533936,0|0,0:0|0:0,0:0:0:0:
189,361,617097,2,0,P|151:319|149:257,1,93.5000028533936,8|0,0:0|0:0,0:0:0:0:
275,255,617382,6,0,L|369:263,1,93.5000028533936,0|0,0:0|0:0,0:0:0:0:
486,359,617668,2,0,L|392:366,1,93.5000028533936,8|0,0:0|0:0,0:0:0:0:
468,157,617954,1,0,0:0:0:0:
506,250,618097,1,0,0:0:0:0:
302,146,618240,1,8,0:0:0:0:
103,368,618382,6,0,B|83:309|83:309|97:165,1,187.000005706787,4|0,0:0|0:0,0:0:0:0:
153,88,618811,2,0,P|108:73|62:74,1,93.5000028533936,8|0,0:0|0:0,0:0:0:0:
190,295,619097,1,0,0:0:0:0:
190,295,619240,2,0,P|234:309|280:308,1,93.5000028533936,0|8,0:0|0:0,0:0:0:0:
464,245,619525,6,0,L|474:377,1,93.5000028533936,0|0,0:0|0:0,0:0:0:0:
253,126,619811,2,0,L|243:258,1,93.5000028533936,0|8,0:0|0:0,0:0:0:0:
464,7,620097,2,0,L|474:139,1,93.5000028533936,0|0,0:0|0:0,0:0:0:0:
388,175,620382,1,0,0:0:0:0:
209,20,620525,1,8,0:0:0:0:
110,305,620668,5,4,0:0:0:0:
402,305,620953,1,8,0:0:0:0:
402,305,621096,1,8,0:0:0:0:
256,98,621239,5,4,0:0:0:0:
256,342,621524,1,8,0:0:0:0:
256,342,621667,1,8,0:0:0:0:
406,95,621810,5,4,0:0:0:0:
110,305,622097,1,8,0:0:0:0:
110,305,622240,1,8,0:0:0:0:
365,220,622382,5,4,0:0:0:0:
224,115,622525,1,0,0:0:0:0:
211,134,622596,1,0,0:0:0:0:
202,156,622667,1,0,0:0:0:0:
198,179,622739,1,0,0:0:0:0:
197,202,622810,1,0,0:0:0:0:
201,225,622882,1,0,0:0:0:0:
209,247,622954,6,0,P|288:276|371:204,1,187.000005706787,4|0,0:0|0:0,0:0:0:0:
492,95,623382,2,0,L|476:187,1,93.5000028533936,8|0,0:0|0:0,0:0:0:0:
277,187,623668,2,0,L|258:73,1,93.5000028533936,0|0,0:0|0:0,0:0:0:0:
70,59,623954,1,8,0:0:0:0:
65,238,624097,6,0,B|91:196|66:143|66:143|43:90|86:33,1,187.000005706787,0|0,0:0|0:0,0:0:0:0:
25,352,624525,1,8,0:0:0:0:
25,352,624668,2,0,P|80:359|148:333,1,93.5000028533936,0|0,0:0|0:0,0:0:0:0:
240,99,624954,2,0,P|185:92|117:118,1,93.5000028533936,0|8,0:0|0:0,0:0:0:0:
240,354,625240,6,0,B|203:308|203:308|194:161,1,187.000005706787,0|0,0:0|0:0,0:0:0:0:
403,354,625668,2,0,B|440:308|440:308|449:161,1,187.000005706787,8|0,0:0|0:0,0:0:0:0:
276,244,626097,1,0,0:0:0:0:
276,244,626240,2,0,P|320:262|385:249,1,93.5000028533936,8|0,0:0|0:0,0:0:0:0:
508,60,626525,2,0,P|464:42|399:55,1,93.5000028533936,0|0,0:0|0:0,0:0:0:0:
206,100,626811,2,0,P|202:53|220:11,1,93.5000028533936,8|0,0:0|0:0,0:0:0:0:
101,83,627097,5,0,0:0:0:0:
307,70,627240,1,0,0:0:0:0:
202,213,627382,1,8,0:0:0:0:
390,200,627525,2,0,B|404:268|404:268|389:400,1,187.000005706787,0|0,0:0|0:0,0:0:0:0:
224,375,627954,2,0,L|238:265,1,93.5000028533936,8|0,0:0|0:0,0:0:0:0:
13,246,628240,5,0,0:0:0:0:
235,282,628382,1,0,0:0:0:0:
148,95,628525,1,8,0:0:0:0:
127,384,628668,2,0,B|113:316|113:316|128:184,1,187.000005706787,0|0,0:0|0:0,0:0:0:0:
339,219,629097,2,0,L|347:125,1,93.5000028533936,8|0,0:0|0:0,0:0:0:0:
447,279,629382,5,0,0:0:0:0:
357,30,629525,1,0,0:0:0:0:
240,275,629668,1,8,0:0:0:0:
190,27,629811,2,0,B|122:13|122:13|-10:28,1,187.000005706787,0|0,0:0|0:0,0:0:0:0:
71,353,630240,1,8,0:0:0:0:
71,353,630382,6,0,P|20:281|72:210,1,187.000005706787,0|0,0:0|0:0,0:0:0:0:
442,373,630811,1,8,0:0:0:0:
442,373,630954,6,0,B|435:307|435:307|447:240|447:240|440:172,1,187.000005706787,0|0,0:0|0:0,0:0:0:0:
214,69,631382,1,8,0:0:0:0:
214,69,631525,6,0,P|286:18|357:70,1,187.000005706787,0|0,0:0|0:0,0:0:0:0:
147,272,631954,1,8,0:0:0:0:
30,52,632097,6,0,B|46:35|46:35|57:77|35:117|35:117|15:160|32:210,1,203.999993774414,4|0,0:0|0:0,0:0:0:0:
237,134,632525,1,8,0:0:0:0:
321,345,632668,6,0,B|406:334|424:240|424:240|397:195,1,203.999993774414,4|0,0:0|0:0,0:0:0:0:
154,321,633097,1,8,0:0:0:0:
473,84,633240,6,0,B|434:96|405:74|405:74|369:115|404:211,1,203.999993774414,4|0,0:0|0:0,0:0:0:0:
488,368,633668,1,8,0:0:0:0:
213,84,633811,6,0,B|257:117|307:85|307:85|307:81|307:81|353:59|405:74,1,203.999993774414,4|0,0:0|0:0,0:0:0:0:
219,299,634240,1,8,0:0:0:0:
219,299,634382,1,0,0:0:0:0:
125,10,634525,6,0,P|101:51|120:139,1,101.999996887207,0|0,0:0|0:0,0:0:0:0:
219,299,634811,2,0,P|243:258|224:170,1,101.999996887207,8|0,0:0|0:0,0:0:0:0:
504,20,635097,6,0,L|369:10,1,101.999996887207,0|0,0:0|0:0,0:0:0:0:
213,84,635382,2,0,L|314:91,1,101.999996887207,8|0,0:0|0:0,0:0:0:0:
185,384,635668,6,0,B|193:326|193:326|175:259,1,101.999996887207,0|0,0:0|0:0,0:0:0:0:
36,106,635954,2,0,B|24:147|24:147|32:205,1,101.999996887207,8|0,0:0|0:0,0:0:0:0:
401,183,636240,6,0,B|343:175|343:175|276:193,1,101.999996887207,0|0,0:0|0:0,0:0:0:0:
81,280,636524,2,0,B|122:291|122:291|180:283,1,101.999996887207,8|0,0:0|0:0,0:0:0:0:
36,106,636811,5,8,0:0:0:0:
0,262,636954,1,8,0:0:0:0:
150,86,637097,5,8,0:0:0:0:
130,291,637240,1,8,0:0:0:0:
276,67,637382,5,8,0:0:0:0:
277,320,637525,1,8,0:0:0:0:
425,45,637668,5,8,0:0:0:0:
458,350,637811,1,8,0:0:0:0:
186,216,637954,5,8,0:0:0:0:
512,131,638097,1,8,0:0:0:0:
121,70,638240,5,8,0:0:0:0:
441,239,638382,1,8,0:0:0:0:
0,262,638525,5,10,0:0:0:0:
68,365,641240,6,0,B|100:314|150:318|150:318|216:368|299:325,1,237.999992736817,4|0,0:0|0:0,0:0:0:0:
458,380,641668,2,0,P|479:311|454:238,1,118.999996368408,8|0,0:0|0:0,0:0:0:0:
249,130,641954,1,0,0:0:0:0:
444,104,642097,1,0,0:0:0:0:
391,312,642239,1,8,0:0:0:0:
307,57,642382,6,0,B|248:28|187:65|187:65|133:96|62:69,1,237.999992736817,0|0,0:0|0:0,0:0:0:0:
28,351,642810,2,0,L|29:219,1,118.999996368408,8|0,0:0|0:0,0:0:0:0:
175,167,643096,1,0,0:0:0:0:
0,118,643239,1,0,0:0:0:0:
133,0,643382,1,8,0:0:0:0:
170,293,643524,6,0,B|216:278|257:313|257:313|325:248|412:285,1,237.999992736817,4|0,0:0|0:0,0:0:0:0:
472,20,643953,2,0,L|472:138,1,118.999996368408,8|0,0:0|0:0,0:0:0:0:
347,368,644239,1,0,0:0:0:0:
249,130,644382,1,0,0:0:0:0:
184,374,644524,1,8,0:0:0:0:
26,126,644667,6,0,B|98:102|98:102|171:173|284:114,1,237.999992736817,0|0,0:0|0:0,0:0:0:0:
0,344,645096,2,0,P|64:352|134:301,1,118.999996368408,8|0,0:0|0:0,0:0:0:0:
189,35,645382,1,0,0:0:0:0:
310,273,645524,1,0,0:0:0:0:
512,25,645667,5,8,0:0:0:0:
512,25,645739,1,0,0:0:0:0:
512,25,645810,2,0,B|437:47|437:47|360:18|360:18|261:29,1,237.999992736817,4|0,0:0|0:0,0:0:0:0:
17,229,646239,2,0,L|145:216,1,118.999996368408,8|0,0:0|0:0,0:0:0:0:
439,367,646524,2,0,L|320:354,1,118.999996368408,0|0,0:0|0:0,0:0:0:0:
303,120,646810,1,8,0:0:0:0:
477,210,646953,6,0,P|385:224|302:110,1,237.999992736817,0|0,0:0|0:0,0:0:0:0:
226,243,647382,1,8,0:0:0:0:
447,327,647524,1,0,0:0:0:0:
452,20,647667,2,0,L|402:141,1,118.999996368408,0|0,0:0|0:0,0:0:0:0:
60,20,647953,5,8,0:0:0:0:
60,20,648024,1,0,0:0:0:0:
60,20,648096,2,0,B|64:90|111:156|111:156|157:126|213:146,1,237.999992736817,4|0,0:0|0:0,0:0:0:0:
179,363,648524,2,0,P|162:310|178:240,1,118.999996368408,8|0,0:0|0:0,0:0:0:0:
471,298,648810,2,0,P|418:315|348:299,1,118.999996368408,0|0,0:0|0:0,0:0:0:0:
286,81,649096,1,8,0:0:0:0:
504,78,649239,6,0,P|394:38|255:115,1,237.999992736817,0|0,0:0|0:0,0:0:0:0:
65,219,649667,2,0,L|51:76,1,118.999996368408,8|0,0:0|0:0,0:0:0:0:
246,384,649953,2,0,L|260:241,1,118.999996368408,0|0,0:0|0:0,0:0:0:0:
71,383,650239,1,8,0:0:0:0:
190,121,650382,6,0,P|265:185|395:102,1,237.999992736817,4|0,0:0|0:0,0:0:0:0:
472,258,650810,2,0,P|500:308|492:366,1,118.999996368408,8|0,0:0|0:0,0:0:0:0:
290,108,651096,2,0,P|261:57|269:0,1,118.999996368408,0|0,0:0|0:0,0:0:0:0:
190,272,651382,1,8,0:0:0:0:
53,49,651524,6,0,B|16:111|49:165|49:165|83:224|22:299,1,237.999992736817,0|0,0:0|0:0,0:0:0:0:
240,364,651953,2,0,L|86:361,1,118.999996368408,8|0,0:0|0:0,0:0:0:0:
120,108,652239,2,0,L|238:105,1,118.999996368408,0|0,0:0|0:0,0:0:0:0:
399,238,652524,1,8,0:0:0:0:
505,14,652667,6,0,L|263:10,1,237.999992736817,4|0,0:0|0:0,0:0:0:0:
143,218,653096,2,0,P|113:148|138:76,1,118.999996368408,8|0,0:0|0:0,0:0:0:0:
352,335,653382,2,0,P|382:265|357:193,1,118.999996368408,0|0,0:0|0:0,0:0:0:0:
143,373,653667,1,8,0:0:0:0:
475,201,653810,6,0,P|383:130|271:218,1,237.999992736817,0|0,0:0|0:0,0:0:0:0:
74,30,654239,2,0,L|82:170,1,118.999996368408,8|0,0:0|0:0,0:0:0:0:
93,339,654524,1,0,0:0:0:0:
285,179,654667,1,0,0:0:0:0:
333,378,654810,5,8,0:0:0:0:
333,378,654882,1,0,0:0:0:0:
333,378,654953,2,0,L|454:385,1,118.999996368408,4|0,0:0|0:0,0:0:0:0:
451,178,655239,2,0,L|333:185,1,118.999996368408,0|8,0:0|0:0,0:0:0:0:
133,66,655524,2,0,L|126:187,1,118.999996368408,0|0,0:0|0:0,0:0:0:0:
332,184,655810,2,0,L|326:66,1,118.999996368408,0|8,0:0|0:0,0:0:0:0:
66,273,656096,6,0,P|127:291|212:257,1,118.999996368408,0|0,0:0|0:0,0:0:0:0:
246,72,656382,2,0,P|185:54|100:88,1,118.999996368408,0|8,0:0|0:0,0:0:0:0:
359,275,656667,1,0,0:0:0:0:
185,150,656810,1,0,0:0:0:0:
439,45,656954,1,0,0:0:0:0:
467,288,657096,5,8,0:0:0:0:
467,288,657167,1,0,0:0:0:0:
467,288,657239,2,0,B|478:217|478:217|463:143,1,118.999996368408,4|0,0:0|0:0,0:0:0:0:
272,255,657524,2,0,B|261:326|261:326|276:400,1,118.999996368408,0|8,0:0|0:0,0:0:0:0:
187,58,657810,2,0,B|116:47|116:47|42:62,1,118.999996368408,0|0,0:0|0:0,0:0:0:0:
154,253,658096,2,0,B|225:264|225:264|299:249,1,118.999996368408,0|8,0:0|0:0,0:0:0:0:
59,341,658382,6,0,B|-4:299|21:216|21:216|71:188|52:135,1,237.999992736817,0|0,0:0|0:0,0:0:0:0:
71,3,658810,2,0,P|136:27|164:69,1,118.999996368408,8|0,0:0|0:0,0:0:0:0:
378,211,659096,1,8,0:0:0:0:
164,255,659239,1,8,0:0:0:0:
253,60,659382,1,8,0:0:0:0:
276,345,659524,6,0,B|326:354|326:354|447:338,1,161.499995687485,12|0,0:0|0:0,0:0:0:0:
428,121,659954,2,0,L|336:106,1,80.7499978437424,0|0,0:0|0:0,0:0:0:0:
344,276,660240,2,0,L|428:263,1,80.7499978437424,0|0,0:0|0:0,0:0:0:0:
254,144,660525,2,0,P|247:102|253:60,1,80.7499978437424,0|0,0:0|0:0,0:0:0:0:
174,246,660811,2,0,P|180:288|174:330,1,80.7499978437424,0|0,0:0|0:0,0:0:0:0:
69,281,661097,1,0,0:0:0:0:
273,225,661240,1,0,0:0:0:0:
79,69,661382,5,0,0:0:0:0:
79,69,661525,2,0,L|75:132,1,63.7500024318696,0|0,0:0|0:0,0:0:0:0:
71,272,661811,2,0,B|122:264|122:264|174:274,1,97.7500018644333,4|0,0:0|0:0,0:0:0:0:
279,232,662097,5,0,0:0:0:0:
160,109,662240,2,0,L|251:125,1,80.7499978437424,0|0,0:0|0:0,0:0:0:0:
279,232,662525,2,0,L|370:216,1,80.7499978437424,0|0,0:0|0:0,0:0:0:0:
398,109,662811,2,0,L|489:125,1,80.7499978437424,0|0,0:0|0:0,0:0:0:0:
474,323,663097,2,0,L|488:239,1,80.7499978437424,0|0,0:0|0:0,0:0:0:0:
275,310,663382,1,0,0:0:0:0:
430,190,663525,1,0,0:0:0:0:
203,152,663668,5,0,0:0:0:0:
203,152,663811,2,0,L|205:244,1,63.7500024318696,0|0,0:0|0:0,0:0:0:0:
212,358,664097,2,0,B|133:360|133:360|99:383,1,97.7500018644333,4|0,0:0|0:0,0:0:0:0:
30,129,664382,5,0,0:0:0:0:
20,241,664525,2,0,P|57:238|103:202,1,80.7499978437424,0|0,0:0|0:0,0:0:0:0:
113,17,664811,2,0,P|114:60|132:98,1,80.7499978437424,0|0,0:0|0:0,0:0:0:0:
251,97,665097,2,0,P|269:58|270:16,1,80.7499978437424,0|0,0:0|0:0,0:0:0:0:
364,239,665382,2,0,P|321:238|283:220,1,80.7499978437424,0|0,0:0|0:0,0:0:0:0:
493,220,665668,1,0,0:0:0:0:
348,149,665811,1,0,0:0:0:0:
512,26,665954,5,0,0:0:0:0:
512,26,666097,2,0,L|446:26,1,63.7500024318696,0|0,0:0|0:0,0:0:0:0:
283,24,666382,2,0,B|264:66|264:66|274:116,2,97.7500018644333,4|0|0,0:0|0:0|0:0,0:0:0:0:
300,236,666811,2,0,P|342:252|411:230,1,80.7499978437424,0|0,0:0|0:0,0:0:0:0:
174,270,667097,2,0,P|192:311|256:344,1,80.7499978437424,0|0,0:0|0:0,0:0:0:0:
255,158,667382,1,0,0:0:0:0:
60,204,667525,6,0,P|44:245|66:315,2,80.7499978437424,4|0|0,0:0|0:0|0:0,0:0:0:0:
255,158,667954,1,0,0:0:0:0:
132,29,668097,6,0,P|148:70|126:140,2,80.7499978437424,4|0|0,0:0|0:0|0:0,0:0:0:0:
255,158,668525,1,0,0:0:0:0:
380,29,668668,2,0,P|364:70|386:140,1,80.7499978437424,4|0,0:0|0:0,0:0:0:0:
281,238,668954,5,0,0:0:0:0:
472,237,669097,2,0,L|467:321,1,85,8|0,0:0|0:0,0:0:0:0:
285,322,669382,2,0,L|280:237,1,85,0|0,0:0|0:0,0:0:0:0:
171,325,669668,1,8,0:0:0:0:
61,233,669811,1,0,0:0:0:0:
182,157,669954,1,0,0:0:0:0:
61,84,670097,1,0,0:0:0:0:
187,24,670239,2,0,L|287:22,1,85,8|0,0:0|0:0,0:0:0:0:
414,55,670525,5,0,0:0:0:0:
414,140,670668,2,0,L|414:16,1,85,0|8,0:0|0:0,0:0:0:0:
372,283,670954,2,0,P|420:294|479:277,1,101.999996887207,4|0,0:0|0:0,0:0:0:0:
199,349,671240,5,0,0:0:0:0:
199,349,671382,2,0,L|312:365,1,85,8|0,0:0|0:0,0:0:0:0:
86,214,671668,2,0,L|199:198,1,85,0|0,0:0|0:0,0:0:0:0:
209,65,671954,1,8,0:0:0:0:
262,185,672097,1,0,0:0:0:0:
330,43,672240,1,0,0:0:0:0:
383,163,672383,1,0,0:0:0:0:
451,21,672525,2,0,L|494:125,1,85,8|0,0:0|0:0,0:0:0:0:
449,210,672811,5,0,0:0:0:0:
383,163,672954,2,0,P|407:193|487:206,1,85,0|8,0:0|0:0,0:0:0:0:
391,370,673240,2,0,B|349:337|349:337|256:342,1,101.999996887207,4|0,0:0|0:0,0:0:0:0:
256,211,673525,5,0,0:0:0:0:
183,323,673667,2,0,L|79:320,1,85,8|0,0:0|0:0,0:0:0:0:
98,123,673953,2,0,L|182:120,1,85,0|0,0:0|0:0,0:0:0:0:
329,120,674239,1,8,0:0:0:0:
269,237,674382,1,0,0:0:0:0:
412,213,674525,1,0,0:0:0:0:
361,340,674667,1,0,0:0:0:0:
502,369,674811,2,0,L|500:276,1,85,8|0,0:0|0:0,0:0:0:0:
460,141,675097,6,0,P|425:129|363:141,1,85,0|0,0:0|0:0,0:0:0:0:
276,193,675382,1,8,0:0:0:0:
194,0,675525,2,0,B|187:49|187:49|199:111,1,85,4|0,0:0|0:0,0:0:0:0:
17,210,675811,5,0,0:0:0:0:
204,249,675954,1,8,0:0:0:0:
95,330,676097,1,0,0:0:0:0:
134,126,676240,2,0,L|38:121,1,89.2499972763062
299,123,676525,1,8,0:0:0:0:
211,324,676668,6,0,L|300:328,1,89.2499972763062,4|0,0:0|0:0,0:0:0:0:
417,123,676954,1,0,0:0:0:0:
417,123,677097,1,8,0:0:0:0:
512,275,677240,6,0,L|422:279,1,89.2499972763062,4|8,0:0|0:0,0:0:0:0:
256,361,677525,1,8,0:0:0:0:
440,362,677668,1,8,0:0:0:0:
118,167,677811,6,0,P|70:252|113:341,1,187.000005706787,12|0,0:0|0:0,0:0:0:0:
16,117,678240,1,8,0:0:0:0:
170,252,678382,1,0,0:0:0:0:
260,5,678525,2,0,P|245:68|254:108,1,93.5000028533936,0|0,0:0|0:0,0:0:0:0:
355,268,678811,2,0,P|370:205|361:165,1,93.5000028533936,8|0,0:0|0:0,0:0:0:0:
331,57,679097,5,0,0:0:0:0:
512,196,679240,1,0,0:0:0:0:
276,209,679382,1,8,0:0:0:0:
479,44,679525,1,0,0:0:0:0:
428,293,679668,2,0,P|380:221|412:115,1,187.000005706787,0|8,0:0|0:0,0:0:0:0:
270,366,680096,5,4,0:0:0:0:
282,177,680239,1,0,0:0:0:0:
126,363,680382,1,0,0:0:0:0:
118,179,680524,1,8,0:0:0:0:
305,265,680667,1,0,0:0:0:0:
32,265,680811,2,0,L|25:144,1,93.5000028533936,0|0,0:0|0:0,0:0:0:0:
178,16,681097,2,0,L|185:137,1,93.5000028533936,8|0,0:0|0:0,0:0:0:0:
386,195,681382,5,0,0:0:0:0:
191,197,681525,1,0,0:0:0:0:
296,41,681668,1,8,0:0:0:0:
479,276,681811,6,0,P|399:308|288:258,1,187.000005706787,0|0,0:0|0:0,0:0:0:0:
191,197,682240,1,8,0:0:0:0:
147,353,682382,6,0,B|205:356|205:356|308:276,1,187.000005706787,4|0,0:0|0:0,0:0:0:0:
47,234,682811,2,0,P|11:277|-1:339,1,93.5000028533936,8|0,0:0|0:0,0:0:0:0:
144,118,683097,2,0,P|180:161|192:223,1,93.5000028533936,0|0,0:0|0:0,0:0:0:0:
368,118,683382,1,8,0:0:0:0:
214,48,683525,1,0,0:0:0:0:
380,120,683667,1,0,0:0:0:0:
265,185,683810,1,0,0:0:0:0:
362,0,683953,1,8,0:0:0:0:
503,194,684096,1,0,0:0:0:0:
127,89,684240,6,0,B|177:111|219:91|219:91|271:67|329:104,1,187.000005706787,0|8,0:0|0:0,0:0:0:0:
266,230,684668,5,4,0:0:0:0:
176,23,684811,1,0,0:0:0:0:
270,240,684954,1,0,0:0:0:0:
171,12,685097,1,8,0:0:0:0:
99,258,685240,5,4,0:0:0:0:
307,92,685383,1,0,0:0:0:0:
88,265,685524,1,0,0:0:0:0:
317,84,685667,1,8,0:0:0:0:
44,161,685811,5,4,0:0:0:0:
360,196,685954,1,0,0:0:0:0:
28,157,686097,1,0,0:0:0:0:
375,197,686240,1,8,0:0:0:0:
108,0,686382,5,4,0:0:0:0:
132,352,686525,2,0,B|124:289|124:289|139:224|139:224|132:164,1,187.000005706787,0|8,0:0|0:0,0:0:0:0:
303,319,686954,6,0,P|211:366|102:332,1,187.000005706787,4|0,0:0|0:0,0:0:0:0:
375,197,687382,1,8,0:0:0:0:
375,197,687525,1,0,0:0:0:0:
200,266,687668,2,0,L|188:156,1,93.5000028533936,0|0,0:0|0:0,0:0:0:0:
385,104,687954,2,0,L|374:196,1,93.5000028533936,8|0,0:0|0:0,0:0:0:0:
459,311,688240,5,0,0:0:0:0:
512,112,688382,1,0,0:0:0:0:
297,125,688525,2,0,P|344:102|412:115,1,93.5000028533936,8|0,0:0|0:0,0:0:0:0:
184,48,688811,2,0,P|143:26|96:26,1,93.5000028533936,0|0,0:0|0:0,0:0:0:0:
124,287,689097,1,8,0:0:0:0:
123,103,689240,6,0,B|107:157|107:157|127:313,1,187.000005706787,4|0,0:0|0:0,0:0:0:0:
340,165,689668,2,0,L|220:163,1,93.5000028533936,8|0,0:0|0:0,0:0:0:0:
123,286,689954,2,0,L|350:282,1,187.000005706787,0|8,0:0|0:0,0:0:0:0:
457,301,690382,1,0,0:0:0:0:
401,110,690525,2,0,P|420:163|399:221,1,93.5000028533936,0|0,0:0|0:0,0:0:0:0:
266,192,690811,2,0,P|260:146|279:104,1,93.5000028533936,8|0,0:0|0:0,0:0:0:0:
123,25,691097,1,0,0:0:0:0:
44,176,691240,2,0,P|86:194|132:188,1,93.5000028533936,0|8,0:0|0:0,0:0:0:0:
136,371,691525,6,0,B|117:314|117:314|133:177,1,187.000005706787,4|0,0:0|0:0,0:0:0:0:
269,201,691954,2,0,L|274:307,1,93.5000028533936,8|0,0:0|0:0,0:0:0:0:
440,294,692240,2,0,L|444:200,1,93.5000028533936,0|0,0:0|0:0,0:0:0:0:
360,71,692525,5,8,0:0:0:0:
360,71,692668,1,0,0:0:0:0:
136,98,692811,1,0,0:0:0:0:
335,217,692954,1,0,0:0:0:0:
253,26,693097,1,8,0:0:0:0:
177,227,693240,1,0,0:0:0:0:
388,60,693382,2,0,L|395:169,1,93.5000028533936,0|0,0:0|0:0,0:0:0:0:
415,362,693668,1,8,0:0:0:0:
415,362,693811,5,4,0:0:0:0:
71,384,693954,1,8,0:0:0:0:
408,246,694097,5,8,0:0:0:0:
64,243,694240,1,8,0:0:0:0:
408,138,694382,5,8,0:0:0:0:
64,141,694525,1,8,0:0:0:0:
415,22,694668,5,8,0:0:0:0:
71,0,694811,1,8,0:0:0:0:
247,250,694954,5,8,0:0:0:0:
246,0,695097,1,8,0:0:0:0:
461,198,695240,5,8,0:0:0:0:
136,103,695382,1,8,0:0:0:0:
320,367,695525,5,8,0:0:0:0:
299,80,695668,1,8,0:0:0:0:
115,295,695810,5,8,0:0:0:0:
470,119,695953,1,8,0:0:0:0:
301,384,696097,6,0,B|285:335|285:335|299:182,1,187.000005706787,12|0,0:0|0:0,0:0:0:0:
362,30,696525,2,0,P|307:16|242:32,1,93.5000028533936,8|0,0:0|0:0,0:0:0:0:
97,191,696811,2,0,P|152:205|217:189,1,93.5000028533936,0|0,0:0|0:0,0:0:0:0:
308,100,697097,1,8,0:0:0:0:
152,47,697240,1,0,0:0:0:0:
257,337,697382,6,0,B|230:293|259:245|259:245|288:191|238:128,1,187.000005706787,0|8,0:0|0:0,0:0:0:0:
443,286,697811,1,0,0:0:0:0:
443,286,697954,2,0,L|335:289,1,93.5000028533936,0|0,0:0|0:0,0:0:0:0:
187,200,698240,1,8,0:0:0:0:
0,384,698382,6,0,B|37:328|37:328|24:168,1,187.000005706787,4|0,0:0|0:0,0:0:0:0:
128,78,698811,2,0,P|84:46|30:43,1,93.5000028533936,8|0,0:0|0:0,0:0:0:0:
269,84,699097,2,0,P|260:30|224:-10,1,93.5000028533936,0|0,0:0|0:0,0:0:0:0:
364,187,699382,2,0,P|396:142|399:89,1,93.5000028533936,8|0,0:0|0:0,0:0:0:0:
248,281,699668,2,0,P|216:236|213:183,1,93.5000028533936,0|0,0:0|0:0,0:0:0:0:
373,384,699954,2,0,P|405:339|408:286,1,93.5000028533936,8|0,0:0|0:0,0:0:0:0:
201,373,700240,5,0,0:0:0:0:
325,309,700382,1,0,0:0:0:0:
113,265,700525,1,8,0:0:0:0:
336,174,700668,2,0,P|248:130|137:150,1,187.000005706787,4|0,0:0|0:0,0:0:0:0:
64,71,701097,2,0,P|46:125|55:177,1,93.5000028533936,8|0,0:0|0:0,0:0:0:0:
211,344,701382,2,0,P|229:290|220:238,1,93.5000028533936,0|0,0:0|0:0,0:0:0:0:
365,29,701668,6,0,P|331:115|407:167,1,187.000005706787,8|0,0:0|0:0,0:0:0:0:
474,325,702097,1,0,0:0:0:0:
474,325,702239,2,0,L|472:221,1,93.5000028533936,8|0,0:0|0:0,0:0:0:0:
405,92,702525,1,0,0:0:0:0:
337,231,702668,2,0,L|336:325,1,93.5000028533936,0|8,0:0|0:0,0:0:0:0:
140,109,702954,6,0,L|258:109,1,95.6250036478044,4|0,0:0|0:0,0:0:0:0:
235,200,703240,5,0,0:0:0:0:
234,232,703311,1,0,0:0:0:0:
234,264,703382,1,0,0:0:0:0:
233,296,703454,1,0,0:0:0:0:
233,327,703525,2,0,L|342:327,1,95.6250036478044,4|0,0:0|0:0,0:0:0:0:
338,164,703811,5,0,0:0:0:0:
369,165,703882,1,0,0:0:0:0:
402,165,703953,1,0,0:0:0:0:
434,164,704025,1,0,0:0:0:0:
461,164,704097,2,0,L|461:273,1,95.6250036478044,4|0,0:0|0:0,0:0:0:0:
457,378,704382,5,0,0:0:0:0:
425,378,704453,1,0,0:0:0:0:
393,377,704524,1,0,0:0:0:0:
361,376,704596,1,0,0:0:0:0:
329,375,704667,5,4,0:0:0:0:
329,351,704740,1,0,0:0:0:0:
329,327,704811,1,0,0:0:0:0:
330,303,704882,1,0,0:0:0:0:
331,278,704954,1,0,0:0:0:0:
332,254,705024,1,0,0:0:0:0:
333,229,705097,1,0,0:0:0:0:
334,205,705167,1,0,0:0:0:0:
335,180,705240,6,0,P|256:111|187:181,1,187.000005706787,4|0,0:0|0:0,0:0:0:0:
56,347,705668,2,0,L|53:243,1,93.5000028533936,8|0,0:0|0:0,0:0:0:0:
197,146,705954,1,0,0:0:0:0:
15,91,706097,2,0,P|66:75|123:102,1,93.5000028533936,0|8,0:0|0:0,0:0:0:0:
461,89,706382,6,0,P|360:55|258:93,1,187.000005706787,0|0,0:0|0:0,0:0:0:0:
311,288,706811,2,0,P|352:307|399:304,1,93.5000028533936,8|0,0:0|0:0,0:0:0:0:
419,153,707097,2,0,P|377:133|331:137,1,93.5000028533936,0|0,0:0|0:0,0:0:0:0:
366,218,707382,1,8,0:0:0:0:
149,377,707525,6,0,B|183:321|183:321|173:182,1,187.000005706787
32,264,707954,1,8,0:0:0:0:
32,264,708097,1,0,0:0:0:0:
52,0,708239,2,0,B|18:56|18:56|28:195,1,187.000005706787,0|8,0:0|0:0,0:0:0:0:
174,106,708668,5,0,0:0:0:0:
311,281,708811,2,0,L|320:187,1,93.5000028533936,0|0,0:0|0:0,0:0:0:0:
494,192,709097,2,0,L|503:285,1,93.5000028533936,8|0,0:0|0:0,0:0:0:0:
406,71,709382,5,0,0:0:0:0:
405,253,709525,1,0,0:0:0:0:
281,108,709668,1,8,0:0:0:0:
239,307,709811,2,0,B|182:322|182:322|36:301,1,187.000005706787,0|0,0:0|0:0,0:0:0:0:
76,133,710240,2,0,L|197:152,1,93.5000028533936,8|0,0:0|0:0,0:0:0:0:
315,169,710525,5,0,0:0:0:0:
163,48,710668,1,0,0:0:0:0:
448,104,710811,1,8,0:0:0:0:
312,32,710954,2,0,B|363:52|409:28|409:28|459:8|515:43,1,187.000005706787,0|0,0:0|0:0,0:0:0:0:
510,178,711382,2,0,L|509:271,1,93.5000028533936,8|0,0:0|0:0,0:0:0:0:
509,362,711668,5,0,0:0:0:0:
294,290,711811,1,0,0:0:0:0:
446,136,711954,1,8,0:0:0:0:
353,367,712097,2,0,B|295:380|295:380|168:366,1,187.000005706787,0|0,0:0|0:0,0:0:0:0:
56,119,712525,5,8,0:0:0:0:
56,119,712668,2,0,P|137:164|228:94,1,187.000005706787,0|0,0:0|0:0,0:0:0:0:
464,228,713097,5,8,0:0:0:0:
464,228,713240,1,0,0:0:0:0:
464,42,713382,2,0,B|402:33|402:33|256:44,1,187.000005706787,0|8,0:0|0:0,0:0:0:0:
278,227,713811,1,0,0:0:0:0:
464,228,713954,2,0,B|402:237|402:237|256:226,1,187.000005706787,0|8,0:0|0:0,0:0:0:0:
75,363,714382,6,0,B|126:338|126:338|167:240|72:182,1,203.999993774414,4|0,0:0|0:0,0:0:0:0:
168,35,714811,1,8,0:0:0:0:
461,104,714954,6,0,B|398:83|390:35|390:35|334:66|270:41,1,203.999993774414,4|0,0:0|0:0,0:0:0:0:
502,232,715382,1,8,0:0:0:0:
264,341,715525,6,0,B|317:364|366:328|366:328|407:324|460:378,1,203.999993774414,4|0,0:0|0:0,0:0:0:0:
294,181,715954,1,8,0:0:0:0:
75,363,716097,6,0,B|52:307|52:307|83:220|83:220|66:162,1,203.999993774414,4|0,0:0|0:0,0:0:0:0:
51,31,716525,1,8,0:0:0:0:
51,31,716668,1,0,0:0:0:0:
294,181,716811,6,0,L|177:178,1,101.999996887207,0|0,0:0|0:0,0:0:0:0:
191,26,717097,2,0,L|292:28,1,101.999996887207,8|0,0:0|0:0,0:0:0:0:
305,277,717382,6,0,P|285:218|308:160,1,101.999996887207,0|0,0:0|0:0,0:0:0:0:
463,186,717668,2,0,P|471:235|451:282,1,101.999996887207,8|0,0:0|0:0,0:0:0:0:
281,96,717954,6,0,B|329:86|329:86|381:98,1,101.999996887207,0|0,0:0|0:0,0:0:0:0:
304,276,718240,2,0,B|252:288|252:288|205:278,1,101.999996887207,8|0,0:0|0:0,0:0:0:0:
24,300,718525,6,0,B|12:248|12:248|23:201,1,101.999996887207,0|0,0:0|0:0,0:0:0:0:
204,277,718811,2,0,B|215:325|215:325|203:377,1,101.999996887207,8|0,0:0|0:0,0:0:0:0:
0,384,719097,5,8,0:0:0:0:
203,377,719240,1,8,0:0:0:0:
1,286,719382,5,8,0:0:0:0:
271,251,719525,1,8,0:0:0:0:
5,160,719668,5,8,0:0:0:0:
345,128,719811,1,8,0:0:0:0:
14,22,719954,5,8,0:0:0:0:
403,14,720097,1,8,0:0:0:0:
162,251,720240,5,8,0:0:0:0:
287,0,720382,1,8,0:0:0:0:
331,284,720525,5,8,0:0:0:0:
146,41,720668,1,8,0:0:0:0:
0,384,720811,5,10,0:0:0:0:
428,0,723525,6,0,B|386:50|421:109|421:109|467:173|423:243,1,237.999992736817,4|0,0:0|0:0,0:0:0:0:
163,363,723954,2,0,P|218:380|292:354,1,118.999996368408,8|0,0:0|0:0,0:0:0:0:
364,171,724240,1,0,0:0:0:0:
220,299,724382,1,0,0:0:0:0:
190,114,724525,1,8,0:0:0:0:
0,272,724668,6,0,B|-5:225|26:197|26:197|-28:109|50:35,1,237.999992736817,0|0,0:0|0:0,0:0:0:0:
109,262,725097,2,0,P|167:270|220:245,1,118.999996368408,8|0,0:0|0:0,0:0:0:0:
354,74,725382,1,0,0:0:0:0:
157,188,725525,1,0,0:0:0:0:
367,298,725668,1,8,0:0:0:0:
507,45,725811,6,0,B|475:90|511:139|511:139|493:160|493:160|522:221|478:264,1,237.999992736817,4|0,0:0|0:0,0:0:0:0:
200,365,726240,2,0,P|182:299|204:224,1,118.999996368408,8|0,0:0|0:0,0:0:0:0:
429,205,726525,1,0,0:0:0:0:
273,299,726668,1,0,0:0:0:0:
269,84,726811,1,8,0:0:0:0:
16,183,726954,6,0,B|71:208|124:174|124:174|192:137|264:181,1,237.999992736817,0|0,0:0|0:0,0:0:0:0:
82,6,727382,2,0,P|50:56|74:124,1,118.999996368408,8|0,0:0|0:0,0:0:0:0:
193,251,727668,1,0,0:0:0:0:
8,291,727811,1,0,0:0:0:0:
324,384,727954,5,8,0:0:0:0:
324,384,728025,1,0,0:0:0:0:
324,384,728097,2,0,P|209:332|78:391,1,237.999992736817,4|0,0:0|0:0,0:0:0:0:
435,210,728525,2,0,L|433:340,1,118.999996368408,8|0,0:0|0:0,0:0:0:0:
263,161,728811,2,0,L|261:42,1,118.999996368408,0|0,0:0|0:0,0:0:0:0:
407,37,729097,1,8,0:0:0:0:
168,202,729240,6,0,P|270:261|378:166,1,237.999992736817,0|0,0:0|0:0,0:0:0:0:
261,42,729668,2,0,P|209:20|108:33,1,118.999996368408,8|0,0:0|0:0,0:0:0:0:
11,243,729954,1,0,0:0:0:0:
32,42,730097,1,0,0:0:0:0:
168,202,730240,5,8,0:0:0:0:
168,202,730311,1,0,0:0:0:0:
168,202,730382,2,0,B|218:176|218:176|431:183,1,237.999992736817,4|0,0:0|0:0,0:0:0:0:
386,309,730811,2,0,L|235:303,1,118.999996368408,8|0,0:0|0:0,0:0:0:0:
285,60,731097,2,0,L|403:64,1,118.999996368408,0|0,0:0|0:0,0:0:0:0:
168,202,731382,1,8,0:0:0:0:
50,22,731525,6,0,B|79:89|18:127|18:127|74:177|31:252,1,237.999992736817,0|0,0:0|0:0,0:0:0:0:
113,341,731954,2,0,P|43:361|-11:345,1,118.999996368408,8|0,0:0|0:0,0:0:0:0:
168,202,732240,2,0,P|238:182|292:198,1,118.999996368408,0|0,0:0|0:0,0:0:0:0:
420,340,732525,1,8,0:0:0:0:
228,272,732668,6,0,P|334:271|347:132,1,237.999992736817,4|0,0:0|0:0,0:0:0:0:
301,27,733097,2,0,P|365:9|448:51,1,118.999996368408,8|0,0:0|0:0,0:0:0:0:
474,237,733382,2,0,P|410:255|327:213,1,118.999996368408,0|0,0:0|0:0,0:0:0:0:
280,117,733668,1,8,0:0:0:0:
22,268,733811,6,0,P|119:321|246:240,1,237.999992736817,0|0,0:0|0:0,0:0:0:0:
117,75,734240,2,0,L|123:225,1,118.999996368408,8|0,0:0|0:0,0:0:0:0:
390,193,734525,2,0,L|395:75,1,118.999996368408,0|0,0:0|0:0,0:0:0:0:
256,344,734811,1,8,0:0:0:0:
256,106,734954,6,0,L|256:354,1,237.999992736817,4|0,0:0|0:0,0:0:0:0:
30,279,735382,2,0,P|89:257|168:295,1,118.999996368408,8|0,0:0|0:0,0:0:0:0:
482,105,735668,2,0,P|423:127|344:89,1,118.999996368408,0|0,0:0|0:0,0:0:0:0:
155,113,735954,1,8,0:0:0:0:
375,339,736097,6,0,B|344:292|344:292|374:88,1,237.999992736817,0|0,0:0|0:0,0:0:0:0:
92,17,736525,2,0,L|210:14,1,118.999996368408,8|0,0:0|0:0,0:0:0:0:
56,297,736811,1,0,0:0:0:0:
155,113,736954,1,0,0:0:0:0:
256,342,737097,5,8,0:0:0:0:
256,342,737168,1,0,0:0:0:0:
256,342,737240,2,0,L|390:338,1,118.999996368408,4|0,0:0|0:0,0:0:0:0:
377,150,737525,2,0,L|258:146,1,118.999996368408,0|8,0:0|0:0,0:0:0:0:
14,194,737811,2,0,P|0:124|48:40,1,118.999996368408,0|0,0:0|0:0,0:0:0:0:
246,90,738097,2,0,P|260:147|245:204,1,118.999996368408,0|8,0:0|0:0,0:0:0:0:
71,346,738382,2,0,B|135:355|135:355|208:342,1,118.999996368408,0|0,0:0|0:0,0:0:0:0:
188,142,738668,2,0,B|124:133|124:133|51:146,1,118.999996368408,0|8,0:0|0:0,0:0:0:0:
249,257,738954,5,0,0:0:0:0:
377,92,739096,1,0,0:0:0:0:
425,294,739239,1,0,0:0:0:0:
457,34,739382,5,8,0:0:0:0:
457,34,739454,1,0,0:0:0:0:
457,34,739525,2,0,P|399:1|308:17,1,118.999996368408,4|0,0:0|0:0,0:0:0:0:
115,91,739811,2,0,P|173:124|264:108,1,118.999996368408,0|8,0:0|0:0,0:0:0:0:
377,92,740096,2,0,L|379:210,1,118.999996368408
231,366,740382,2,0,L|228:228,1,118.999996368408,0|8,0:0|0:0,0:0:0:0:
86,91,740668,6,0,B|21:120|32:184|32:184|99:218|62:301,1,237.999992736817,0|0,0:0|0:0,0:0:0:0:
231,366,741097,2,0,P|193:321|198:263,1,118.999996368408,8|0,0:0|0:0,0:0:0:0:
346,115,741382,1,8,0:0:0:0:
268,300,741525,1,8,0:0:0:0:
496,142,741668,1,8,0:0:0:0:
512,363,741811,6,0,B|465:333|413:363|413:363|364:388|304:349,1,195.500003728867,4|0,0:0|0:0,0:0:0:0:
241,245,742240,1,8,0:0:0:0:
241,245,742382,1,0,0:0:0:0:
370,292,742525,2,0,P|382:218|354:176,1,97.7500018644333,0|0,0:0|0:0,0:0:0:0:
502,152,742811,1,8,0:0:0:0:
373,199,742954,2,0,P|361:125|389:83,1,97.7500018644333,0|0,0:0|0:0,0:0:0:0:
139,199,743240,2,0,P|151:125|123:83,1,97.7500018644333,0|8,0:0|0:0,0:0:0:0:
256,24,743525,2,0,L|256:121,1,97.7500018644333,0|0,0:0|0:0,0:0:0:0:
256,360,743811,1,0,0:0:0:0:
256,360,743954,1,8,0:0:0:0:
46,194,744097,6,0,P|92:182|138:198,1,97.7500018644333,4|0,0:0|0:0,0:0:0:0:
466,194,744382,2,0,P|419:182|373:198,1,97.7500018644333,0|8,0:0|0:0,0:0:0:0:
90,362,744668,2,0,L|89:244,1,97.7500018644333,0|0,0:0|0:0,0:0:0:0:
422,362,744954,2,0,L|423:244,1,97.7500018644333,0|8,0:0|0:0,0:0:0:0:
207,98,745240,2,0,L|325:98,1,97.7500018644333,0|0,0:0|0:0,0:0:0:0:
207,286,745525,2,0,L|325:286,1,97.7500018644333,0|8,0:0|0:0,0:0:0:0:
451,143,745811,2,0,L|451:241,1,97.7500018644333,0|0,0:0|0:0,0:0:0:0:
256,192,746097,1,0,0:0:0:0:
256,49,746240,1,8,0:0:0:0:
256,49,746382,5,4,0:0:0:0:
20,112,746525,2,0,L|16:15,1,97.7500018644333,0|0,0:0|0:0,0:0:0:0:
176,112,746811,1,8,0:0:0:0:
43,272,746954,2,0,P|89:290|168:255,1,97.7500018644333,0|0,0:0|0:0,0:0:0:0:
360,213,747240,2,0,L|357:325,1,97.7500018644333,0|8,0:0|0:0,0:0:0:0:
95,207,747525,2,0,L|92:109,1,97.7500018644333,0|0,0:0|0:0,0:0:0:0:
355,55,747811,2,0,L|257:52,1,97.7500018644333,0|8,0:0|0:0,0:0:0:0:
259,267,748097,2,0,P|241:206|264:147,1,97.7500018644333,0|0,0:0|0:0,0:0:0:0:
429,158,748382,1,0,0:0:0:0:
429,158,748525,1,8,0:0:0:0:
171,373,748668,6,0,B|222:360|222:360|281:366,1,97.7500018644333,4|0,0:0|0:0,0:0:0:0:
512,358,748954,2,0,B|467:353|467:353|416:366,1,97.7500018644333,0|8,0:0|0:0,0:0:0:0:
163,275,749240,2,0,B|214:262|214:262|273:268,1,97.7500018644333,0|0,0:0|0:0,0:0:0:0:
504,260,749524,2,0,B|459:255|459:255|408:268,1,97.7500018644333,0|8,0:0|0:0,0:0:0:0:
327,32,749811,6,0,B|340:83|340:83|334:142,1,97.7500018644333,0|0,0:0|0:0,0:0:0:0:
342,373,750097,2,0,B|346:328|346:328|333:277,1,97.7500018644333,0|8,0:0|0:0,0:0:0:0:
235,93,750382,1,8,0:0:0:0:
235,93,750454,1,8,0:0:0:0:
235,93,750525,1,8,0:0:0:0:
237,331,750668,1,8,0:0:0:0:
333,277,750811,1,8,0:0:0:0:
78,118,750954,6,0,P|129:193|75:267,1,195.500003728867,4|0,0:0|0:0,0:0:0:0:
260,67,751382,1,8,0:0:0:0:
260,67,751525,1,0,0:0:0:0:
436,266,751668,6,0,P|382:193|433:118,1,195.500003728867,0|8,0:0|0:0,0:0:0:0:
256,318,752097,1,0,0:0:0:0:
329,14,752240,6,0,P|254:65|181:11,1,195.500003728867,0|8,0:0|0:0,0:0:0:0:
459,190,752668,1,0,0:0:0:0:
181,372,752811,6,0,P|254:318|329:369,1,195.500003728867,0|8,0:0|0:0,0:0:0:0:
53,190,753240,1,4,0:0:0:0:
355,65,753382,6,0,B|256:53|256:53|148:66,1,195.500003728867,0|8,0:0|0:0,0:0:0:0:
459,190,753811,1,0,0:0:0:0:
160,319,753954,6,0,B|256:331|256:331|355:319,1,195.500003728867,0|8,0:0|0:0,0:0:0:0:
209,190,754382,2,0,P|257:122|302:193,1,195.500003728867,0|0,0:0|0:0,0:0:0:0:
459,190,754811,1,8,0:0:0:0:
470,195,755097,5,8,0:0:0:0:
419,314,755240,1,8,0:0:0:0:
359,155,755382,1,8,0:0:0:0:
292,267,755525,2,0,P|234:246|214:181,1,97.7500018644333,12|0,0:0|0:0,0:0:0:0:
12,267,755811,2,0,P|70:246|90:181,1,97.7500018644333,0|8,0:0|0:0,0:0:0:0:
154,41,756097,2,0,P|222:89|151:134,1,195.500003728867,0|0,0:0|0:0,0:0:0:0:
28,80,756525,1,8,0:0:0:0:
15,77,756811,5,8,0:0:0:0:
238,250,756954,1,8,0:0:0:0:
268,265,757382,6,0,B|283:215|283:215|268:99,1,146.62500279665,8|0,0:0|0:0,0:0:0:0:
265,93,757668,1,8,0:0:0:0:
107,344,757811,2,0,L|230:347,1,97.7500018644333,12|0,0:0|0:0,0:0:0:0:
405,344,758097,2,0,L|282:347,1,97.7500018644333,0|8,0:0|0:0,0:0:0:0:
270,81,758382,2,0,B|300:128|275:174|275:174|242:225|276:280,1,195.500003728867,0|0,0:0|0:0,0:0:0:0:
348,223,758811,1,8,0:0:0:0:
365,228,759097,5,8,0:0:0:0:
198,128,759240,1,8,0:0:0:0:
395,215,759382,1,8,0:0:0:0:
158,234,759525,1,8,0:0:0:0:
425,202,759668,1,8,0:0:0:0:
186,332,759811,1,8,0:0:0:0:
455,189,759954,1,8,0:0:0:0:
333,383,760097,6,0,B|311:332|311:332|312:261,1,97.7500018644333,12|0,0:0|0:0,0:0:0:0:
294,42,760382,2,0,B|316:93|316:93|315:164,1,97.7500018644333,0|8,0:0|0:0,0:0:0:0:
139,237,760668,2,0,B|190:215|190:215|261:216,1,97.7500018644333,0|0,0:0|0:0,0:0:0:0:
480,198,760954,2,0,B|429:220|429:220|358:219,1,97.7500018644333,0|8,0:0|0:0,0:0:0:0:
159,315,761240,2,0,B|210:293|210:293|281:294,1,97.7500018644333,4|0,0:0|0:0,0:0:0:0:
500,276,761524,2,0,B|449:298|449:298|378:297,1,97.7500018644333,0|8,0:0|0:0,0:0:0:0:
315,135,761811,5,0,0:0:0:0:
334,354,761954,1,0,0:0:0:0:
136,146,762097,1,0,0:0:0:0:
145,366,762240,1,8,0:0:0:0:
21,83,762382,6,0,P|3:129|28:201,1,97.7500018644333,4|0,0:0|0:0,0:0:0:0:
145,366,762668,2,0,P|163:320|138:248,1,97.7500018644333,0|8,0:0|0:0,0:0:0:0:
345,139,762954,2,0,P|299:121|227:146,1,97.7500018644333,0|0,0:0|0:0,0:0:0:0:
62,263,763240,2,0,P|108:281|180:256,1,97.7500018644333,0|8,0:0|0:0,0:0:0:0:
150,32,763525,2,0,P|132:78|157:150,1,97.7500018644333,4|0,0:0|0:0,0:0:0:0:
274,315,763811,2,0,P|292:269|267:197,1,97.7500018644333,0|8,0:0|0:0,0:0:0:0:
447,97,764097,6,0,B|469:151|469:151|447:300,1,195.500003728867,0|0,0:0|0:0,0:0:0:0:
284,222,764525,1,8,0:0:0:0:
502,25,764668,2,0,P|449:9|380:36,1,97.7500018644333,4|0,0:0|0:0,0:0:0:0:
214,128,764954,2,0,P|267:144|336:117,1,97.7500018644333,0|8,0:0|0:0,0:0:0:0:
448,286,765240,2,0,P|464:233|437:164,1,97.7500018644333,0|0,0:0|0:0,0:0:0:0:
195,210,765525,1,0,0:0:0:0:
377,233,765668,1,8,0:0:0:0:
146,335,765811,6,0,B|93:338|93:338|39:266|84:201,1,195.500003728867,4|0,0:0|0:0,0:0:0:0:
72,43,766240,1,8,0:0:0:0:
72,43,766382,2,0,P|133:43|182:73,1,97.7500018644333,0|0,0:0|0:0,0:0:0:0:
420,116,766668,2,0,P|359:116|310:146,1,97.7500018644333,0|8,0:0|0:0,0:0:0:0:
219,384,766954,6,0,L|197:166,1,195.500003728867,4|0,0:0|0:0,0:0:0:0:
401,336,767382,1,8,0:0:0:0:
401,336,767525,2,0,L|284:332,1,97.7500018644333,0|0,0:0|0:0,0:0:0:0:
415,188,767811,2,0,L|512:191,1,97.7500018644333,0|8,0:0|0:0,0:0:0:0:
280,75,768097,6,0,B|228:50|181:78|181:78|127:108|72:62,1,195.500003728867,4|0,0:0|0:0,0:0:0:0:
138,14,768525,1,8,0:0:0:0:
147,6,768811,5,8,0:0:0:0:
58,225,768954,1,8,0:0:0:0:
50,233,769239,6,0,P|134:368|294:216,1,425,4|0,0:0|0:0,0:0:0:0:
448,131,770097,6,0,B|396:120|396:120|347:128,1,101.999996887207,0|8,0:0|0:0,0:0:0:0:
173,86,770382,1,0,0:0:0:0:
157,267,770525,2,0,B|166:241|195:220|195:220|137:146|185:61,1,203.999993774414,0|8,0:0|0:0,0:0:0:0:
236,292,770954,1,0,0:0:0:0:
61,296,771097,2,0,B|82:343|82:343|140:365,1,101.999996887207,0|0,0:0|0:0,0:0:0:0:
264,135,771382,1,8,0:0:0:0:
456,293,771525,6,0,B|450:337|386:352|386:352|352:288|261:318,1,203.999993774414,4|0,0:0|0:0,0:0:0:0:
402,119,771954,2,0,P|415:175|407:232,1,101.999996887207,8|0,0:0|0:0,0:0:0:0:
262,22,772239,2,0,P|251:73|257:135,1,101.999996887207
110,119,772525,2,0,P|116:176|105:232,1,101.999996887207,8|0,0:0|0:0,0:0:0:0:
233,372,772811,2,0,P|185:362|120:377,1,101.999996887207
330,232,773097,2,0,P|274:242|217:227,1,101.999996887207,8|0,0:0|0:0,0:0:0:0:
440,356,773382,5,0,0:0:0:0:
297,320,773525,1,0,0:0:0:0:
425,155,773668,1,8,0:0:0:0:
179,77,773811,2,0,P|278:93|380:30,1,203.999993774414,4|0,0:0|0:0,0:0:0:0:
91,237,774240,2,0,P|100:180|72:120,1,101.999996887207,8|0,0:0|0:0,0:0:0:0:
233,358,774525,2,0,P|219:309|229:260,1,101.999996887207,0|0,0:0|0:0,0:0:0:0:
37,355,774811,6,0,B|95:370|95:370|161:342,1,101.999996887207,8|0,0:0|0:0,0:0:0:0:
194,158,775097,1,0,0:0:0:0:
395,302,775240,2,0,B|357:319|357:319|299:304,1,101.999996887207,0|8,0:0|0:0,0:0:0:0:
385,137,775525,2,0,P|343:187|350:247,1,101.999996887207,0|0,0:0|0:0,0:0:0:0:
448,374,775811,2,0,P|490:324|483:264,1,101.999996887207,0|8,0:0|0:0,0:0:0:0:
477,32,776097,6,0,B|486:83|486:83|475:160,1,108.375002067089,4|0,0:0|0:0,0:0:0:0:
385,137,776382,5,0,0:0:0:0:
348,136,776453,1,0,0:0:0:0:
312,136,776524,1,0,0:0:0:0:
276,135,776596,1,0,0:0:0:0:
237,136,776667,2,0,B|246:187|246:187|235:264,1,108.375002067089,4|0,0:0|0:0,0:0:0:0:
146,241,776954,5,0,0:0:0:0:
109,240,777025,1,0,0:0:0:0:
73,240,777096,1,0,0:0:0:0:
37,239,777168,1,0,0:0:0:0:
1,239,777239,2,0,B|10:290|10:290|-1:367,1,108.375002067089,4|0,0:0|0:0,0:0:0:0:
84,349,777525,5,0,0:0:0:0:
120,349,777597,1,0,0:0:0:0:
156,350,777667,1,0,0:0:0:0:
192,350,777740,1,0,0:0:0:0:
229,351,777811,1,4,0:0:0:0:
229,332,777882,1,0,0:0:0:0:
229,314,777953,1,0,0:0:0:0:
229,296,778025,1,0,0:0:0:0:
230,278,778096,1,0,0:0:0:0:
230,260,778168,1,0,0:0:0:0:
230,242,778239,1,0,0:0:0:0:
230,224,778310,1,0,0:0:0:0:
231,206,778382,6,0,P|306:157|403:214,1,203.999993774414,4|0,0:0|0:0,0:0:0:0:
485,330,778811,1,8,0:0:0:0:
313,346,778954,2,0,L|315:245,1,101.999996887207
179,36,779240,2,0,L|177:137,1,101.999996887207,0|8,0:0|0:0,0:0:0:0:
0,351,779525,6,0,B|34:306|34:306|-20:223|45:151,1,203.999993774414
222,234,779954,1,8,0:0:0:0:
222,234,780097,2,0,P|168:250|105:213,1,101.999996887207,0|0,0:0|0:0,0:0:0:0:
255,34,780382,2,0,P|309:18|372:55,1,101.999996887207,0|8,0:0|0:0,0:0:0:0:
318,292,780668,6,0,B|332:226|332:226|299:152|299:152|305:82,1,203.999993774414,4|0,0:0|0:0,0:0:0:0:
457,177,781097,1,8,0:0:0:0:
457,177,781240,1,0,0:0:0:0:
384,336,781382,6,0,B|351:379|292:379|257:343|257:343|192:359,1,203.999993774414,0|8,0:0|0:0,0:0:0:0:
46,225,781811,1,0,0:0:0:0:
67,384,781954,2,0,P|104:341|101:256,1,101.999996887207,0|0,0:0|0:0,0:0:0:0:
46,225,782240,2,0,P|9:182|12:97,1,101.999996887207,8|0,0:0|0:0,0:0:0:0:
280,157,782525,5,0,0:0:0:0:
83,149,782668,1,0,0:0:0:0:
300,180,782811,1,8,0:0:0:0:
72,122,782954,2,0,P|94:71|257:67,1,203.999993774414,0|0,0:0|0:0,0:0:0:0:
189,267,783382,2,0,P|210:207|185:144,1,101.999996887207,8|0,0:0|0:0,0:0:0:0:
92,205,783668,5,0,0:0:0:0:
363,214,783811,1,0,0:0:0:0:
82,245,783954,1,8,0:0:0:0:
376,171,784097,2,0,B|407:233|407:233|386:379,1,203.999993774414,0|0,0:0|0:0,0:0:0:0:
441,92,784525,2,0,P|389:69|312:94,1,101.999996887207,8|0,0:0|0:0,0:0:0:0:
122,349,784811,5,0,0:0:0:0:
359,142,784954,1,0,0:0:0:0:
104,303,785097,1,8,0:0:0:0:
399,171,785240,2,0,B|368:233|368:233|389:379,1,203.999993774414,0|0,0:0|0:0,0:0:0:0:
104,106,785668,1,8,0:0:0:0:
104,106,785811,6,0,P|36:160|109:226,1,203.999993774414,0|0,0:0|0:0,0:0:0:0:
400,46,786240,1,8,0:0:0:0:
400,46,786382,6,0,B|319:11|266:77|266:77|181:61,1,203.999993774414,0|0,0:0|0:0,0:0:0:0:
375,352,786811,1,8,0:0:0:0:
375,352,786954,6,0,B|338:293|338:293|362:117,1,203.999993774414,0|0,0:0|0:0,0:0:0:0:
477,264,787382,1,8,0:0:0:0:
145,314,787524,6,0,B|211:290|211:290|275:309|275:309|367:283,1,203.999993774414,4|0,0:0|0:0,0:0:0:0:
274,87,787954,1,8,0:0:0:0:
210,292,788097,6,0,B|143:221|143:221|133:110,1,203.999993774414,4|0,0:0|0:0,0:0:0:0:
15,276,788525,1,8,0:0:0:0:
81,59,788668,6,0,B|137:23|181:58|181:58|181:64|181:64|227:91|311:46,1,203.999993774414,4|0,0:0|0:0,0:0:0:0:
436,34,789097,1,8,0:0:0:0:
306,288,789240,6,0,B|343:308|379:288|379:288|405:324|465:323|496:295,1,203.999993774414,4|0,0:0|0:0,0:0:0:0:
186,188,789668,1,8,0:0:0:0:
186,188,789811,1,0,0:0:0:0:
342,220,789954,6,0,L|333:105,1,101.999996887207,0|0,0:0|0:0,0:0:0:0:
186,188,790240,2,0,L|178:289,1,101.999996887207,8|0,0:0|0:0,0:0:0:0:
116,24,790525,6,0,L|1:33,1,101.999996887207,0|0,0:0|0:0,0:0:0:0:
84,180,790811,2,0,L|185:187,1,101.999996887207,8|0,0:0|0:0,0:0:0:0:
315,112,791097,6,0,B|328:159|328:159|314:240,1,101.999996887207,0|0,0:0|0:0,0:0:0:0:
484,214,791382,2,0,B|474:161|474:161|487:114,1,101.999996887207,8|0,0:0|0:0,0:0:0:0:
319,212,791668,6,0,B|272:225|272:225|191:211,1,101.999996887207,0|0,0:0|0:0,0:0:0:0:
216,381,791954,2,0,B|268:371|268:371|315:384,1,101.999996887207,8|0,0:0|0:0,0:0:0:0:
496,370,792240,5,8,0:0:0:0:
337,297,792382,1,8,0:0:0:0:
512,236,792525,5,8,0:0:0:0:
279,194,792668,1,8,0:0:0:0:
512,125,792811,5,8,0:0:0:0:
192,119,792954,1,8,0:0:0:0:
449,40,793097,5,8,0:0:0:0:
100,194,793240,1,8,0:0:0:0:
353,8,793382,5,8,0:0:0:0:
42,297,793525,1,8,0:0:0:0:
252,5,793668,5,8,0:0:0:0:
113,384,793811,1,8,0:0:0:0:
512,125,793954,5,10,0:0:0:0:
435,118,796668,6,0,B|460:189|402:232|402:232|372:298|430:358,1,246.500007522583,4|0,0:0|0:0,0:0:0:0:
163,141,797097,2,0,P|225:118|302:151,1,123.250003761292,8|0,0:0|0:0,0:0:0:0:
482,281,797382,1,0,0:0:0:0:
229,199,797525,1,0,0:0:0:0:
316,384,797668,1,8,0:0:0:0:
329,73,797811,6,0,P|211:44|101:94,1,246.500007522583,0|0,0:0|0:0,0:0:0:0:
44,362,798240,2,0,L|34:222,1,123.250003761292,8|0,0:0|0:0,0:0:0:0:
17,50,798525,1,0,0:0:0:0:
143,259,798668,1,0,0:0:0:0:
261,46,798811,1,8,0:0:0:0:
443,293,798954,6,0,B|455:200|455:200|425:136|425:136|433:36,1,246.500007522583,4|0,0:0|0:0,0:0:0:0:
479,363,799382,2,0,P|408:362|369:319,1,123.250003761292,8|0,0:0|0:0,0:0:0:0:
508,113,799668,1,0,0:0:0:0:
223,246,799811,1,0,0:0:0:0:
304,47,799954,1,8,0:0:0:0:
443,293,800097,6,0,B|420:250|376:243|376:243|284:293|194:228,1,246.500007522583,0|0,0:0|0:0,0:0:0:0:
71,35,800525,2,0,L|64:168,1,123.250003761292,8|0,0:0|0:0,0:0:0:0:
300,364,800811,1,0,0:0:0:0:
53,369,800954,1,0,0:0:0:0:
299,152,801097,5,8,0:0:0:0:
299,152,801168,1,0,0:0:0:0:
299,152,801240,2,0,B|231:121|170:160|170:160|110:195|51:149,1,246.500007522583,4|0,0:0|0:0,0:0:0:0:
474,109,801668,2,0,P|486:169|455:250,1,123.250003761292,8|0,0:0|0:0,0:0:0:0:
236,376,801954,2,0,P|224:316|255:235,1,123.250003761292,0|0,0:0|0:0,0:0:0:0:
391,158,802240,1,8,0:0:0:0:
120,82,802382,6,0,B|86:148|86:148|99:354,1,246.500007522583,0|0,0:0|0:0,0:0:0:0:
325,293,802811,2,0,L|315:144,1,123.250003761292,8|0,0:0|0:0,0:0:0:0:
168,173,803097,1,0,0:0:0:0:
300,6,803240,1,0,0:0:0:0:
408,316,803382,5,8,0:0:0:0:
408,316,803454,1,0,0:0:0:0:
408,316,803525,2,0,P|354:370|250:251,1,246.500007522583,4|0,0:0|0:0,0:0:0:0:
44,176,803954,2,0,L|167:173,1,123.250003761292,8|0,0:0|0:0,0:0:0:0:
413,81,804240,2,0,L|290:78,1,123.250003761292,0|0,0:0|0:0,0:0:0:0:
325,293,804525,1,8,0:0:0:0:
456,176,804668,5,0,0:0:0:0:
233,150,804811,1,4,0:0:0:0:
468,173,804954,1,0,0:0:0:0:
222,144,805097,1,8,0:0:0:0:
499,343,805240,5,4,0:0:0:0:
332,131,805383,1,0,0:0:0:0:
512,350,805524,1,0,0:0:0:0:
328,117,805667,1,8,0:0:0:0:
239,357,805811,6,0,B|197:303|197:303|293:214|190:102,1,246.500007522583,4|0,0:0|0:0,0:0:0:0:
0,195,806240,2,0,P|57:216|140:198,1,123.250003761292,8|0,0:0|0:0,0:0:0:0:
303,36,806525,2,0,P|246:15|163:33,1,123.250003761292,0|0,0:0|0:0,0:0:0:0:
72,115,806811,1,8,0:0:0:0:
262,326,806954,6,0,B|328:296|328:296|511:322,1,246.500007522583,0|0,0:0|0:0,0:0:0:0:
378,88,807382,2,0,P|401:148|368:218,1,123.250003761292,8|0,0:0|0:0,0:0:0:0:
190,384,807668,2,0,P|167:324|200:254,1,123.250003761292,0|0,0:0|0:0,0:0:0:0:
312,146,807954,1,8,0:0:0:0:
0,125,808097,6,0,P|52:55|174:160,1,246.500007522583,4|0,0:0|0:0,0:0:0:0:
296,384,808525,2,0,L|287:254,1,123.250003761292,8|0,0:0|0:0,0:0:0:0:
89,135,808811,2,0,L|80:257,1,123.250003761292,0|0,0:0|0:0,0:0:0:0:
277,25,809097,1,8,0:0:0:0:
483,196,809240,6,0,B|414:161|356:204|356:204|306:152|236:180,1,246.500007522583,0|0,0:0|0:0,0:0:0:0:
396,384,809668,2,0,P|438:342|410:263,1,123.250003761292,8|0,0:0|0:0,0:0:0:0:
107,375,809954,1,0,0:0:0:0:
281,251,810097,1,0,0:0:0:0:
24,204,810240,5,8,0:0:0:0:
24,204,810311,1,0,0:0:0:0:
24,204,810382,2,0,L|175:195,1,123.250003761292,4|0,0:0|0:0,0:0:0:0:
295,75,810668,2,0,L|171:67,1,123.250003761292,0|8,0:0|0:0,0:0:0:0:
424,346,810954,2,0,L|415:195,1,123.250003761292,0|0,0:0|0:0,0:0:0:0:
295,75,811240,2,0,L|287:198,1,123.250003761292,0|8,0:0|0:0,0:0:0:0:
209,339,811525,2,0,P|274:370|355:328,1,123.250003761292,0|0,0:0|0:0,0:0:0:0:
489,160,811811,2,0,P|424:129|343:171,1,123.250003761292,0|8,0:0|0:0,0:0:0:0:
278,278,812097,5,0,0:0:0:0:
218,11,812240,1,0,0:0:0:0:
91,263,812382,1,0,0:0:0:0:
35,0,812525,5,8,0:0:0:0:
35,0,812597,1,0,0:0:0:0:
35,0,812668,2,0,B|19:61|19:61|30:134,1,123.250003761292,4|0,0:0|0:0,0:0:0:0:
84,384,812954,2,0,B|100:323|100:323|89:250,1,123.250003761292,0|8,0:0|0:0,0:0:0:0:
475,214,813240,2,0,B|414:198|414:198|341:209,1,123.250003761292,0|0,0:0|0:0,0:0:0:0:
91,263,813524,2,0,B|152:279|152:279|225:268,1,123.250003761292,0|8,0:0|0:0,0:0:0:0:
289,0,813811,6,0,B|295:58|295:58|265:122|265:122|270:202,1,195.500003728867,0|8,0:0|0:0,0:0:0:0:
269,188,814168,1,8,0:0:0:0:
269,188,814240,1,8,0:0:0:0:
411,120,814382,1,0,0:0:0:0:
258,353,814525,2,0,P|308:355|367:313,1,97.7500018644333,8|0,0:0|0:0,0:0:0:0:
130,125,814811,1,0,0:0:0:0:
121,356,814954,6,0,P|29:345|7:237,1,195.500003728867,12|0,0:0|0:0,0:0:0:0:
88,276,815382,1,8,0:0:0:0:
74,283,815668,5,8,0:0:0:0:
322,234,815811,1,8,0:0:0:0:
338,241,816097,6,0,B|338:361|174:361|174:239,1,272,0|0,0:0|0:0,0:0:0:0:
