osu file format v14

[General]
AudioFilename: audio.mp3
AudioLeadIn: 0
PreviewTime: 27881
Countdown: 0
SampleSet: Soft
StackLeniency: 0.7
Mode: 0
LetterboxInBreaks: 0
WidescreenStoryboard: 0

[Editor]
DistanceSpacing: 1.1
BeatDivisor: 2
GridSize: 16
TimelineZoom: 3.399999

[Metadata]
Title:Rising (feat. Casey Lee Williams) (TV Size)
TitleUnicode:Rising (feat. Casey Lee Williams) (TV Size)
Artist:Jeff Williams
ArtistUnicode:Jeff Williams
Creator:Nyantiaz
Version:reealy_'s Easy
Source:RWBY
Tags:volume six 6 sixth opening rooster teeth ruby rose blake belladonna weiss schnee yang xiao long english yellow red black white intro rock anime realy0_ browiec
BeatmapID:1918874
BeatmapSetID:893162

[Difficulty]
HPDrainRate:2
CircleSize:3
OverallDifficulty:3
ApproachRate:4
SliderMultiplier:0.95
SliderTickRate:1

[Events]
//Background and Video events
0,0,"okay.png",0,0
//Break Periods
//Storyboard Layer 0 (Background)
//Storyboard Layer 1 (Fail)
//Storyboard Layer 2 (Pass)
//Storyboard Layer 3 (Foreground)
//Storyboard Layer 4 (Overlay)
//Storyboard Sound Samples

[TimingPoints]
425,350.877192982456,4,2,1,40,1,0
4635,-100,4,2,1,70,0,0
6038,-100,4,2,1,60,0,0
11652,-117.647058823529,4,2,1,45,0,0
12881,-117.647058823529,4,2,1,5,0,0
13056,-117.647058823529,4,2,1,45,0,0
22880,-117.647058823529,4,2,1,55,0,0
28494,-100,4,2,1,75,0,0
31126,-100,4,2,1,65,0,0
42530,-100,4,2,1,55,0,0
47968,-100,4,2,1,60,0,0
53582,-100,4,2,1,50,0,0
56389,-100,4,2,1,60,0,0
57968,-100,4,2,1,80,0,0
59196,-100,4,2,1,75,0,1
62003,-100,4,2,1,75,0,1
81828,-100,4,2,1,70,0,0
90249,-100,4,2,1,60,0,0

[Colours]
Combo1 : 255,255,128
Combo2 : 255,0,0
Combo3 : 255,128,128
Combo4 : 0,255,255
Combo5 : 0,128,255
Combo6 : 192,192,192
Combo7 : 128,128,128
Combo8 : 255,255,0
SliderBorder : 255,127,127
SliderTrackOverride : 0,26,26

[HitObjects]
59,130,425,5,4,0:0:0:0:
300,315,3232,1,8,0:1:0:0:
478,192,4635,5,8,0:1:0:0:
398,140,4986,1,8,0:1:0:0:
321,196,5337,2,0,P|327:242|342:288,1,95,8|8,0:1|0:1,0:0:0:0:
266,346,6039,5,4,0:0:0:0:
266,346,6389,2,0,B|164:302|192:388|58:333,2,190,8|8|8,0:1|0:1|0:1,0:0:0:0:
435,258,8495,1,8,0:1:0:0:
435,258,8846,6,0,P|462:179|494:178,1,95,12|4,0:1|0:3,0:0:0:0:
494,145,9372,2,0,P|492:98|481:51,1,95,8|4,0:1|0:3,0:0:0:0:
388,28,10074,2,0,P|340:30|294:40,1,95,2|8,0:0|0:1,0:0:0:0:
232,169,10951,1,8,0:1:0:0:
148,214,11302,1,4,0:3:0:0:
72,153,11653,6,0,B|80:119|62:92|62:92|28:85|-5:105,2,121.125002310276,4|0|0,0:0|0:0|0:0,0:0:0:0:
129,220,13056,2,0,B|273:196|209:297|385:277,1,242.250004620552,4|0,0:3|0:0,0:0:0:0:
442,263,14460,1,4,0:3:0:0:
450,130,14986,1,0,0:0:0:0:
321,164,15512,1,0,0:0:0:0:
259,99,15863,2,0,P|211:88|149:83,1,80.750001540184,4|0,0:3|0:0,0:0:0:0:
137,99,16389,2,0,P|126:143|115:203,1,80.750001540184,4|0,0:3|0:0,0:0:0:0:
150,307,17267,6,0,B|196:307|229:328|229:328|302:300|302:300|350:323|409:313,1,242.250004620552,4|0,0:3|0:0,0:0:0:0:
446,255,18670,6,0,B|437:221|455:194|455:194|489:187|523:207,2,121.125002310276,4|0|0,0:3|0:0|0:0,0:0:0:0:
380,315,20074,1,4,0:3:0:0:
269,241,20600,1,0,0:0:0:0:
180,340,21126,1,0,0:0:0:0:
99,302,21477,6,0,P|95:254|80:208,1,80.750001540184,4|0,0:3|0:0,0:0:0:0:
46,202,22003,2,0,P|50:154|65:108,1,80.750001540184,4|0,0:3|0:0,0:0:0:0:
156,31,22881,6,0,B|184:58|184:58|268:43|338:53,1,161.500003080368,4|0,0:3|0:0,0:0:0:0:
385,88,23933,1,2,0:0:0:0:
454,33,24284,2,0,P|501:56|502:136,2,121.125002310276,4|4|2,0:3|0:3|0:0,0:0:0:0:
385,88,25688,2,0,P|344:90|305:100,1,80.750001540184,4|2,0:3|0:0,0:0:0:0:
279,64,26214,2,0,P|238:61|157:26,1,121.125002310276,4|2,0:3|0:0,0:0:0:0:
85,72,27091,2,0,P|107:171|99:251,1,161.500003080368,4|2,0:3|0:0,0:0:0:0:
243,360,28495,5,4,0:0:0:0:
157,190,29196,1,4,0:0:0:0:
301,66,29898,1,4,0:0:0:0:
474,142,30600,1,4,0:0:0:0:
443,281,31126,6,0,B|404:253|404:253|309:293,1,142.5,6|8,0:0|0:1,0:0:0:0:
232,332,32003,1,2,0:0:0:0:
146,289,32354,1,8,0:1:0:0:
146,289,32705,2,0,B|115:324|115:324|67:317,2,95,0|8|2,0:0|0:1|0:0,0:0:0:0:
275,229,33933,6,0,B|255:185|255:185|307:53|307:53|287:10,1,237.5,6|2,0:0|0:0,0:0:0:0:
145,27,35337,2,0,L|128:120,1,95,4|4,0:3|0:3,0:0:0:0:
51,177,36039,2,0,L|68:270,1,95,4|4,0:3|0:3,0:0:0:0:
147,323,36740,6,0,B|237:316|237:316|287:348,2,142.5,6|8|4,0:0|0:1|0:3,0:0:0:0:
68,270,38144,2,0,B|50:177|50:177|6:137|6:137,2,142.5,6|8|2,0:0|0:1|0:0,0:0:0:0:
147,323,39547,6,0,B|191:306|191:306|319:371|319:371|376:354,1,237.5,6|4,0:0|0:3,0:0:0:0:
347,215,40951,2,0,B|368:172|368:172|415:166,1,95,4|4,0:3|0:3,0:0:0:0:
498,214,41653,2,0,B|517:258|517:258|491:297,1,95,2|4,0:0|0:3,0:0:0:0:
363,357,42530,5,12,0:1:0:0:
174,377,43232,1,4,0:0:0:0:
229,195,43933,1,4,0:0:0:0:
46,247,44635,1,6,0:0:0:0:
0,112,45161,6,0,B|22:101|39:84|39:84|84:95|134:124,1,142.5,4|2,0:0|0:0,0:0:0:0:
208,168,46039,1,8,0:1:0:0:
328,92,46565,2,0,B|338:112|348:135|348:135|326:206|295:268|295:268|304:298|317:323,1,237.5,6|8,0:0|0:3,0:0:0:0:
439,374,47968,6,0,P|504:337|470:253,1,142.5,4|8,0:0|0:1,0:0:0:0:
423,219,48846,1,2,0:0:0:0:
492,93,49372,2,0,P|503:45|509:0,2,95,4|4|4,0:3|0:3|0:3,0:0:0:0:
403,128,50424,1,4,0:3:0:0:
403,128,50775,6,0,B|382:117|364:100|364:100|319:114|269:140,1,142.5,4|8,0:0|0:1,0:0:0:0:
205,198,51653,1,2,0:0:0:0:
76,137,52179,2,0,P|51:97|54:50,1,95,2|4,0:0|0:3,0:0:0:0:
138,3,52881,2,0,P|178:26|196:69,1,95,4|8,0:3|0:1,0:0:0:0:
266,133,53582,6,0,B|411:168|347:73|491:99,1,237.5,4|8,0:2|0:1,0:0:0:0:
510,288,55161,1,4,0:3:0:0:
335,364,55863,2,0,P|270:355|194:348,1,142.5,8|4,0:1|0:0,0:0:0:0:
72,274,56916,5,4,0:3:0:0:
147,216,57267,1,4,0:3:0:0:
82,146,57617,1,4,0:3:0:0:
157,88,57968,2,0,B|164:40|164:40|129:9,2,95,8|8|4,0:1|0:1|0:3,0:0:0:0:
290,138,59196,6,0,B|252:168|252:168|266:270,1,142.5,6|8,0:0|3:1,0:0:0:0:
346,310,60074,2,4,B|394:317|394:317|425:282,1,95,8|8,3:1|0:1,0:0:0:0:
487,210,60775,1,8,0:1:0:0:
426,136,61126,1,8,0:1:0:0:
479,57,61477,1,8,0:1:0:0:
337,37,62003,6,0,B|310:26|310:26|233:65|233:65|199:55,1,142.5,4|8,0:0|3:1,0:0:0:0:
147,131,62881,2,0,L|164:224,1,95,2|8,3:2|3:1,0:0:0:0:
209,239,63407,2,0,L|302:222,1,95,0|0,3:2|3:2,0:0:0:0:
387,264,64109,1,4,3:3:0:0:
237,381,64810,6,0,B|196:355|196:355|103:371,1,142.5,4|8,0:0|0:1,0:0:0:0:
22,320,65688,1,8,3:1:0:0:
79,244,66039,1,8,0:1:0:0:
12,176,66389,2,0,L|29:83,2,95,8|8|8,0:1|3:1|0:1,0:0:0:0:
117,271,67617,6,0,B|144:260|144:260|221:299|221:299|255:289,1,142.5,4|8,0:0|3:1,0:0:0:0:
327,240,68495,2,0,L|420:257,1,95,2|8,3:2|3:1,0:0:0:0:
454,223,69021,2,0,L|437:130,1,95,0|0,3:2|3:2,0:0:0:0:
371,60,69723,1,0,3:2:0:0:
291,111,70074,1,4,0:3:0:0:
205,51,70424,6,0,B|112:35|112:35|71:61,1,142.5,4|8,0:0|3:1,0:0:0:0:
18,139,71302,2,0,L|35:232,1,95,2|8,3:2|3:1,0:0:0:0:
77,253,71828,2,0,B|143:226|143:226|226:270|226:270|301:243,1,237.5,2|2,3:2|3:2,0:0:0:0:
431,207,73232,6,0,B|457:248|457:248|441:341,1,142.5,4|8,0:0|3:1,0:0:0:0:
399,362,73933,2,4,B|352:377|352:377|316:348,1,95,2|2,3:2|3:2,0:0:0:0:
233,301,74635,2,4,B|185:310|185:310|168:354,2,95,2|0|2,3:2|3:2|3:2,0:0:0:0:
316,255,75688,1,2,3:2:0:0:
398,208,76039,6,0,L|415:115,2,95,6|2|2,0:0|0:0|0:0,0:0:0:0:
475,272,77091,1,2,0:0:0:0:
475,272,77442,2,0,L|458:365,2,95,2|2|2,0:0|0:0|0:0,0:0:0:0:
398,208,78495,1,2,0:0:0:0:
298,310,79021,6,0,B|179:315|179:315|141:348|141:348|-8:353,1,285,4|4,0:3|0:3,0:0:0:0:
1,259,80424,2,0,P|7:211|18:165,1,95,4|4,0:3|0:3,0:0:0:0:
110,141,81126,2,0,P|157:147|203:158,1,95,4|4,0:3|0:3,0:0:0:0:
292,204,81828,5,4,0:0:0:0:
292,204,82179,2,0,B|264:236|264:236|280:316|270:398,2,190,8|8|8,0:1|0:1|0:1,0:0:0:0:
286,14,84284,1,8,0:1:0:0:
200,54,84635,1,2,0:0:0:0:
200,54,84986,6,0,B|94:19|129:102|-8:59,2,190,8|8|8,0:1|0:1|0:1,0:0:0:0:
244,138,86740,2,0,B|209:169|209:169|216:217,1,95,0|8,0:0|0:1,0:0:0:0:
297,265,87442,1,2,0:0:0:0:
297,265,87793,6,0,B|402:230|367:313|505:270,2,190,8|8|8,0:1|0:1|0:1,0:0:0:0:
118,331,89898,1,8,0:1:0:0:
118,331,90249,5,8,0:1:0:0:
372,164,91653,1,8,0:1:0:0:
271,63,92179,2,0,B|150:26|166:125|23:68,1,237.5,0|0,3:0|0:0,0:0:0:0:
