osu file format v14

[General]
AudioFilename: audio.mp3
AudioLeadIn: 0
PreviewTime: 27881
Countdown: 0
SampleSet: Soft
StackLeniency: 0.4
Mode: 0
LetterboxInBreaks: 0
WidescreenStoryboard: 1

[Editor]
Bookmarks: 90249
DistanceSpacing: 0.9
BeatDivisor: 4
GridSize: 4
TimelineZoom: 3.199999

[Metadata]
Title:Rising (feat. Casey Lee Williams) (TV Size)
TitleUnicode:Rising (feat. Casey Lee Williams) (TV Size)
Artist:Jeff Williams
ArtistUnicode:Jeff Williams
Creator:Nyantiaz
Version:browiec's Journey
Source:RWBY
Tags:volume six 6 sixth opening rooster teeth ruby rose blake belladonna weiss schnee yang xiao long english yellow red black white intro rock anime realy0_ browiec
BeatmapID:2207953
BeatmapSetID:893162

[Difficulty]
HPDrainRate:5.7
CircleSize:4.2
OverallDifficulty:8.7
ApproachRate:9.3
SliderMultiplier:1.9
SliderTickRate:1

[Events]
//Background and Video events
0,0,"okay.png",0,0
//Break Periods
//Storyboard Layer 0 (Background)
//Storyboard Layer 1 (Fail)
//Storyboard Layer 2 (Pass)
//Storyboard Layer 3 (Foreground)
//Storyboard Layer 4 (Overlay)
//Storyboard Sound Samples

[TimingPoints]
425,350.877192982456,4,2,1,40,1,0
4635,-100,4,2,1,70,0,0
6039,-100,4,2,1,70,0,0
11653,-133.333333333333,4,2,1,60,0,0
22881,-133.333333333333,4,2,1,45,0,0
27968,-133.333333333333,4,2,1,25,0,0
28144,-133.333333333333,4,2,1,45,0,0
28319,-133.333333333333,4,2,1,65,0,0
28495,-133.333333333333,4,2,1,75,0,0
31126,-111.111111111111,4,2,1,65,0,0
45161,-111.111111111111,4,2,1,55,0,0
47968,-111.111111111111,4,2,1,60,0,0
53582,-166.666666666667,4,2,1,40,0,0
56389,-111.111111111111,4,2,1,50,0,0
59196,-90.9090909090909,4,2,1,80,0,1
81828,-100,4,2,1,70,0,0
90249,-100,4,2,1,60,0,0
92179,-200,4,2,1,60,0,0

[Colours]
Combo1 : 255,255,128
Combo2 : 255,0,0
Combo3 : 255,128,128
Combo4 : 0,255,255
Combo5 : 0,128,255
Combo6 : 192,192,192
Combo7 : 128,128,128
Combo8 : 255,255,0
SliderBorder : 255,127,127
SliderTrackOverride : 0,26,26

[HitObjects]
432,252,74,6,8,L|440:204,3,47.5,8|8|8|8,0:1|0:1|0:1|0:1,0:1:0:0:
460,116,425,1,4,0:0:0:0:
476,96,3056,2,4,L|516:104,2,31.6666666666667,4|4|4,0:3|0:3|0:3,0:3:0:0:
400,44,3232,5,8,0:1:0:0:
336,232,3407,1,8,0:1:0:0:
323,250,4635,5,8,0:1:0:0:
156,52,4810,1,4,0:3:0:0:
196,328,4986,5,8,0:1:0:0:
316,92,5161,1,4,0:3:0:0:
56,216,5337,5,8,0:1:0:0:
336,292,5512,1,4,0:3:0:0:
176,40,5688,5,8,0:1:0:0:
174,73,5775,1,8,0:1:0:0:
172,106,5863,1,8,0:1:0:0:
170,139,5951,1,8,0:1:0:0:
168,172,6039,6,0,P|228:196|272:176,1,95,4|2,0:0|0:0,0:0:0:0:
328,88,6389,1,8,0:1:0:0:
392,296,6565,2,0,B|327:289|327:289|276:306|276:306|188:297,1,190,2|4,0:0|0:3,0:0:0:0:
88,372,7091,1,8,0:1:0:0:
144,184,7267,6,0,P|144:132|32:148,1,190,2|4,0:0|3:0,0:0:0:0:
56,256,7793,1,8,0:1:0:0:
248,152,7968,2,0,B|365:146|300:222|432:212,1,190,2|4,0:0|0:3,0:0:0:0:
360,80,8495,1,8,0:1:0:0:
256,252,8670,1,2,0:0:0:0:
184,16,8846,5,12,0:1:0:0:
352,188,9021,1,2,0:0:0:0:
88,212,9196,1,4,0:3:0:0:
372,62,9372,5,8,0:1:0:0:
316,326,9547,1,4,0:3:0:0:
196,102,9723,1,4,0:3:0:0:
423,274,9898,5,12,0:1:0:0:
171,319,10074,1,2,0:0:0:0:
292,105,10249,1,4,0:3:0:0:
240,371,10424,5,8,0:1:0:0:
141,168,10600,1,4,0:3:0:0:
62,383,10775,1,4,0:3:0:0:
40,104,10951,5,8,0:1:0:0:
171,319,11126,1,4,0:3:0:0:
276,116,11302,6,0,L|284:64,3,47.5,4|4|4|4,0:3|0:3|0:3|0:3,0:0:0:0:
348,16,11653,6,0,P|400:12|428:32,1,71.2500027179719,4|0,0:0|0:0,0:0:0:0:
488,88,12003,1,0,0:0:0:0:
352,160,12179,2,0,L|184:168,1,142.500005435944,0|0,0:0|0:0,0:0:0:0:
136,248,12705,2,0,L|212:256,1,71.2500027179719,0|0,0:0|0:0,0:0:0:0:
316,356,13056,6,0,P|360:360|392:348,1,71.2500027179719,4|0,0:3|0:0,0:0:0:0:
448,268,13407,1,0,0:0:0:0:
348,150,13582,2,0,B|314:188|314:188|348:298,1,142.500005435944,0|0,0:0|0:0,0:0:0:0:
232,328,14109,2,0,L|240:252,1,71.2500027179719,0|0,0:0|0:0,0:0:0:0:
180,108,14460,6,0,P|136:100|104:108,1,71.2500027179719,4|0,0:3|0:0,0:0:0:0:
36,176,14810,1,0,0:0:0:0:
192,208,14986,2,0,B|276:200|244:256|336:252,1,142.500005435944,0|0,0:0|0:0,0:0:0:0:
420,200,15512,2,0,P|385:190|355:172,1,71.2500027179719,0|0,0:0|0:0,0:0:0:0:
284,56,15863,6,0,P|288:108|280:136,1,71.2500027179719,4|0,0:3|0:0,0:0:0:0:
208,176,16126,1,0,0:0:0:0:
208,176,16214,2,0,P|204:228|212:256,1,71.2500027179719,0|4,0:0|0:3,0:0:0:0:
276,308,16477,1,0,0:0:0:0:
276,308,16565,6,0,L|352:316,1,71.2500027179719,0|0,0:0|0:0,0:0:0:0:
384,308,16828,1,0,0:0:0:0:
396,300,16916,1,0,3:0:0:0:
364,196,17091,1,0,0:0:0:0:
356,188,17179,1,0,0:0:0:0:
348,180,17267,6,0,P|340:132|348:100,1,71.2500027179719,4|0,0:3|0:0,0:0:0:0:
428,56,17617,1,0,0:0:0:0:
444,240,17793,2,0,P|408:272|300:260,1,142.500005435944,0|0,0:0|0:0,0:0:0:0:
244,176,18319,2,0,L|236:104,1,71.2500027179719,0|0,0:0|0:0,0:0:0:0:
104,4,18670,6,0,L|96:84,1,71.2500027179719,4|0,0:3|0:0,0:0:0:0:
40,160,19021,1,0,0:0:0:0:
192,92,19196,2,0,B|232:88|256:116|256:116|280:88|324:92,1,142.500005435944,0|0,0:0|0:0,0:0:0:0:
392,184,19723,2,0,P|348:180|312:188,1,71.2500027179719,0|0,0:0|0:0,0:0:0:0:
208,312,20074,6,0,L|288:320,1,71.2500027179719,4|0,0:3|0:0,0:0:0:0:
364,384,20424,1,0,0:0:0:0:
456,252,20600,2,0,B|488:196|488:196|460:96,1,142.500005435944,0|0,0:0|0:0,0:0:0:0:
384,48,21126,2,0,L|376:124,1,71.2500027179719,0|0,0:0|0:0,0:0:0:0:
312,232,21477,6,0,P|276:240|232:232,1,71.2500027179719,4|0,0:3|0:0,0:0:0:0:
176,176,21740,1,0,0:0:0:0:
176,176,21828,2,0,P|168:140|176:96,1,71.2500027179719,0|4,0:0|0:3,0:0:0:0:
232,40,22091,1,0,0:0:0:0:
232,40,22179,6,0,P|268:32|312:39,1,71.2500027179719,0|0,0:0|0:0,0:0:0:0:
320,48,22442,1,0,0:0:0:0:
328,56,22530,1,0,0:0:0:0:
372,160,22705,1,0,0:0:0:0:
364,168,22793,1,0,0:0:0:0:
356,176,22881,6,0,L|364:248,1,71.2500027179719,4|0,0:3|0:0,0:0:0:0:
240,316,23232,2,0,L|248:244,1,71.2500027179719,2|4,0:0|0:3,0:0:0:0:
176,136,23582,1,0,0:0:0:0:
96,264,23758,1,0,0:0:0:0:
72,124,23933,1,2,0:0:0:0:
172,228,24109,1,0,0:0:0:0:
192,56,24284,6,0,B|280:40|244:100|344:80,1,142.500005435944,4|2,0:3|0:0,0:0:0:0:
444,116,24810,2,0,P|388:140|372:228,1,142.500005435944,4|0,0:3|0:0,0:0:0:0:
432,332,25337,1,2,0:0:0:0:
452,200,25512,1,0,0:0:0:0:
336,320,25688,6,0,B|268:340|268:340|188:316,1,142.500005435944,4|2,0:3|0:0,0:0:0:0:
120,200,26214,2,0,B|188:220|188:220|268:196,1,142.500005435944,4|0,0:3|0:0,0:0:0:0:
216,96,26740,2,0,P|164:96|140:108,1,71.2500027179719,2|0,0:0|0:0,0:0:0:0:
28,224,27091,6,0,B|20:168|20:168|32:132|32:132|24:76,1,142.500005435944,4|2,0:3|0:0,0:0:0:0:
140,12,27617,2,0,L|132:96,1,71.2500027179719,4|2,0:3|0:0,0:0:0:0:
208,232,27968,1,8,0:1:0:0:
241,243,28055,1,8,0:1:0:0:
276,240,28143,1,8,0:1:0:0:
308,224,28231,1,8,0:1:0:0:
330,196,28318,1,8,0:1:0:0:
339,162,28406,1,8,0:1:0:0:
335,127,28495,5,4,0:0:0:0:
368,308,28670,1,4,0:3:0:0:
252,156,28846,1,4,0:3:0:0:
248,348,29021,1,0,0:0:0:0:
428,196,29196,5,4,0:0:0:0:
212,252,29372,1,0,0:0:0:0:
388,332,29547,1,4,0:3:0:0:
348,132,29723,1,4,0:3:0:0:
248,348,29898,5,4,0:0:0:0:
192,156,30074,1,4,0:3:0:0:
128,348,30249,1,4,0:3:0:0:
172,132,30424,1,4,0:3:0:0:
336,296,30600,5,4,0:0:0:0:
116,228,30775,1,4,0:3:0:0:
324,120,30951,1,4,0:3:0:0:
136,324,31126,6,0,P|71:313|22:201,1,170.999994781494,6|4,0:0|0:3,0:0:0:0:
132,112,31653,2,0,P|128:168|136:212,1,85.4999973907472,8|4,0:1|0:3,0:0:0:0:
232,352,32003,1,2,0:0:0:0:
272,180,32179,1,4,0:3:0:0:
344,348,32354,1,8,0:1:0:0:
384,132,32530,6,0,P|440:120|488:220,1,170.999994781494,4|4,0:3|3:0,0:0:0:0:
368,328,33056,2,0,P|368:280|360:232,1,85.4999973907472,8|4,0:1|0:3,0:0:0:0:
216,68,33407,1,2,0:0:0:0:
268,256,33582,1,4,0:3:0:0:
360,92,33758,1,8,0:1:0:0:
168,216,33933,6,0,B|104:212|104:212|68:228|68:228|-12:224,1,170.999994781494,6|4,0:0|0:3,0:0:0:0:
24,60,34460,2,0,P|72:60|112:80,1,85.4999973907472,8|4,0:1|0:3,0:0:0:0:
188,240,34810,1,2,0:0:0:0:
216,60,34986,1,4,0:3:0:0:
48,144,35161,1,8,0:1:0:0:
280,180,35337,6,0,L|376:188,1,85.4999973907472,4|4,0:3|0:3,0:0:0:0:
464,52,35688,2,0,L|368:60,1,85.4999973907472,4|8,0:3|0:1,0:0:0:0:
448,236,36039,2,0,P|460:188|440:128,1,85.4999973907472,4|0,0:3|0:0,0:0:0:0:
292,16,36389,2,0,P|280:64|300:124,1,85.4999973907472,4|8,0:3|0:1,0:0:0:0:
388,304,36740,6,0,B|332:276|332:276|216:304,1,170.999994781494,6|4,0:0|0:3,0:0:0:0:
112,196,37267,2,0,P|176:204|212:196,1,85.4999973907472,8|4,0:1|0:3,0:0:0:0:
328,64,37617,1,2,0:0:0:0:
324,240,37793,1,4,0:3:0:0:
216,96,37968,1,8,0:1:0:0:
180,308,38144,6,0,B|84:320|120:260|12:272,1,170.999994781494,6|4,0:0|0:3,0:0:0:0:
132,120,38670,2,0,P|128:180|140:216,1,85.4999973907472,8|4,0:1|0:3,0:0:0:0:
292,344,39021,1,4,0:3:0:0:
244,160,39196,1,2,0:0:0:0:
164,332,39372,1,8,0:1:0:0:
356,176,39547,6,0,P|408:176|400:288,1,170.999994781494,6|4,0:0|0:3,0:0:0:0:
264,220,40074,2,0,P|256:172|268:124,1,85.4999973907472,8|4,0:1|0:3,0:0:0:0:
424,20,40424,1,4,0:3:0:0:
356,176,40600,1,0,0:0:0:0:
288,16,40775,1,8,0:1:0:0:
468,180,40951,6,0,L|476:284,1,85.4999973907472,4|2,0:3|0:0,0:0:0:0:
352,360,41302,2,0,L|360:256,1,85.4999973907472,4|8,0:3|0:1,0:0:0:0:
304,84,41653,2,0,L|312:188,1,85.4999973907472,2|4,0:0|0:3,0:0:0:0:
220,288,42003,1,4,0:3:0:0:
168,108,42179,1,8,0:1:0:0:
139,94,42266,1,8,0:1:0:0:
107,92,42354,1,8,0:1:0:0:
76,102,42442,1,8,0:1:0:0:
52,123,42530,6,0,B|36:160|52:192|52:192|36:216|36:216|56:252|44:288,1,170.999994781494,12|0,0:1|0:0,0:0:0:0:
60,296,43232,6,0,L|244:280,1,170.999994781494,4|0,0:0|0:0,0:0:0:0:
248,264,43933,6,0,P|208:248|256:140,1,170.999994781494,4|0,0:0|0:0,0:0:0:0:
248,128,44635,6,0,B|347:97|347:97|403:133,1,170.999994781494,6|4,0:0|0:3,0:0:0:0:
496,272,45161,6,0,P|436:248|348:304,1,170.999994781494,4|0,0:0|0:0,0:0:0:0:
260,368,45688,2,0,P|264:320|256:272,1,85.4999973907472,2|0,0:0|0:0,0:0:0:0:
152,200,46039,2,0,B|220:184|220:184|264:196|264:196|324:184,1,170.999994781494,8|8,0:1|0:1,0:0:0:0:
492,160,46565,6,0,B|440:180|396:152|396:152|376:112|324:100,1,170.999994781494,6|0,0:0|0:0,0:0:0:0:
268,32,47091,2,0,P|264:84|236:124,1,85.4999973907472,4|0,0:3|0:0,0:0:0:0:
56,240,47442,5,8,0:3:0:0:
296,212,47617,1,8,0:3:0:0:
112,68,47793,1,8,0:3:0:0:
236,296,47968,6,0,P|296:316|328:312,1,85.4999973907472,4|0,0:0|0:0,0:0:0:0:
468,264,48319,2,0,P|404:262|376:247,1,85.4999973907472,4|8,0:3|0:1,0:0:0:0:
312,104,48670,2,0,L|308:16,2,85.4999973907472,4|2|4,0:3|0:0|0:3,0:0:0:0:
272,224,49196,1,8,0:1:0:0:
196,64,49372,6,0,P|144:56|104:64,1,85.4999973907472,4|0,0:3|0:0,0:0:0:0:
116,224,49723,2,0,P|148:182|162:144,1,85.4999973907472,4|8,0:3|0:1,0:0:0:0:
20,236,50074,2,0,P|39:285|66:315,2,85.4999973907472,4|2|4,0:3|0:0|0:3,0:0:0:0:
16,80,50600,1,8,0:1:0:0:
144,248,50775,6,0,B|248:240|196:304|312:292,1,170.999994781494,4|4,0:0|0:3,0:0:0:0:
360,168,51302,1,8,0:1:0:0:
468,296,51477,2,0,P|480:344|472:400,2,85.4999973907472,4|2|4,0:3|0:0|0:3,0:0:0:0:
376,148,52003,1,8,0:1:0:0:
288,336,52179,6,0,L|192:344,1,85.4999973907472,2|4,0:0|0:3,0:0:0:0:
96,224,52530,2,0,L|192:232,1,85.4999973907472,4|8,0:3|0:1,0:0:0:0:
288,112,52881,2,0,L|192:120,1,85.4999973907472,4|2,0:3|0:0,0:0:0:0:
296,232,53232,1,8,0:1:0:0:
296,232,53319,1,8,0:1:0:0:
296,232,53407,1,8,0:1:0:0:
456,128,53582,6,0,P|476:55|366:84,1,227.999993041992,4|4,0:2|0:3,0:0:0:0:
369,158,54460,1,8,0:1:0:0:
93,82,54986,1,4,0:3:0:0:
161,149,55161,6,0,P|177:192|155:269,1,113.999996520996,4|4,0:3|0:3,0:0:0:0:
184,356,55688,1,4,0:3:0:0:
276,224,55863,1,8,0:1:0:0:
340,312,56039,2,0,P|408:309|445:289,1,85.4999973907472,4|0,0:3|0:0,0:0:0:0:
476,236,56389,6,0,L|469:52,1,170.999994781494,4|0,0:0|0:0,0:0:0:0:
263,170,56916,5,4,0:3:0:0:
461,270,57091,1,4,0:3:0:0:
183,245,57267,5,4,0:3:0:0:
427,159,57442,1,4,0:3:0:0:
231,19,57617,5,4,0:3:0:0:
316,264,57793,1,4,0:3:0:0:
419,21,57968,5,8,0:1:0:0:
460,26,58055,1,8,0:1:0:0:
494,51,58143,1,8,0:1:0:0:
511,90,58231,1,8,0:1:0:0:
507,132,58319,2,0,L|499:204,3,42.7499986953736,8|8|8|8,0:1|0:1|0:1|0:1,0:0:0:0:
370,316,58670,5,4,0:3:0:0:
366,273,58757,1,4,0:3:0:0:
362,230,58845,1,4,0:3:0:0:
359,188,58933,1,4,0:3:0:0:
355,145,59020,1,4,0:3:0:0:
257,326,59196,6,0,P|204:344|104:230,1,209.000006378174,6|0,0:0|3:2,0:0:0:0:
106,204,59635,1,0,3:2:0:0:
106,204,59723,1,8,3:1:0:0:
338,175,59898,1,0,3:2:0:0:
338,175,59986,1,0,3:2:0:0:
338,175,60074,1,8,3:1:0:0:
135,325,60249,1,0,0:0:0:0:
165,97,60424,1,8,0:1:0:0:
293,340,60600,5,6,3:2:0:0:
293,340,60688,1,0,3:2:0:0:
293,340,60775,2,0,L|422:352,1,104.500003189087,8|0,3:1|3:0,0:0:0:0:
287,134,61126,1,8,0:1:0:0:
207,361,61302,1,0,3:2:0:0:
380,160,61477,5,8,0:1:0:0:
381,108,61564,1,8,0:1:0:0:
355,63,61652,1,8,0:1:0:0:
310,38,61740,1,8,0:1:0:0:
258,40,61827,1,8,0:1:0:0:
215,68,61915,1,8,0:1:0:0:
193,115,62003,6,0,B|180:188|180:188|192:232|192:232|180:328,1,209.000006378174,4|0,0:0|3:2,0:0:0:0:
172,368,62442,1,0,3:2:0:0:
172,368,62530,1,8,3:1:0:0:
288,180,62705,1,0,3:2:0:0:
288,180,62793,1,0,3:2:0:0:
288,180,62881,1,2,3:2:0:0:
52,232,63056,2,0,L|136:248,1,52.2500015945435,0|0,3:2|3:2,0:0:0:0:
260,276,63232,2,0,P|216:248|192:172,1,104.500003189087,8|0,3:1|3:2,0:0:0:0:
196,156,63495,1,0,3:2:0:0:
196,156,63582,5,2,3:2:0:0:
80,332,63758,1,0,3:2:0:0:
80,332,63846,1,0,3:2:0:0:
80,332,63933,1,8,3:1:0:0:
100,96,64109,2,0,P|100:128|108:160,1,52.2500015945435,4|0,3:3|3:2,0:0:0:0:
176,320,64284,1,2,3:2:0:0:
272,100,64460,1,4,0:3:0:0:
319,80,64547,1,4,0:3:0:0:
371,86,64635,1,4,0:3:0:0:
412,116,64723,1,4,0:3:0:0:
434,163,64810,6,0,B|438:292|438:292|407:327|359:320,1,209.000006378174,4|0,0:0|3:2,0:0:0:0:
319,312,65249,1,0,3:2:0:0:
319,312,65337,1,8,0:1:0:0:
217,72,65512,1,0,3:2:0:0:
217,72,65600,1,0,3:2:0:0:
217,72,65688,1,8,3:1:0:0:
142,315,65863,1,0,0:0:0:0:
348,163,66039,1,8,0:1:0:0:
82,239,66214,5,4,3:2:0:0:
82,239,66302,1,0,3:2:0:0:
82,239,66389,6,0,P|131:218|184:225,1,104.500003189087,8|0,3:1|3:2,0:0:0:0:
48,377,66740,1,8,3:1:0:0:
12,164,66916,1,0,3:2:0:0:
208,316,67091,1,8,0:1:0:0:
255,296,67178,1,8,0:1:0:0:
283,253,67266,1,8,0:1:0:0:
282,201,67354,1,8,0:1:0:0:
280,149,67442,1,8,0:1:0:0:
308,106,67530,1,8,0:1:0:0:
355,87,67617,6,0,P|408:100|404:237,1,209.000006378174,4|0,0:0|3:2,0:0:0:0:
373,260,68056,1,0,3:2:0:0:
373,260,68144,1,8,3:1:0:0:
261,107,68319,1,0,3:2:0:0:
261,107,68407,1,0,3:2:0:0:
261,107,68495,1,2,3:2:0:0:
236,315,68670,2,0,P|238:265|243:251,1,52.2500015945435,0|0,3:2|3:2,0:0:0:0:
365,159,68846,1,8,3:1:0:0:
162,194,69021,5,0,3:2:0:0:
162,194,69109,1,0,3:2:0:0:
162,194,69196,1,2,3:2:0:0:
335,19,69372,2,0,P|340:57|332:95,1,52.2500015945435,0|0,3:2|3:2,0:0:0:0:
284,194,69547,1,8,3:1:0:0:
196,39,69723,2,0,P|191:77|199:115,1,52.2500015945435,0|0,3:2|3:2,0:0:0:0:
263,216,69898,1,2,3:2:0:0:
365,41,70074,1,4,0:3:0:0:
415,34,70161,1,4,0:3:0:0:
458,62,70249,1,4,0:3:0:0:
473,111,70337,1,4,0:3:0:0:
452,157,70424,6,0,B|324:188|378:111|249:137,1,209.000006378174,4|0,0:0|3:2,0:0:0:0:
211,161,70863,1,0,3:2:0:0:
211,161,70951,1,8,3:1:0:0:
387,295,71126,1,0,3:2:0:0:
387,295,71214,1,0,3:2:0:0:
387,295,71302,1,2,3:2:0:0:
316,92,71477,2,0,P|320:132|318:164,1,52.2500015945435,0|0,3:2|3:2,0:0:0:0:
239,302,71653,1,8,3:1:0:0:
133,115,71828,5,2,3:2:0:0:
133,115,71916,1,0,3:2:0:0:
133,115,72003,2,0,P|70:106|19:142,1,104.500003189087,0|0,3:2|3:2,0:0:0:0:
50,271,72354,2,0,P|113:280|164:244,1,104.500003189087,8|0,3:1|3:2,0:0:0:0:
178,226,72617,1,0,3:2:0:0:
178,226,72705,1,2,3:2:0:0:
258,35,72881,2,0,P|254:82|255:103,1,52.2500015945435,0|0,3:2|3:2,0:0:0:0:
326,254,73056,1,8,3:1:0:0:
439,24,73232,6,0,B|487:76|487:76|436:239,1,209.000006378174,4|0,0:0|3:2,0:0:0:0:
426,251,73670,1,0,3:2:0:0:
426,251,73758,1,8,3:1:0:0:
348,72,73933,2,0,P|355:117|351:141,1,52.2500015945435,2|0,3:2|3:2,0:0:0:0:
326,278,74109,1,0,3:2:0:0:
484,170,74284,1,2,3:2:0:0:
484,170,74372,1,0,3:2:0:0:
484,170,74460,1,8,3:1:0:0:
401,361,74635,5,2,3:2:0:0:
401,361,74723,1,0,3:2:0:0:
401,361,74810,2,0,L|277:370,1,104.500003189087,0|0,3:2|3:2,0:0:0:0:
120,269,75161,1,8,3:1:0:0:
316,194,75337,1,2,3:2:0:0:
316,194,75424,1,0,3:2:0:0:
316,194,75512,1,0,3:2:0:0:
198,362,75688,2,0,P|205:331|205:302,1,52.2500015945435,2|0,3:2|3:2,0:0:0:0:
155,139,75863,1,8,3:1:0:0:
362,276,76039,6,0,P|403:227|335:103,1,209.000006378174,6|2,0:0|0:0,0:0:0:0:
266,228,76565,1,8,0:1:0:0:
174,57,76740,2,0,L|182:172,1,104.500003189087,2|2,0:0|0:0,0:0:0:0:
110,320,77091,1,2,0:0:0:0:
72,155,77267,1,8,0:1:0:0:
225,253,77442,6,0,P|258:222|273:150,1,104.500003189087,2|0,0:0|0:0,0:0:0:0:
316,38,77793,2,0,P|326:82|381:131,1,104.500003189087,2|8,0:0|0:1,0:0:0:0:
456,224,78144,2,0,P|412:210|342:233,1,104.500003189087,2|2,0:0|0:0,0:0:0:0:
234,364,78495,1,2,0:0:0:0:
187,171,78670,1,8,0:1:0:0:
83,365,78846,1,4,0:3:0:0:
97,168,79021,6,0,L|109:282,1,104.500003189087,4|0,0:3|0:0,0:0:0:0:
278,191,79372,5,8,0:3:0:0:
110,131,79547,1,0,0:0:0:0:
221,288,79723,5,4,0:3:0:0:
296,106,79898,1,0,0:0:0:0:
107,271,80074,5,4,0:3:0:0:
332,325,80249,1,8,0:1:0:0:
157,78,80424,5,4,0:3:0:0:
145,359,80600,1,8,0:1:0:0:
321,77,80775,5,4,0:3:0:0:
352,358,80951,1,8,0:1:0:0:
137,179,81126,5,4,0:3:0:0:
86,183,81213,1,4,0:3:0:0:
49,219,81301,1,4,0:3:0:0:
46,270,81389,1,4,0:3:0:0:
76,311,81476,1,4,0:3:0:0:
126,323,81564,1,4,0:3:0:0:
171,300,81652,1,4,0:3:0:0:
216,274,81740,1,4,0:3:0:0:
267,279,81828,6,0,P|331:290|378:277,1,95,4|2,0:0|0:0,0:0:0:0:
448,175,82179,1,8,0:1:0:0:
251,71,82354,2,0,B|237:142|237:142|259:186|259:186|243:283,1,190,2|4,0:0|0:3,0:0:0:0:
209,378,82881,1,8,0:1:0:0:
168,195,83056,6,0,B|62:162|100:254|-24:212,1,190,2|4,0:0|0:3,0:0:0:0:
78,93,83582,1,8,0:1:0:0:
139,290,83758,2,0,L|360:307,1,190,2|4,0:0|0:3,0:0:0:0:
476,194,84284,1,8,0:1:0:0:
446,372,84460,1,4,0:3:0:0:
286,172,84635,5,2,0:0:0:0:
491,291,84810,1,4,0:3:0:0:
272,360,84986,1,8,0:1:0:0:
361,100,85161,2,0,B|396:166|396:166|341:291,1,190,2|4,0:0|0:3,0:0:0:0:
254,384,85688,1,8,0:1:0:0:
161,158,85863,6,0,B|118:128|61:151|61:151|46:215|84:277,1,190,2|4,0:0|0:3,0:0:0:0:
160,347,86389,1,8,0:1:0:0:
273,153,86565,1,2,0:0:0:0:
296,365,86740,1,4,0:3:0:0:
161,158,86916,1,4,0:3:0:0:
388,197,87091,1,8,0:1:0:0:
191,322,87267,1,4,0:3:0:0:
292,85,87442,6,0,L|298:189,1,95,2|2,0:0|0:0,0:0:0:0:
305,319,87793,1,8,0:1:0:0:
195,163,87968,2,0,B|130:146|130:146|86:161|86:161|-3:141,1,190,2|4,0:0|0:3,0:0:0:0:
125,55,88495,1,8,0:1:0:0:
186,258,88670,6,0,P|250:239|274:115,1,190,2|4,0:0|0:3,0:0:0:0:
126,146,89196,1,8,0:1:0:0:
300,40,89372,2,0,B|424:8|424:8|500:48,1,190,2|4,0:0|0:3,0:0:0:0:
388,232,89898,1,8,0:1:0:0:
280,28,90074,1,4,0:3:0:0:
240,264,90249,5,8,0:1:0:0:
392,108,90424,1,4,0:3:0:0:
408,96,91477,1,0,0:0:0:0:
408,96,91565,1,0,0:0:0:0:
408,96,91653,5,8,0:1:0:0:
176,180,91828,1,8,0:1:0:0:
305,352,92179,6,0,L|317:253,2,95,0|0|0,3:0|3:0|3:0,3:0:0:0:
