osu file format v14

[General]
AudioFilename: audio.mp3
AudioLeadIn: 0
PreviewTime: 27881
Countdown: 0
SampleSet: Soft
StackLeniency: 0.7
Mode: 0
LetterboxInBreaks: 0
WidescreenStoryboard: 0

[Editor]
DistanceSpacing: 1
BeatDivisor: 4
GridSize: 8
TimelineZoom: 3.899999

[Metadata]
Title:Rising (feat. Casey Lee Williams) (TV Size)
TitleUnicode:Rising (feat. Casey Lee Williams) (TV Size)
Artist:Jeff Williams
ArtistUnicode:Jeff Williams
Creator:Nyantiaz
Version:Normal
Source:RWBY
Tags:volume six 6 sixth opening rooster teeth ruby rose blake belladonna weiss schnee yang xiao long english yellow red black white intro rock anime realy0_ browiec
BeatmapID:1878643
BeatmapSetID:893162

[Difficulty]
HPDrainRate:3.5
CircleSize:3
OverallDifficulty:4
ApproachRate:6
SliderMultiplier:1.25
SliderTickRate:1

[Events]
//Background and Video events
0,0,"okay.png",0,0
//Break Periods
//Storyboard Layer 0 (Background)
//Storyboard Layer 1 (Fail)
//Storyboard Layer 2 (Pass)
//Storyboard Layer 3 (Foreground)
//Storyboard Layer 4 (Overlay)
//Storyboard Sound Samples

[TimingPoints]
425,350.877192982456,4,2,1,40,1,0
4635,-100,4,2,1,70,0,0
6038,-100,4,2,1,60,0,0
11652,-100,4,2,1,45,0,0
22880,-100,4,2,1,55,0,0
28494,-100,4,2,1,75,0,0
31126,-100,4,2,1,65,0,0
42529,-100,4,2,1,55,0,0
47968,-100,4,2,1,60,0,0
53582,-100,4,2,1,50,0,0
56389,-100,4,2,1,60,0,0
57968,-100,4,2,1,80,0,0
59196,-100,4,2,1,75,0,1
81828,-100,4,2,1,70,0,0
90249,-100,4,2,1,60,0,0

[Colours]
Combo1 : 255,255,128
Combo2 : 255,0,0
Combo3 : 255,128,128
Combo4 : 0,255,255
Combo5 : 0,128,255
Combo6 : 192,192,192
Combo7 : 128,128,128
Combo8 : 255,255,0
SliderBorder : 255,127,127
SliderTrackOverride : 0,26,26

[HitObjects]
62,115,74,6,8,L|133:111,1,62.5,8|8,0:1|0:1,0:0:0:0:
186,104,425,5,4,0:0:0:0:
377,336,2881,2,0,L|377:264,1,62.5,0|4,0:0|0:3,0:0:0:0:
348,223,3232,1,8,0:1:0:0:
348,223,3407,1,8,0:1:0:0:
41,154,4635,6,0,P|101:173|162:152,1,125,8|8,0:1|0:1,0:0:0:0:
261,84,5337,2,0,P|321:65|382:86,1,125,8|8,0:1|0:1,0:0:0:0:
427,123,5863,1,8,0:1:0:0:
427,123,6039,6,0,L|447:258,1,125,4|8,0:0|0:1,0:0:0:0:
455,308,6565,1,2,0:0:0:0:
330,293,6916,2,0,L|253:300,1,62.5,4|8,0:3|0:1,0:0:0:0:
220,257,7267,2,0,P|207:206|245:126,1,125,2|4,0:0|3:0,0:0:0:0:
276,96,7793,1,8,0:1:0:0:
276,96,7968,2,0,P|227:112|136:92,1,125,2|4,0:0|0:3,0:0:0:0:
109,58,8495,1,8,0:1:0:0:
29,154,8846,6,0,L|14:289,1,125,12|4,0:1|0:3,0:0:0:0:
47,331,9372,2,0,P|82:346|173:315,1,125,8|4,0:1|0:3,0:0:0:0:
209,282,9898,2,0,L|196:208,1,62.5,12|2,0:1|0:0,0:0:0:0:
222,162,10249,2,0,B|252:190|252:190|350:177,1,125,4|4,0:3|0:3,0:0:0:0:
394,158,10775,1,4,0:3:0:0:
500,92,11126,1,4,0:3:0:0:
500,92,11302,2,0,P|491:132|497:174,1,62.5,4|4,0:3|0:3,0:0:0:0:
497,215,11653,6,0,P|455:213|379:257,1,125,4|0,0:0|0:0,0:0:0:0:
354,306,12179,1,0,0:0:0:0:
234,269,12530,2,0,L|204:137,1,125,0|0,0:0|0:0,0:0:0:0:
185,87,13056,2,0,B|158:117|158:117|65:103,1,125,4|0,0:3|0:0,0:0:0:0:
17,76,13582,1,0,0:0:0:0:
24,200,13933,2,0,P|31:236|18:267,1,62.5,0|0,0:0|0:0,0:0:0:0:
122,335,14460,6,0,P|185:295|249:295,1,125,4|0,0:3|0:0,0:0:0:0:
292,313,14986,2,0,P|353:305|403:269,1,125,0|0,0:0|0:0,0:0:0:0:
448,222,15512,2,0,L|522:238,2,62.5,0|0|4,0:0|0:0|0:3,0:0:0:0:
385,113,16214,1,0,0:0:0:0:
385,113,16389,2,0,P|323:104|265:126,1,125,4|0,0:3|0:0,0:0:0:0:
208,152,16916,2,0,L|184:232,1,62.5,0|0,3:0|0:0,0:0:0:0:
171,271,17267,5,4,0:3:0:0:
268,348,17617,1,0,0:0:0:0:
268,348,17793,2,0,L|396:336,1,125,0|0,0:0|0:0,0:0:0:0:
495,264,18495,1,0,0:0:0:0:
495,264,18670,2,0,P|473:212|480:131,1,125,4|0,0:3|0:0,0:0:0:0:
469,82,19196,2,0,P|409:107|335:103,1,125,0|0,0:0|0:0,0:0:0:0:
249,31,19898,1,0,0:0:0:0:
249,31,20074,6,0,L|256:164,1,125,4|0,0:3|0:0,0:0:0:0:
194,169,20600,2,0,B|164:197|164:197|63:171,2,125,0|0|0,0:0|0:0|0:0,0:0:0:0:
255,155,21477,2,0,L|319:173,1,62.5,4|0,0:3|0:0,0:0:0:0:
346,226,21828,1,0,0:0:0:0:
346,226,22003,2,0,P|340:276|367:353,2,125,4|0|0,0:3|0:0|0:0,0:0:0:0:
404,203,22881,5,4,0:3:0:0:
469,96,23232,1,2,0:0:0:0:
361,29,23582,2,0,L|229:47,1,125,0|2,0:0|0:0,0:0:0:0:
181,75,24109,1,0,0:0:0:0:
181,75,24284,2,0,P|169:140|200:195,1,125,4|2,0:3|0:0,0:0:0:0:
226,244,24810,2,0,P|238:304|211:359,2,125,4|0|0,0:3|0:0|0:0,0:0:0:0:
272,201,25688,5,4,0:3:0:0:
358,291,26039,1,2,0:0:0:0:
358,291,26214,2,0,L|490:280,2,125,4|0|0,0:3|0:0|0:0,0:0:0:0:
343,229,27091,2,0,P|365:161|361:84,1,125,4|2,0:3|0:0,0:0:0:0:
268,28,27793,2,8,L|188:42,1,62.5,2|8,0:0|0:1,0:0:0:0:
150,67,28144,2,8,P|141:104|145:151,1,62.5,8|8,0:1|0:1,0:0:0:0:
168,184,28495,6,0,L|16:181,1,125,4|4,0:0|0:3,0:0:0:0:
109,290,29196,2,0,L|261:287,1,125,4|4,0:0|0:3,0:0:0:0:
321,197,29898,2,0,P|336:146|327:57,1,125,4|4,0:0|0:3,0:0:0:0:
284,34,30424,1,4,0:3:0:0:
284,34,30600,2,0,L|146:59,1,125,4|4,0:0|0:3,0:0:0:0:
101,74,31126,6,0,B|131:118|131:118|103:254,1,187.5,6|8,0:0|0:1,0:0:0:0:
162,360,32003,2,0,L|234:353,1,62.5,2|4,0:0|0:3,0:0:0:0:
278,320,32354,1,8,0:1:0:0:
278,320,32530,2,0,L|260:191,1,125,4|4,0:3|3:0,0:0:0:0:
300,147,33056,2,0,L|428:166,1,125,8|2,0:1|0:0,0:0:0:0:
304,20,33933,6,0,P|263:58|173:69,1,125,6|4,0:0|0:3,0:0:0:0:
136,54,34460,1,8,0:1:0:0:
51,148,34810,2,0,B|30:182|30:182|53:288,1,125,2|8,0:0|0:1,0:0:0:0:
98,303,35337,2,0,L|168:316,1,62.5,4|4,0:3|0:3,0:0:0:0:
207,273,35688,2,0,L|202:200,1,62.5,4|8,0:3|0:1,0:0:0:0:
218,149,36039,2,0,P|255:176|341:173,1,125,4|4,0:3|0:3,0:0:0:0:
436,108,36740,6,0,L|451:259,1,125,6|4,0:0|0:3,0:0:0:0:
423,290,37267,1,8,0:1:0:0:
306,245,37617,2,0,L|236:261,1,62.5,2|4,0:0|0:3,0:0:0:0:
184,244,37968,1,8,0:1:0:0:
184,244,38144,2,0,B|211:215|211:215|180:105,1,125,6|4,0:0|0:3,0:0:0:0:
146,85,38670,1,8,0:1:0:0:
258,31,39021,1,4,0:3:0:0:
258,31,39196,2,0,L|331:42,1,62.5,2|8,0:0|0:1,0:0:0:0:
376,67,39547,6,0,P|361:102|372:212,1,125,6|4,0:0|0:3,0:0:0:0:
399,236,40074,1,8,0:1:0:0:
340,346,40424,2,0,L|260:340,1,62.5,4|0,0:3|0:0,0:0:0:0:
220,316,40775,1,8,0:1:0:0:
220,316,40951,2,0,P|247:263|240:183,1,125,4|4,0:3|0:3,0:0:0:0:
206,79,41653,2,0,P|245:105|343:109,2,125,2|4|8,0:0|0:3|0:1,0:0:0:0:
152,45,42530,5,12,0:1:0:0:
208,288,43232,2,0,B|134:244|134:244|-10:357,2,250,4|4|6,0:0|0:0|0:0,0:0:0:0:
392,319,45161,2,0,P|368:264|388:181,1,125,4|0,0:0|0:0,0:0:0:0:
416,152,45688,1,2,0:0:0:0:
308,88,46039,2,0,B|209:46|244:161|110:93,2,187.5,8|6|4,0:1|0:0|0:3,0:0:0:0:
427,46,47442,2,0,L|419:118,1,62.5,8|8,0:3|0:3,0:0:0:0:
455,160,47793,1,8,0:3:0:0:
455,160,47968,6,0,P|477:196|460:286,1,125,4|4,0:0|0:3,0:0:0:0:
433,328,48495,2,0,L|368:311,2,62.5,8|4|2,0:1|0:3|0:0,0:0:0:0:
357,228,49196,1,8,0:1:0:0:
357,228,49372,2,0,L|206:242,1,125,4|4,0:3|0:3,0:0:0:0:
107,238,50074,2,0,P|134:189|110:106,1,125,4|4,0:3|0:3,0:0:0:0:
82,75,50600,1,8,0:1:0:0:
82,75,50775,6,0,L|227:87,1,125,4|4,0:0|0:3,0:0:0:0:
251,130,51302,2,0,L|249:209,2,62.5,8|4|2,0:1|0:3|0:0,0:0:0:0:
331,34,52003,1,8,0:1:0:0:
331,34,52179,2,0,P|363:78|428:116,1,125,2|4,0:0|0:3,0:0:0:0:
487,221,52881,2,0,P|433:251|395:301,1,125,4|8,0:3|0:1,0:0:0:0:
348,342,53407,1,8,0:1:0:0:
348,342,53582,6,0,L|150:317,1,187.5,4|0,0:2|0:0,0:0:0:0:
60,235,54460,2,0,P|55:173|77:102,1,125,8|0,0:1|0:0,0:0:0:0:
115,68,54986,1,4,0:3:0:0:
115,68,55161,2,0,L|246:88,1,125,4|4,0:3|0:3,0:0:0:0:
327,174,55863,2,0,L|310:243,2,62.5,8|4|0,0:1|0:3|0:0,0:0:0:0:
368,127,56389,5,4,0:0:0:0:
428,304,56916,2,0,L|360:319,1,62.5,4|4,0:3|0:3,0:0:0:0:
311,295,57267,2,4,P|317:254|307:224,1,62.5,4|4,0:3|0:3,0:0:0:0:
264,193,57617,2,0,L|198:199,2,62.5,4|4|8,0:3|0:3|0:1,0:0:0:0:
314,155,58144,1,8,0:1:0:0:
314,155,58319,2,0,B|442:137,1,125,8|4,0:1|0:3,0:0:0:0:
289,22,59196,6,0,L|149:36,1,125,6|0,0:0|3:2,0:0:0:0:
134,91,59723,2,4,L|146:157,1,62.5,8|0,3:1|3:2,0:0:0:0:
114,207,60074,2,0,P|67:202|32:210,2,62.5,8|0|8,3:1|0:0|0:1,0:0:0:0:
168,238,60600,2,4,B|230:223|222:269|298:247,1,125,6|0,3:2|3:0,0:0:0:0:
345,222,61126,2,0,P|346:263|354:289,1,62.5,8|0,0:1|3:2,0:0:0:0:
393,330,61477,1,8,0:1:0:0:
509,183,62003,6,0,L|475:59,1,125,4|0,0:0|3:2,0:0:0:0:
414,44,62530,1,8,3:1:0:0:
414,44,62705,2,0,P|372:43|288:77,1,125,0|0,3:2|3:2,0:0:0:0:
243,107,63232,2,0,L|253:176,1,62.5,8|0,3:1|3:2,0:0:0:0:
239,229,63582,1,2,3:2:0:0:
138,301,63933,1,8,3:1:0:0:
138,301,64109,2,0,L|126:172,1,125,4|4,3:3|0:3,0:0:0:0:
116,114,64635,1,4,0:3:0:0:
116,114,64810,6,0,P|163:113|236:63,1,125,4|0,0:0|3:2,0:0:0:0:
290,77,65337,2,0,L|359:81,1,62.5,8|0,0:1|3:2,0:0:0:0:
414,87,65688,1,8,3:1:0:0:
470,195,66039,1,8,0:1:0:0:
470,195,66214,2,0,L|338:187,1,125,4|0,3:2|3:2,0:0:0:0:
297,227,66740,2,0,B|302:262|302:262|294:294,1,62.5,8|0,3:1|3:2,0:0:0:0:
250,331,67091,1,8,0:1:0:0:
126,312,67442,1,8,0:1:0:0:
126,312,67617,6,0,L|121:171,1,125,4|0,0:0|3:2,0:0:0:0:
153,132,68144,2,0,P|191:145|297:126,1,125,8|2,3:1|3:2,0:0:0:0:
313,88,68670,2,0,L|296:19,2,62.5,0|8|0,3:2|3:1|3:2,0:0:0:0:
413,162,69372,2,0,L|436:299,1,125,0|0,3:2|3:2,0:0:0:0:
314,323,70074,2,0,L|237:319,1,62.5,4|4,0:3|0:3,0:0:0:0:
190,307,70424,6,0,B|210:272|210:272|201:178,1,125,4|0,0:0|3:2,0:0:0:0:
160,139,70951,1,8,3:1:0:0:
237,41,71302,2,0,L|260:102,1,62.5,2|0,3:2|3:2,0:0:0:0:
296,151,71653,1,8,3:1:0:0:
296,151,71828,6,0,P|351:172|425:151,1,125,2|0,3:2|3:2,0:0:0:0:
461,117,72354,2,0,L|448:40,2,62.5,8|0|2,3:1|3:2|3:2,0:0:0:0:
471,241,73056,1,8,3:1:0:0:
471,241,73232,2,0,L|274:257,1,187.5,4|8,0:0|3:1,0:0:0:0:
225,236,73933,2,0,P|248:161|181:54,1,187.5,2|8,3:2|3:1,0:0:0:0:
153,27,74635,1,2,3:2:0:0:
275,0,74986,1,0,3:2:0:0:
375,73,75337,2,0,B|399:112|399:112|389:203,1,125,2|2,3:2|3:2,0:0:0:0:
369,314,76039,6,0,L|516:329,2,125,6|2|2,0:0|0:0|0:0,0:0:0:0:
308,298,76916,1,2,0:0:0:0:
308,298,77091,1,2,0:0:0:0:
232,198,77442,2,0,P|292:171|360:178,1,125,2|2,0:0|0:0,0:0:0:0:
472,198,78144,2,0,P|487:144|455:58,1,125,2|2,0:0|0:0,0:0:0:0:
354,30,78846,1,4,0:3:0:0:
354,30,79021,6,0,L|215:16,1,125,4|8,0:3|0:3,0:0:0:0:
105,31,79723,2,0,P|82:87|106:169,1,125,4|4,0:3|0:3,0:0:0:0:
139,183,80249,1,8,0:1:0:0:
139,183,80424,2,0,P|162:239|138:321,1,125,4|4,0:3|0:3,0:0:0:0:
158,363,80951,1,8,0:1:0:0:
158,363,81126,2,0,L|246:356,1,62.5,4|4,0:3|0:3,0:0:0:0:
265,314,81477,2,0,L|353:321,1,62.5,4|4,0:3|0:3,0:0:0:0:
375,358,81828,5,4,0:0:0:0:
498,341,82179,1,8,0:1:0:0:
498,341,82354,2,0,P|508:267|487:201,1,125,2|4,0:0|0:3,0:0:0:0:
455,170,82881,1,8,0:1:0:0:
455,170,83056,2,0,P|436:118|466:50,1,125,2|4,0:0|0:3,0:0:0:0:
406,23,83582,1,8,0:1:0:0:
406,23,83758,1,2,0:0:0:0:
290,71,84109,2,0,L|213:64,2,62.5,4|8|4,0:3|0:1|0:3,0:0:0:0:
339,109,84635,6,0,P|341:150|326:194,1,62.5,2|4,0:0|0:3,0:0:0:0:
317,228,84986,1,8,0:1:0:0:
317,228,85161,2,0,P|268:212|177:232,1,125,2|4,0:0|0:3,0:0:0:0:
140,246,85688,1,8,0:1:0:0:
140,246,85863,1,2,0:0:0:0:
34,179,86214,2,0,L|27:91,1,62.5,4|8,0:3|0:1,0:0:0:0:
52,58,86565,2,0,P|87:43|178:74,1,125,2|4,0:0|0:3,0:0:0:0:
213,106,87091,1,8,0:1:0:0:
226,230,87442,6,0,B|256:202|256:202|354:215,1,125,2|8,0:0|0:1,0:0:0:0:
400,226,87968,1,2,0:0:0:0:
497,304,88319,2,0,P|488:264|494:222,1,62.5,4|8,0:3|0:1,0:0:0:0:
498,180,88670,2,0,P|503:121|491:41,1,125,2|4,0:0|0:3,0:0:0:0:
443,30,89196,1,8,0:1:0:0:
443,30,89372,1,2,0:0:0:0:
324,71,89723,2,0,L|336:148,1,62.5,4|8,0:3|0:1,0:0:0:0:
291,178,90074,1,4,0:3:0:0:
291,178,90249,6,0,L|228:168,2,62.5,8|8|2,0:1|0:1|0:0,0:0:0:0:
291,243,90775,1,0,0:0:0:0:
512,151,91477,1,0,0:0:0:0:
512,151,91653,2,0,L|494:64,1,62.5,8|8,0:1|0:1,0:0:0:0:
444,74,92003,1,2,0:0:0:0:
444,74,92179,2,0,P|396:87|308:60,1,125,0|0,3:0|3:0,0:0:0:0:
281,24,92705,1,0,0:0:0:0:
281,24,92881,5,0,3:0:0:0:
