osu file format v14

[General]
AudioFilename: audio.mp3
AudioLeadIn: 0
PreviewTime: 27881
Countdown: 0
SampleSet: Soft
StackLeniency: 0.7
Mode: 0
LetterboxInBreaks: 0
WidescreenStoryboard: 0

[Editor]
DistanceSpacing: 1
BeatDivisor: 4
GridSize: 8
TimelineZoom: 3.199999

[Metadata]
Title:Rising (feat. Casey Lee Williams) (TV Size)
TitleUnicode:Rising (feat. Casey Lee Williams) (TV Size)
Artist:Jeff Williams
ArtistUnicode:Jeff Williams
Creator:Nyantiaz
Version:Insane
Source:RWBY
Tags:volume six 6 sixth opening rooster teeth ruby rose blake belladonna weiss schnee yang xiao long english yellow red black white intro rock anime realy0_ browiec
BeatmapID:1869534
BeatmapSetID:893162

[Difficulty]
HPDrainRate:5.3
CircleSize:4
OverallDifficulty:7.6
ApproachRate:9
SliderMultiplier:1.8
SliderTickRate:1

[Events]
//Background and Video events
0,0,"okay.png",0,0
//Break Periods
//Storyboard Layer 0 (Background)
//Storyboard Layer 1 (Fail)
//Storyboard Layer 2 (Pass)
//Storyboard Layer 3 (Foreground)
//Storyboard Layer 4 (Overlay)
//Storyboard Sound Samples

[TimingPoints]
425,350.877192982456,4,2,1,40,1,0
4635,-83.3333333333333,4,2,1,70,0,0
5687,-111.111111111111,4,2,1,70,0,0
6038,-95.2380952380952,4,2,1,60,0,0
11652,-117.647058823529,4,2,1,45,0,0
22880,-100,4,2,1,55,0,0
27968,-100,4,2,1,25,0,0
28143,-100,4,2,1,45,0,0
28319,-100,4,2,1,65,0,0
28494,-86.9565217391304,4,2,1,75,0,0
31126,-95.2380952380952,4,2,1,65,0,0
42529,-105.263157894737,4,2,1,55,0,0
47968,-95.2380952380952,4,2,1,60,0,0
53582,-111.111111111111,4,2,1,50,0,0
56389,-111.111111111111,4,2,1,60,0,0
57968,-111.111111111111,4,2,1,70,0,0
58670,-111.111111111111,4,2,1,60,0,0
59196,-86.9565217391304,4,2,1,75,0,1
81828,-95.2380952380952,4,2,1,70,0,0
90249,-105.263157894737,4,2,1,60,0,0

[Colours]
Combo1 : 255,255,128
Combo2 : 255,0,0
Combo3 : 255,128,128
Combo4 : 0,255,255
Combo5 : 0,128,255
Combo6 : 192,192,192
Combo7 : 128,128,128
Combo8 : 255,255,0
SliderBorder : 255,127,127
SliderTrackOverride : 0,26,26

[HitObjects]
137,59,74,6,8,L|195:65,3,45,8|8|8|8,0:1|0:1|0:1|0:1,0:0:0:0:
59,104,424,5,4,0:0:0:0:
215,255,2881,2,0,L|213:165,1,90,0|4,0:0|0:3,0:0:0:0:
187,384,3232,5,8,0:1:0:0:
330,273,3407,1,8,0:1:0:0:
330,273,4635,5,8,0:1:0:0:
272,380,4810,1,4,0:3:0:0:
213,199,4986,1,8,0:1:0:0:
219,327,5161,1,4,0:3:0:0:
127,166,5337,1,8,0:1:0:0:
100,319,5512,1,4,0:3:0:0:
17,123,5688,2,0,L|66:118,3,40.4999987640381,8|8|8|8,0:1|0:1|0:1|0:1,0:0:0:0:
127,166,6039,5,4,0:0:0:0:
228,126,6214,1,2,0:0:0:0:
138,39,6389,1,8,0:1:0:0:
222,217,6565,2,0,P|268:213|316:96,1,188.999994232178,2|4,0:0|0:3,0:0:0:0:
223,46,7091,1,8,0:1:0:0:
106,169,7267,6,0,B|62:252|142:271|96:364,1,188.999994232178,2|4,0:0|3:0,0:0:0:0:
2,237,7793,1,8,0:1:0:0:
157,285,7968,2,0,B|262:274|215:350|343:318,1,188.999994232178,2|4,0:0|0:3,0:0:0:0:
448,207,8495,2,0,P|455:152|439:103,1,94.499997116089,8|2,0:1|0:0,0:0:0:0:
261,37,8846,5,12,0:1:0:0:
277,134,9021,1,2,0:0:0:0:
164,70,9196,1,4,0:3:0:0:
283,28,9372,2,0,L|390:15,1,94.499997116089,8|4,0:1|0:3,0:0:0:0:
293,149,9723,1,4,0:3:0:0:
140,83,9898,2,0,L|45:94,1,94.499997116089,12|2,0:1|0:0,0:0:0:0:
119,231,10249,5,4,0:3:0:0:
243,81,10424,2,0,P|235:31|190:-8,1,94.499997116089,8|4,0:1|0:3,0:0:0:0:
35,111,10775,1,4,0:3:0:0:
222,179,10951,2,0,L|334:168,1,94.499997116089,8|4,0:1|0:3,0:0:0:0:
430,122,11302,1,4,0:3:0:0:
444,153,11389,1,4,0:3:0:0:
448,188,11477,1,4,0:3:0:0:
441,222,11565,1,4,0:3:0:0:
421,251,11653,6,0,P|408:285|419:338,1,76.5000014591217,4|0,0:0|0:0,0:0:0:0:
328,383,12003,1,0,0:0:0:0:
264,310,12179,2,0,L|283:137,2,153.000002918243,0|0|0,0:0|0:0|0:0,0:0:0:0:
153,358,13056,2,0,L|72:345,1,76.5000014591217,4|0,0:3|0:0,0:0:0:0:
4,275,13407,1,0,0:0:0:0:
86,202,13582,2,0,P|113:275|56:362,2,153.000002918243,0|0|0,0:0|0:0|0:0,0:0:0:0:
216,199,14460,6,0,L|222:116,1,76.5000014591217,4|0,0:3|0:0,0:0:0:0:
137,82,14810,1,0,0:0:0:0:
202,16,14986,2,0,B|294:11|246:68|367:57,1,153.000002918243,0|0,0:0|0:0,0:0:0:0:
438,73,15512,2,0,P|431:113|440:178,1,76.5000014591217,0|0,0:0|0:0,0:0:0:0:
323,220,15863,6,0,P|326:181|317:144,1,76.5000014591217,4|0,0:3|0:0,0:0:0:0:
217,141,16214,1,0,0:0:0:0:
241,271,16389,2,0,P|275:315|378:306,1,153.000002918243,4|0,0:3|0:0,0:0:0:0:
454,264,16828,1,0,0:0:0:0:
454,264,16916,2,0,L|434:180,1,76.5000014591217,0|0,3:0|0:0,0:0:0:0:
367,135,17179,1,0,0:0:0:0:
367,135,17267,6,0,P|355:181|361:232,1,76.5000014591217,4|0,0:3|0:0,0:0:0:0:
447,175,17617,1,0,0:0:0:0:
382,99,17793,2,0,B|304:120|321:56|220:69,2,153.000002918243,0|0|0,0:0|0:0|0:0,0:0:0:0:
312,167,18670,2,0,P|301:208|306:250,1,76.5000014591217,4|0,0:3|0:0,0:0:0:0:
377,300,19021,1,0,0:0:0:0:
294,341,19196,2,0,L|107:364,2,153.000002918243,0|0|0,0:0|0:0|0:0,0:0:0:0:
272,218,20074,5,4,0:3:0:0:
196,181,20249,1,0,0:0:0:0:
231,99,20424,1,0,0:0:0:0:
275,225,20600,2,0,P|216:269|127:243,1,153.000002918243,0|0,0:0|0:0,0:0:0:0:
67,171,21126,2,0,L|144:126,1,76.5000014591217,0|0,0:0|0:0,0:0:0:0:
278,67,21477,6,0,P|282:112|255:168,1,76.5000014591217,4|0,0:3|0:0,0:0:0:0:
196,181,21828,1,0,0:0:0:0:
278,276,22003,2,0,P|317:276|362:246,1,76.5000014591217,4|0,0:3|0:0,0:0:0:0:
447,183,22354,1,0,0:0:0:0:
447,183,22441,1,0,0:0:0:0:
447,183,22529,1,0,0:0:0:0:
369,64,22705,1,0,0:0:0:0:
334,50,22793,1,0,0:0:0:0:
302,35,22881,5,4,0:3:0:0:
330,171,23056,1,0,0:0:0:0:
205,156,23232,2,0,L|112:167,1,90,2|4,0:0|0:3,0:0:0:0:
211,54,23582,2,0,L|304:65,1,90,0|0,0:0|0:0,0:0:0:0:
402,140,23933,1,2,0:0:0:0:
402,140,24109,1,0,0:0:0:0:
265,237,24284,6,0,P|256:190|278:145,1,90,4|0,0:3|0:0,0:0:0:0:
300,64,24635,1,2,0:0:0:0:
460,149,24810,2,0,L|363:137,1,90,4|0,0:3|0:0,0:0:0:0:
502,64,25161,1,0,0:0:0:0:
500,221,25337,2,0,L|499:315,1,90,2|0,0:0|0:0,0:0:0:0:
316,354,25688,5,4,0:3:0:0:
372,262,25863,1,0,0:0:0:0:
420,379,26039,1,2,0:0:0:0:
280,283,26214,2,0,L|148:288,1,90,4|0,0:3|0:0,0:0:0:0:
297,167,26565,1,0,0:0:0:0:
297,167,26740,2,0,L|429:172,1,90,2|0,0:0|0:0,0:0:0:0:
247,81,27091,6,0,P|209:114|188:180,1,90,4|0,0:3|0:0,0:0:0:0:
280,283,27442,2,0,P|265:234|213:188,1,90,2|4,0:0|0:3,0:0:0:0:
88,239,27793,1,2,0:0:0:0:
233,344,27968,5,8,0:1:0:0:
266,361,28056,1,8,0:1:0:0:
304,362,28144,1,8,0:1:0:0:
337,344,28232,1,8,0:1:0:0:
359,313,28319,1,8,0:1:0:0:
363,276,28407,1,8,0:1:0:0:
350,240,28495,5,4,0:0:0:0:
432,92,28670,1,4,0:3:0:0:
467,271,28846,1,4,0:3:0:0:
352,70,29021,1,0,0:0:0:0:
218,182,29196,2,0,L|115:176,1,103.500001974106,4|0,0:0|0:0,0:0:0:0:
275,302,29547,1,4,0:3:0:0:
363,152,29723,1,4,0:3:0:0:
457,244,29898,6,0,P|461:301|436:357,1,103.500001974106,4|4,0:0|0:3,0:0:0:0:
335,225,30249,1,4,0:3:0:0:
436,105,30424,1,4,0:3:0:0:
276,284,30600,2,0,P|254:232|269:170,1,103.500001974106,4|4,0:0|0:3,0:0:0:0:
333,42,30951,1,4,0:3:0:0:
479,82,31126,6,0,L|494:282,1,188.999994232178,6|4,0:0|0:3,0:0:0:0:
369,376,31653,2,0,L|260:361,1,94.499997116089,8|4,0:1|0:3,0:0:0:0:
371,241,32003,2,0,L|480:226,1,94.499997116089,2|4,0:0|0:3,0:0:0:0:
337,150,32354,1,8,0:1:0:0:
228,245,32530,6,0,P|197:294|295:309,1,188.999994232178,4|4,0:3|3:0,0:0:0:0:
167,186,33056,2,0,L|54:195,1,94.499997116089,8|4,0:1|0:3,0:0:0:0:
242,96,33407,2,0,P|269:135|264:216,1,94.499997116089,2|4,0:0|0:3,0:0:0:0:
108,97,33758,1,8,0:1:0:0:
260,47,33933,6,0,B|316:68|316:68|382:56|382:56|446:77,1,188.999994232178,6|4,0:0|0:3,0:0:0:0:
282,155,34460,2,0,L|188:120,1,94.499997116089,8|4,0:1|0:3,0:0:0:0:
387,205,34810,2,0,P|376:265|315:299,1,94.499997116089,2|4,0:0|0:3,0:0:0:0:
236,237,35161,1,8,0:1:0:0:
336,313,35337,6,0,L|466:302,1,94.499997116089,4|4,0:3|0:3,0:0:0:0:
297,384,35688,2,0,P|265:352|255:304,1,94.499997116089,4|8,0:3|0:1,0:0:0:0:
389,241,36039,2,0,P|373:284|336:312,1,94.499997116089,4|0,0:3|0:0,0:0:0:0:
226,210,36389,2,0,P|276:211|313:240,1,94.499997116089,4|8,0:3|0:1,0:0:0:0:
147,259,36740,6,0,P|133:209|234:118,1,188.999994232178,6|4,0:0|0:3,0:0:0:0:
226,210,37267,1,8,0:1:0:0:
125,126,37442,1,4,0:3:0:0:
292,92,37617,1,2,0:0:0:0:
180,278,37793,2,0,P|149:233|149:178,1,94.499997116089,4|8,0:3|0:1,0:0:0:0:
321,84,38144,6,0,B|425:70|391:149|505:114,1,188.999994232178,6|4,0:0|0:3,0:0:0:0:
349,4,38670,2,0,P|282:9|227:45,1,94.499997116089,8|4,0:1|0:3,0:0:0:0:
205,178,39021,1,4,0:3:0:0:
294,169,39196,2,0,P|360:163|415:127,1,94.499997116089,2|8,0:0|0:1,0:0:0:0:
206,84,39547,6,0,P|148:111|127:235,1,188.999994232178,6|4,0:0|0:3,0:0:0:0:
256,308,40074,2,0,L|356:290,1,94.499997116089,8|4,0:1|0:3,0:0:0:0:
194,225,40424,2,0,P|161:264|154:324,1,94.499997116089,4|0,0:3|0:0,0:0:0:0:
318,222,40775,1,8,0:1:0:0:
228,115,40951,6,0,L|218:20,1,94.499997116089,4|2,0:3|0:0,0:0:0:0:
346,125,41302,2,0,L|336:218,1,94.499997116089,4|8,0:3|0:1,0:0:0:0:
225,264,41653,2,0,L|106:270,1,94.499997116089,2|4,0:0|0:3,0:0:0:0:
266,149,42003,1,4,0:3:0:0:
149,39,42179,1,8,0:1:0:0:
124,56,42267,1,8,0:1:0:0:
94,63,42354,1,8,0:1:0:0:
64,58,42442,1,8,0:1:0:0:
38,44,42530,5,12,0:1:0:0:
388,191,43232,6,0,P|422:265|381:337,1,170.999995433807,4|0,0:0|0:0,0:0:0:0:
130,337,43933,2,0,P|89:265|124:191,1,170.999995433807,4|0,0:0|0:0,0:0:0:0:
256,37,44635,2,0,L|256:209,1,170.999995433807,6|4,0:0|0:3,0:0:0:0:
329,258,45161,6,0,P|255:295|182:256,1,170.999995433807,4|0,0:0|0:0,0:0:0:0:
328,174,45688,2,0,L|424:176,1,85.4999977169037,2|0,0:0|0:0,0:0:0:0:
475,98,46039,1,8,0:1:0:0:
256,37,46389,1,8,0:1:0:0:
151,59,46565,2,0,P|176:113|100:217,1,170.999995433807,6|0,0:0|0:0,0:0:0:0:
93,320,47091,2,0,L|194:313,1,85.4999977169037,4|0,0:3|0:0,0:0:0:0:
334,226,47442,5,8,0:3:0:0:
285,368,47617,1,8,0:3:0:0:
235,155,47793,1,8,0:3:0:0:
411,209,47968,6,0,P|406:259|289:291,1,188.999994232178,4|4,0:0|0:3,0:0:0:0:
380,133,48495,2,0,P|432:133|491:186,1,94.499997116089,8|4,0:1|0:3,0:0:0:0:
300,152,48846,2,0,P|306:100|366:48,1,94.499997116089,2|4,0:0|0:3,0:0:0:0:
437,8,49196,1,8,0:1:0:0:
255,5,49372,6,0,B|198:38|198:38|139:30|139:30|68:59,1,188.999994232178,4|4,0:3|0:3,0:0:0:0:
161,211,49898,2,0,P|173:164|159:111,1,94.499997116089,8|4,0:1|0:3,0:0:0:0:
75,276,50249,2,0,P|110:308|166:316,1,94.499997116089,2|4,0:0|0:3,0:0:0:0:
247,222,50600,1,8,0:1:0:0:
65,192,50775,6,0,P|18:216|26:342,1,188.999994232178,4|4,0:0|0:3,0:0:0:0:
188,367,51302,2,0,L|296:352,1,94.499997116089,8|4,0:1|0:3,0:0:0:0:
247,222,51653,2,0,L|153:208,1,94.499997116089,2|4,0:0|0:3,0:0:0:0:
306,283,52003,1,8,0:1:0:0:
306,283,52179,6,0,P|327:229|303:159,1,94.499997116089,2|4,0:0|0:3,0:0:0:0:
153,281,52530,2,0,P|150:327|169:370,1,94.499997116089,4|8,0:3|0:1,0:0:0:0:
343,370,52881,1,4,0:3:0:0:
247,222,53056,5,2,0:0:0:0:
94,243,53232,1,8,0:1:0:0:
54,239,53319,1,8,0:1:0:0:
15,235,53407,1,8,0:1:0:0:
139,117,53582,6,0,B|225:88|209:148|305:115,1,161.999995056153,4|0,0:2|0:0,0:0:0:0:
180,34,54109,2,0,L|86:27,1,80.9999975280763,0|4,0:0|0:3,0:0:0:0:
0,205,54460,2,0,L|190:191,1,161.999995056153,8|0,0:1|0:0,0:0:0:0:
220,115,54986,1,4,0:3:0:0:
180,34,55161,5,4,0:3:0:0:
388,212,55512,2,0,P|413:177|414:131,1,80.9999975280763,4|4,0:3|0:3,0:0:0:0:
265,186,55863,1,8,0:1:0:0:
376,291,56039,2,0,P|430:281|466:239,1,80.9999975280763,4|0,0:3|0:0,0:0:0:0:
320,103,56389,5,4,0:0:0:0:
86,67,56916,6,4,L|99:170,1,80.9999975280763,4|4,0:3|0:3,0:0:0:0:
208,244,57267,1,4,0:3:0:0:
169,105,57442,1,4,0:3:0:0:
23,254,57617,1,4,0:3:0:0:
138,208,57793,1,4,0:3:0:0:
13,174,57968,5,8,0:1:0:0:
18,214,58056,1,8,0:1:0:0:
23,254,58144,1,8,0:1:0:0:
28,294,58232,1,8,0:1:0:0:
34,334,58319,2,8,L|19:383,3,40.4999987640381,8|8|8|8,0:1|0:1|0:1|0:1,0:0:0:0:
122,330,58670,5,4,0:3:0:0:
158,312,58758,1,4,0:3:0:0:
197,303,58846,1,4,0:3:0:0:
238,304,58933,1,4,0:3:0:0:
277,314,59021,1,4,0:3:0:0:
214,128,59196,6,0,P|162:194|206:309,1,207.000003948212,6|0,0:0|3:2,0:0:0:0:
297,155,59723,2,0,P|293:100|244:49,1,103.500001974106,8|0,3:1|3:2,0:0:0:0:
286,261,60074,2,0,P|340:256|391:206,1,103.500001974106,8|0,3:1|0:0,0:0:0:0:
393,98,60424,1,8,0:1:0:0:
199,31,60600,6,0,B|99:23|134:101|0:78,1,207.000003948212,6|0,3:2|3:0,0:0:0:0:
131,175,61126,2,0,L|244:152,1,103.500001974106,8|0,0:1|3:2,0:0:0:0:
49,123,61477,1,8,0:1:0:0:
55,159,61565,1,8,0:1:0:0:
53,195,61653,1,8,0:1:0:0:
44,231,61740,1,8,0:1:0:0:
29,264,61828,2,8,L|85:306,1,51.7500009870529,8|8,0:1|0:1,0:0:0:0:
198,340,62003,6,0,P|169:281|242:163,1,207.000003948212,4|0,0:0|3:2,0:0:0:0:
366,278,62530,2,0,L|253:261,1,103.500001974106,8|0,3:1|3:2,0:0:0:0:
409,195,62881,1,2,3:2:0:0:
409,195,63056,2,0,L|522:178,1,103.500001974106,0|8,3:2|3:1,0:0:0:0:
422,36,63407,1,0,3:2:0:0:
312,133,63582,5,2,3:2:0:0:
158,58,63758,1,0,3:2:0:0:
179,220,63933,2,0,L|281:208,1,103.500001974106,8|4,3:1|3:3,0:0:0:0:
115,168,64284,2,0,L|4:154,1,103.500001974106,2|4,3:2|0:3,0:0:0:0:
6,192,64547,1,4,0:3:0:0:
2,232,64635,1,4,0:3:0:0:
0,270,64723,1,4,0:3:0:0:
0,310,64810,6,0,P|84:342|222:343,1,207.000003948212,4|0,0:0|3:2,0:0:0:0:
352,279,65337,2,0,P|355:221|334:159,1,103.500001974106,8|0,0:1|3:2,0:0:0:0:
246,65,65688,2,0,P|233:115|237:166,2,103.500001974106,8|0|8,3:1|0:0|0:1,0:0:0:0:
468,15,66214,6,0,P|503:77|446:201,1,207.000003948212,4|0,3:2|3:2,0:0:0:0:
297,263,66740,2,0,L|187:246,1,103.500001974106,8|0,3:1|3:2,0:0:0:0:
377,180,67091,1,8,0:1:0:0:
379,221,67178,1,8,0:1:0:0:
381,262,67266,1,8,0:1:0:0:
383,304,67354,1,8,0:1:0:0:
386,342,67442,2,8,L|444:336,1,51.7500009870529,8|8,0:1|0:1,0:0:0:0:
279,355,67617,6,0,B|190:312|178:397|63:332,1,207.000003948212,4|0,0:0|3:2,0:0:0:0:
50,186,68144,2,0,P|44:134|76:81,1,103.500001974106,8|0,3:1|3:2,0:0:0:0:
118,265,68495,2,0,P|73:292|11:282,1,103.500001974106,2|0,3:2|3:2,0:0:0:0:
122,150,68846,1,8,3:1:0:0:
186,222,69021,1,0,3:2:0:0:
66,89,69196,5,2,3:2:0:0:
211,52,69372,2,0,L|322:62,1,103.500001974106,0|8,3:2|3:1,0:0:0:0:
289,212,69723,2,0,L|178:222,1,103.500001974106,0|2,3:2|3:2,0:0:0:0:
366,154,70074,1,4,0:3:0:0:
371,190,70161,1,4,0:3:0:0:
376,226,70249,1,4,0:3:0:0:
381,262,70337,1,4,0:3:0:0:
386,298,70424,6,0,P|451:290|495:168,1,207.000003948212,4|0,0:0|3:2,0:0:0:0:
348,110,70951,2,0,L|217:117,1,103.500001974106,8|0,3:1|3:2,0:0:0:0:
370,16,71302,2,0,L|501:23,2,103.500001974106,2|0|8,3:2|3:2|3:1,0:0:0:0:
210,50,71828,6,0,P|173:88|251:188,1,207.000003948212,2|0,3:2|3:2,0:0:0:0:
110,240,72354,2,0,P|56:233|0:249,1,103.500001974106,8|0,3:1|3:2,0:0:0:0:
136,344,72705,2,0,P|190:351|246:335,1,103.500001974106,2|0,3:2|3:2,0:0:0:0:
349,263,73056,1,8,3:1:0:0:
184,94,73232,6,0,P|147:150|184:275,1,207.000003948212,4|0,0:0|3:2,0:0:0:0:
296,223,73758,1,8,3:1:0:0:
241,35,73933,2,0,P|196:16|116:41,1,103.500001974106,2|0,3:2|3:2,0:0:0:0:
234,153,74284,2,0,P|284:148|326:119,1,103.500001974106,2|8,3:2|3:1,0:0:0:0:
463,201,74635,6,0,P|430:242|465:397,1,207.000003948212,2|0,3:2|3:2,0:0:0:0:
303,374,75161,1,8,3:1:0:0:
197,256,75337,2,0,L|183:154,1,103.500001974106,2|0,3:2|3:2,0:0:0:0:
329,154,75688,2,0,L|315:256,1,103.500001974106,2|8,3:2|3:1,0:0:0:0:
162,374,76039,6,0,P|115:349|93:297,1,103.500001974106,6|0,0:0|0:0,0:0:0:0:
246,230,76389,2,0,P|218:275|165:294,1,103.500001974106,2|8,0:0|0:1,0:0:0:0:
127,134,76740,1,2,0:0:0:0:
167,221,76915,1,2,0:0:0:0:
305,120,77091,2,0,L|186:160,1,103.500001974106,2|8,0:0|0:1,0:0:0:0:
319,40,77442,6,0,P|369:69|380:151,1,103.500001974106,2|0,0:0|0:0,0:0:0:0:
279,212,77793,2,0,P|276:161|305:119,1,103.500001974106,2|8,0:0|0:1,0:0:0:0:
458,209,78144,2,0,L|345:186,1,103.500001974106,2|2,0:0|0:0,0:0:0:0:
498,123,78495,1,2,0:0:0:0:
499,330,78670,1,8,0:1:0:0:
344,208,78846,2,0,L|284:217,1,51.7500009870529,4|0,0:3|0:0,0:0:0:0:
227,267,79021,5,4,0:3:0:0:
113,151,79196,1,0,0:0:0:0:
139,336,79372,1,8,0:3:0:0:
221,121,79547,1,0,0:0:0:0:
285,331,79723,5,4,0:3:0:0:
57,275,79898,1,0,0:0:0:0:
246,255,80074,1,4,0:3:0:0:
20,355,80249,1,8,0:1:0:0:
215,184,80424,6,0,P|289:192|318:224,1,103.500001974106,4|8,0:3|0:1,0:0:0:0:
91,226,80775,2,0,P|88:151|116:118,1,103.500001974106,4|8,0:3|0:1,0:0:0:0:
267,56,81126,5,4,0:3:0:0:
269,94,81214,1,4,0:3:0:0:
271,133,81302,1,4,0:3:0:0:
273,172,81389,1,4,0:3:0:0:
276,211,81477,2,4,L|264:263,3,51.7500009870529,4|4|4|4,0:3|0:3|0:3|0:3,0:0:0:0:
334,332,81828,5,4,0:0:0:0:
273,172,82003,1,2,0:0:0:0:
185,251,82179,1,8,0:1:0:0:
296,144,82354,2,0,B|377:131|370:179|483:154,1,188.999994232178,2|4,0:0|0:3,0:0:0:0:
377,62,82881,1,8,0:1:0:0:
193,112,83056,6,0,P|183:189|269:259,1,188.999994232178,2|4,0:0|0:3,0:0:0:0:
382,295,83582,1,8,0:1:0:0:
257,347,83758,2,0,B|152:336|199:412|71:380,1,188.999994232178,2|4,0:0|0:3,0:0:0:0:
33,264,84284,2,0,P|26:209|42:160,1,94.499997116089,8|4,0:1|0:3,0:0:0:0:
197,119,84635,6,0,P|204:174|188:223,1,94.499997116089,2|4,0:0|0:3,0:0:0:0:
108,87,84986,1,8,0:1:0:0:
247,44,85161,2,0,B|348:34|322:109|446:94,1,188.999994232178,2|4,0:0|0:3,0:0:0:0:
503,40,85688,1,8,0:1:0:0:
386,172,85863,6,0,P|328:160|203:192,1,188.999994232178,2|4,0:0|0:3,0:0:0:0:
256,291,86389,1,8,0:1:0:0:
425,240,86565,2,0,P|458:200|397:93,1,188.999994232178,2|4,0:0|0:3,0:0:0:0:
304,170,87091,1,8,0:1:0:0:
344,254,87267,1,4,0:3:0:0:
265,100,87442,6,0,L|160:95,1,94.499997116089,2|2,0:0|0:0,0:0:0:0:
106,23,87793,1,8,0:1:0:0:
284,22,87968,2,0,P|326:48|280:177,1,188.999994232178,2|4,0:0|0:3,0:0:0:0:
215,205,88495,1,8,0:1:0:0:
309,316,88670,6,0,P|389:314|498:362,1,188.999994232178,2|4,0:0|0:3,0:0:0:0:
493,255,89196,1,8,0:1:0:0:
375,197,89372,2,0,P|289:235|195:235,1,188.999994232178,2|4,0:0|0:3,0:0:0:0:
102,170,89898,2,0,L|95:74,1,94.499997116089,8|4,0:1|0:3,0:0:0:0:
225,16,90249,5,8,0:1:0:0:
187,170,90424,1,8,0:1:0:0:
257,90,90600,1,2,0:0:0:0:
95,75,90775,2,0,P|47:93|5:219,1,170.999995433807,0|4,0:0|0:3,0:0:0:0:
113,299,91302,2,0,L|95:193,1,85.4999977169037,2|0,0:0|0:0,0:0:0:0:
161,167,91565,1,0,0:0:0:0:
161,167,91653,5,8,0:1:0:0:
192,334,91828,1,8,0:1:0:0:
301,225,92003,1,2,0:0:0:0:
429,315,92179,2,0,P|428:182|435:131,1,170.999995433807,0|0,3:0|3:0,0:0:0:0:
281,38,92705,5,0,0:0:0:0:
302,239,92881,1,0,3:0:0:0:
