osu file format v14

[General]
AudioFilename: audio.mp3
AudioLeadIn: 0
PreviewTime: 27881
Countdown: 0
SampleSet: Soft
StackLeniency: 0.7
Mode: 0
LetterboxInBreaks: 0
WidescreenStoryboard: 0

[Editor]
DistanceSpacing: 1
BeatDivisor: 4
GridSize: 8
TimelineZoom: 3.199999

[Metadata]
Title:Rising (feat. Casey Lee Williams) (TV Size)
TitleUnicode:Rising (feat. Casey Lee Williams) (TV Size)
Artist:Jeff Williams
ArtistUnicode:Jeff Williams
Creator:Nyantiaz
Version:Hard
Source:RWBY
Tags:volume six 6 sixth opening rooster teeth ruby rose blake belladonna weiss schnee yang xiao long english yellow red black white intro rock anime realy0_ browiec
BeatmapID:1866748
BeatmapSetID:893162

[Difficulty]
HPDrainRate:5
CircleSize:3.6
OverallDifficulty:6
ApproachRate:7.5
SliderMultiplier:1.65
SliderTickRate:1

[Events]
//Background and Video events
0,0,"okay.png",0,0
//Break Periods
//Storyboard Layer 0 (Background)
//Storyboard Layer 1 (Fail)
//Storyboard Layer 2 (Pass)
//Storyboard Layer 3 (Foreground)
//Storyboard Layer 4 (Overlay)
//Storyboard Sound Samples

[TimingPoints]
425,350.877192982456,4,2,1,40,1,0
4635,-95.2380952380952,4,2,1,70,0,0
6038,-100,4,2,1,60,0,0
11652,-125,4,2,1,45,0,0
22880,-105.263157894737,4,2,1,55,0,0
27968,-105.263157894737,4,2,1,25,0,0
28143,-105.263157894737,4,2,1,45,0,0
28319,-105.263157894737,4,2,1,65,0,0
28494,-90.9090909090909,4,2,1,75,0,0
31126,-100,4,2,1,65,0,0
42529,-105.263157894737,4,2,1,55,0,0
47968,-105.263157894737,4,2,1,60,0,0
53582,-111.111111111111,4,2,1,50,0,0
56389,-111.111111111111,4,2,1,60,0,0
57968,-111.111111111111,4,2,1,80,0,0
58670,-111.111111111111,4,2,1,70,0,0
59196,-100,4,2,1,75,0,1
81828,-105.263157894737,4,2,1,70,0,0
90249,-105.263157894737,4,2,1,60,0,0

[Colours]
Combo1 : 255,255,128
Combo2 : 255,0,0
Combo3 : 255,128,128
Combo4 : 0,255,255
Combo5 : 0,128,255
Combo6 : 192,192,192
Combo7 : 128,128,128
Combo8 : 255,255,0
SliderBorder : 255,127,127
SliderTrackOverride : 0,26,26

[HitObjects]
83,257,74,6,8,L|85:310,3,41.25,8|8|8|8,0:1|0:1|0:1|0:1,0:0:0:0:
86,339,425,5,4,0:0:0:0:
443,346,2881,2,0,L|450:254,1,82.5,0|4,0:0|0:3,0:0:0:0:
453,181,3232,5,8,0:1:0:0:
379,217,3407,1,8,0:1:0:0:
379,217,4635,6,0,P|339:200|311:160,1,86.6249973564149,8|4,0:1|0:3,0:0:0:0:
243,217,4986,2,0,P|225:177|232:128,1,86.6249973564149,8|4,0:1|0:3,0:0:0:0:
144,120,5337,2,0,P|158:78|196:48,1,86.6249973564149,8|4,0:1|0:3,0:0:0:0:
275,34,5688,1,8,0:1:0:0:
275,34,5775,1,8,0:1:0:0:
275,34,5863,1,8,0:1:0:0:
354,48,6039,6,0,L|363:142,1,82.5,4|2,0:0|0:0,0:0:0:0:
315,198,6389,1,8,0:1:0:0:
392,226,6565,2,0,P|356:267|243:234,1,165,2|4,0:0|0:3,0:0:0:0:
211,180,7091,1,8,0:1:0:0:
141,224,7267,6,0,B|153:281|153:281|141:331|141:331|161:387,1,165,2|4,0:0|3:0,0:0:0:0:
76,378,7793,1,8,0:1:0:0:
11,327,7968,2,0,P|45:246|17:148,1,165,2|4,0:0|0:3,0:0:0:0:
90,115,8495,2,0,L|173:105,1,82.5,8|2,0:1|0:0,0:0:0:0:
290,69,8846,6,0,P|269:27|217:5,2,82.5,12|2|4,0:1|0:0|0:3,0:0:0:0:
304,150,9372,2,0,P|360:103|456:116,1,165,8|4,0:1|0:3,0:0:0:0:
503,221,9898,1,12,0:1:0:0:
488,302,10074,6,0,L|302:305,1,165,2|8,0:0|0:1,0:0:0:0:
240,306,10600,1,4,0:3:0:0:
226,224,10775,2,0,L|135:221,1,82.5,4|8,0:3|0:1,0:0:0:0:
86,281,11126,1,4,0:3:0:0:
31,228,11302,1,4,0:3:0:0:
31,228,11389,1,4,0:3:0:0:
31,228,11477,1,4,0:3:0:0:
104,152,11653,6,0,P|124:90|103:28,1,132,4|0,0:0|0:0,0:0:0:0:
32,9,12179,1,0,0:0:0:0:
187,72,12530,2,0,B|266:62|242:123|335:102,1,132,0|0,0:0|0:0,0:0:0:0:
362,53,13056,6,0,P|383:94|335:179,1,132,4|0,0:3|0:0,0:0:0:0:
283,200,13582,1,0,0:0:0:0:
307,354,13933,1,0,0:0:0:0:
232,361,14109,2,0,P|178:361|146:338,1,66,0|0,0:0|0:0,0:0:0:0:
205,289,14460,6,0,L|45:263,1,132,4|0,0:3|0:0,0:0:0:0:
12,216,14986,1,0,0:0:0:0:
146,125,15337,2,0,P|168:70|244:51,1,132,0|0,0:0|0:0,0:0:0:0:
295,100,15863,6,0,P|291:132|298:165,1,66,4|0,0:3|0:0,0:0:0:0:
359,216,16214,1,0,0:0:0:0:
415,162,16389,2,0,L|431:87,2,66,4|0|0,0:3|0:0|0:0,0:0:0:0:
359,216,16916,2,0,L|392:275,1,66,0|0,3:0|0:0,0:0:0:0:
325,324,17267,6,0,B|253:354|253:354|197:329,1,132,4|0,0:3|0:0,0:0:0:0:
131,300,17793,1,0,0:0:0:0:
232,203,18144,2,0,L|201:341,1,132,0|0,0:0|0:0,0:0:0:0:
138,380,18670,6,0,P|85:366|54:285,1,132,4|0,0:3|0:0,0:0:0:0:
71,226,19196,1,0,0:0:0:0:
176,112,19547,2,0,P|225:128|312:93,1,132,0|0,0:0|0:0,0:0:0:0:
374,92,20074,6,0,L|389:250,1,132,4|0,0:3|0:0,0:0:0:0:
361,297,20600,1,0,0:0:0:0:
233,212,20951,2,0,L|147:219,2,66,0|0|0,0:0|0:0|0:0,0:0:0:0:
309,202,21477,6,0,L|340:121,1,66,4|0,0:3|0:0,0:0:0:0:
299,68,21828,1,0,0:0:0:0:
222,41,22003,2,0,B|148:29|189:82|73:74,1,132,4|0,0:3|0:0,0:0:0:0:
44,131,22530,2,0,P|54:172|47:205,1,66,0|0,0:0|0:0,0:0:0:0:
71,270,22881,6,0,L|159:261,1,78.3749979071618,4|0,0:3|0:0,0:0:0:0:
219,229,23232,1,2,0:0:0:0:
174,164,23407,1,4,0:3:0:0:
251,155,23582,2,0,L|340:149,1,78.3749979071618,0|0,0:0|0:0,0:0:0:0:
384,94,23933,2,0,P|389:55|373:10,1,78.3749979071618,2|0,0:0|0:0,0:0:0:0:
299,9,24284,6,0,L|220:14,1,78.3749979071618,4|0,0:3|0:0,0:0:0:0:
156,59,24635,1,2,0:0:0:0:
210,115,24810,1,4,0:3:0:0:
152,168,24986,2,0,B|143:192|143:192|157:254,1,78.3749979071618,0|0,0:0|0:0,0:0:0:0:
228,269,25337,2,0,B|237:293|237:293|225:344,1,78.3749979071618,2|0,0:0|0:0,0:0:0:0:
300,368,25688,6,0,L|384:355,1,78.3749979071618,4|0,0:3|0:0,0:0:0:0:
429,296,26039,1,2,0:0:0:0:
364,250,26214,1,4,0:3:0:0:
429,206,26389,2,0,L|416:118,1,78.3749979071618,0|0,0:0|0:0,0:0:0:0:
348,90,26740,2,0,P|311:110|262:101,1,78.3749979071618,2|0,0:0|0:0,0:0:0:0:
203,64,27091,6,0,L|190:141,1,78.3749979071618,4|0,0:3|0:0,0:0:0:0:
226,213,27442,2,0,L|238:290,1,78.3749979071618,2|4,0:0|0:3,0:0:0:0:
171,331,27793,1,2,0:0:0:0:
101,296,27968,1,8,0:1:0:0:
101,296,28056,1,8,0:1:0:0:
101,296,28144,2,8,L|52:304,3,39.1874989535809,8|8|8|8,0:1|0:1|0:1|0:1,0:0:0:0:
28,271,28495,6,0,L|12:181,1,90.7500027694703,4|4,0:0|0:3,0:0:0:0:
75,116,28846,1,4,0:3:0:0:
94,203,29020,1,0,0:0:0:0:
206,155,29196,2,0,P|244:97|187:-4,1,181.500005538941,4|4,0:0|0:3,0:0:0:0:
367,77,29898,6,0,P|323:152|363:230,1,181.500005538941,4|4,0:0|0:3,0:0:0:0:
453,232,30424,1,4,0:3:0:0:
512,129,30600,2,0,L|500:37,2,90.7500027694703,4|4|4,0:0|0:3|0:3,0:0:0:0:
453,232,31126,6,0,P|404:259|391:362,1,165,6|4,0:0|0:3,0:0:0:0:
307,372,31653,2,0,L|211:361,1,82.5,8|4,0:1|0:3,0:0:0:0:
151,326,32003,2,0,P|163:284|151:230,1,82.5,2|4,0:0|0:3,0:0:0:0:
97,189,32354,1,8,0:1:0:0:
156,131,32530,6,0,B|238:111|219:183|321:153,1,165,4|4,0:3|3:0,0:0:0:0:
386,115,33056,1,8,0:1:0:0:
346,42,33232,1,4,0:3:0:0:
428,32,33407,2,0,L|523:39,2,82.5,2|4|8,0:0|0:3|0:1,0:0:0:0:
304,38,33933,6,0,L|139:41,1,165,6|4,0:0|0:3,0:0:0:0:
65,79,34460,2,0,P|74:119|61:162,1,82.5,8|4,0:1|0:3,0:0:0:0:
68,240,34810,2,0,P|59:280|72:323,1,82.5,2|4,0:0|0:3,0:0:0:0:
135,369,35161,1,8,0:1:0:0:
135,369,35337,6,0,P|174:358|207:324,1,82.5,4|4,0:3|0:3,0:0:0:0:
196,246,35688,2,0,L|210:164,1,82.5,4|8,0:3|0:1,0:0:0:0:
301,164,36039,2,0,L|316:246,1,82.5,4|0,0:3|0:0,0:0:0:0:
388,286,36389,2,0,P|429:264|454:223,1,82.5,4|8,0:3|0:1,0:0:0:0:
402,120,36740,6,0,P|373:53|272:4,1,165,6|4,0:0|0:3,0:0:0:0:
229,57,37267,2,0,L|139:65,1,82.5,8|4,0:1|0:3,0:0:0:0:
93,127,37617,2,0,B|110:165|110:165|89:225,1,82.5,2|4,0:0|0:3,0:0:0:0:
138,275,37968,1,8,0:1:0:0:
229,191,38144,6,0,P|270:197|361:119,1,165,6|4,0:0|0:3,0:0:0:0:
362,40,38670,2,0,P|413:61|442:114,1,82.5,8|4,0:1|0:3,0:0:0:0:
512,71,39021,2,0,P|503:125|457:165,1,82.5,4|2,0:3|0:0,0:0:0:0:
477,228,39372,1,8,0:1:0:0:
411,333,39547,6,0,L|230:345,1,165,6|4,0:0|0:3,0:0:0:0:
171,381,40074,2,0,P|159:338|178:291,1,82.5,8|4,0:1|0:3,0:0:0:0:
233,251,40424,2,0,P|245:208|226:161,1,82.5,4|0,0:3|0:0,0:0:0:0:
180,110,40775,1,8,0:1:0:0:
119,165,40951,1,4,0:3:0:0:
44,129,41126,6,0,L|29:31,2,82.5,2|4|8,0:0|0:3|0:1,0:0:0:0:
119,165,41653,1,2,0:0:0:0:
180,110,41828,2,0,L|274:108,1,82.5,4|4,0:3|0:3,0:0:0:0:
332,66,42179,1,8,0:1:0:0:
332,66,42267,1,8,0:1:0:0:
332,66,42354,1,8,0:1:0:0:
444,123,42530,5,12,0:1:0:0:
353,361,43232,6,0,P|309:329|187:329,1,156.749995814324,4|0,0:0|0:0,0:0:0:0:
67,253,43933,2,0,P|64:198|-12:103,1,156.749995814324,4|0,0:0|0:0,0:0:0:0:
135,24,44635,2,0,P|205:44|315:19,1,156.749995814324,6|4,0:0|0:3,0:0:0:0:
402,6,45161,6,0,B|397:66|397:66|418:101|418:101|414:172,1,156.749995814324,4|0,0:0|0:0,0:0:0:0:
339,181,45688,1,2,0:0:0:0:
377,331,46039,2,0,P|446:321|483:237,1,156.749995814324,8|8,0:1|0:1,0:0:0:0:
457,176,46565,1,6,0:0:0:0:
223,104,47091,1,4,0:3:0:0:
108,213,47442,2,0,L|88:295,2,78.3749979071618,8|8|8,0:3|0:3|0:3,0:0:0:0:
150,103,47968,6,0,B|188:127|188:127|320:84,1,156.749995814324,4|4,0:0|0:3,0:0:0:0:
373,103,48495,2,0,P|392:137|384:205,1,78.3749979071618,8|4,0:1|0:3,0:0:0:0:
339,232,48846,2,0,P|341:270|360:304,1,78.3749979071618,2|4,0:0|0:3,0:0:0:0:
296,350,49196,1,8,0:1:0:0:
225,316,49372,6,0,L|58:302,1,156.749995814324,4|4,0:3|0:3,0:0:0:0:
30,233,49898,1,8,0:1:0:0:
85,177,50074,1,4,0:3:0:0:
27,123,50249,2,0,L|17:42,2,78.3749979071618,2|4|8,0:0|0:3|0:1,0:0:0:0:
114,202,50775,6,0,B|151:224|151:224|288:202,1,156.749995814324,4|4,0:0|0:3,0:0:0:0:
298,135,51302,2,0,L|280:49,1,78.3749979071618,8|4,0:1|0:3,0:0:0:0:
354,27,51653,2,0,P|398:18|440:29,1,78.3749979071618,2|4,0:0|0:3,0:0:0:0:
486,79,52003,1,8,0:1:0:0:
439,142,52179,6,0,L|442:227,1,78.3749979071618,2|4,0:0|0:3,0:0:0:0:
363,220,52530,2,0,L|366:305,1,78.3749979071618,4|8,0:3|0:1,0:0:0:0:
393,371,52881,2,0,P|333:370|300:337,1,78.3749979071618,4|2,0:3|0:0,0:0:0:0:
250,323,53232,1,8,0:1:0:0:
250,323,53319,1,8,0:1:0:0:
250,323,53407,1,8,0:1:0:0:
141,345,53582,6,0,L|125:184,1,148.49999546814,4|0,0:2|0:0,0:0:0:0:
171,137,54109,2,0,L|245:125,2,74.2499977340699,0|4|8,0:0|0:3|0:1,0:0:0:0:
26,169,54810,1,0,0:0:0:0:
54,237,54986,2,0,B|67:281|67:281|52:336,2,74.2499977340699,4|4|0,0:3|0:3|0:0,0:0:0:0:
202,237,55688,1,4,0:3:0:0:
252,291,55863,1,8,0:1:0:0:
313,332,56039,2,0,P|359:337|402:317,1,74.2499977340699,4|0,0:3|0:0,0:0:0:0:
476,265,56389,5,4,0:0:0:0:
332,102,56916,2,0,L|327:190,1,74.2499977340699,4|4,0:3|0:3,0:0:0:0:
254,190,57267,2,4,L|249:115,1,74.2499977340699,4|4,0:3|0:3,0:0:0:0:
177,99,57617,2,0,L|172:173,1,74.2499977340699,4|4,0:3|0:3,0:0:0:0:
122,228,57968,6,0,L|129:285,3,37.1249988670349,8|8|8|8,0:1|0:1|0:1|0:1,0:0:0:0:
155,288,58319,2,4,L|162:345,3,37.1249988670349,8|8|8|8,0:1|0:1|0:1|0:1,0:0:0:0:
125,339,58670,2,0,L|118:396,3,37.1249988670349,4|4|4|4,0:3|0:3|0:3|0:3,0:0:0:0:
83,380,59021,1,4,0:3:0:0:
13,277,59196,6,0,B|57:196|-21:180|28:107,1,165,6|0,0:0|3:2,0:0:0:0:
89,67,59723,2,0,P|129:59|188:68,1,82.5,8|0,3:1|3:2,0:0:0:0:
250,91,60074,2,0,P|255:131|243:189,1,82.5,8|0,3:1|0:0,0:0:0:0:
207,243,60424,1,8,0:1:0:0:
306,317,60600,6,0,L|483:301,1,165,6|0,3:2|3:0,0:0:0:0:
469,220,61126,2,0,P|468:182|450:129,1,82.5,8|0,0:1|3:2,0:0:0:0:
398,79,61477,1,8,0:1:0:0:
398,79,61565,1,8,0:1:0:0:
398,79,61653,2,8,L|346:84,3,41.25,8|8|8|8,0:1|0:1|0:1|0:1,0:0:0:0:
318,67,62003,6,0,L|145:78,1,165,4|0,0:0|3:2,0:0:0:0:
100,140,62530,2,0,P|89:183|94:224,1,82.5,8|0,3:1|3:2,0:0:0:0:
10,227,62881,2,0,P|26:268|54:298,1,82.5,2|0,3:2|3:2,0:0:0:0:
127,329,63232,2,0,L|223:337,1,82.5,8|0,3:1|3:2,0:0:0:0:
275,286,63582,5,2,3:2:0:0:
230,216,63758,1,0,3:2:0:0:
305,181,63933,2,0,L|395:175,1,82.5,8|4,3:1|3:3,0:0:0:0:
411,96,64284,2,0,P|417:53|399:17,2,82.5,2|4|4,3:2|0:3|0:3,0:0:0:0:
470,205,64810,6,0,P|455:265|516:345,1,165,4|0,0:0|3:2,0:0:0:0:
416,364,65337,2,0,L|315:367,1,82.5,8|0,0:1|3:2,0:0:0:0:
255,338,65688,2,0,B|276:314|276:314|272:247,1,82.5,8|0,3:1|0:0,0:0:0:0:
204,216,66039,1,8,0:1:0:0:
93,161,66214,6,0,P|114:119|229:112,1,165,4|0,3:2|3:2,0:0:0:0:
284,162,66740,1,8,3:1:0:0:
360,131,66916,1,0,3:2:0:0:
435,180,67091,1,8,0:1:0:0:
435,180,67179,1,8,0:1:0:0:
435,180,67267,2,0,L|429:229,3,41.25,8|8|8|8,0:1|0:1|0:1|0:1,0:0:0:0:
398,245,67617,6,0,P|350:256|244:193,1,165,4|0,0:0|3:2,0:0:0:0:
196,143,68144,2,0,L|166:47,1,82.5,8|0,3:1|3:2,0:0:0:0:
105,14,68495,2,0,L|80:92,1,82.5,2|0,3:2|3:2,0:0:0:0:
96,173,68846,1,8,3:1:0:0:
33,227,69021,1,0,3:2:0:0:
92,283,69196,5,2,3:2:0:0:
168,251,69372,2,0,L|257:244,1,82.5,0|8,3:2|3:1,0:0:0:0:
332,238,69723,2,0,P|314:197|266:162,1,82.5,0|2,3:2|3:2,0:0:0:0:
224,110,70074,1,4,0:3:0:0:
224,110,70161,1,4,0:3:0:0:
224,110,70249,1,4,0:3:0:0:
312,23,70424,6,0,B|404:15|378:65|496:43,1,165,4|0,0:0|3:2,0:0:0:0:
492,127,70951,2,0,P|501:166|485:212,1,82.5,8|0,3:1|3:2,0:0:0:0:
407,219,71302,2,0,P|398:258|414:304,1,82.5,2|0,3:2|3:2,0:0:0:0:
453,368,71653,1,8,3:1:0:0:
371,376,71828,6,0,L|196:340,1,165,2|0,3:2|3:2,0:0:0:0:
127,355,72354,1,8,3:1:0:0:
53,312,72530,1,0,3:2:0:0:
96,241,72705,2,0,L|90:150,2,82.5,2|0|8,3:2|3:2|3:1,0:0:0:0:
214,277,73232,6,0,B|269:286|269:286|387:243,1,165,4|0,0:0|3:2,0:0:0:0:
366,166,73758,1,8,3:1:0:0:
414,98,73933,2,0,P|369:83|280:165,1,165,2|2,3:2|3:2,0:0:0:0:
366,166,74460,1,8,3:1:0:0:
424,224,74635,6,0,L|430:310,1,82.5,2|0,3:2|0:0,0:0:0:0:
357,345,74986,2,0,P|316:354|270:339,1,82.5,0|8,3:2|3:1,0:0:0:0:
212,293,75337,2,0,B|147:220|226:216|140:140,1,165,2|2,3:2|3:2,0:0:0:0:
68,123,75863,1,8,3:1:0:0:
155,35,76039,6,0,B|233:21|228:76|332:55,1,165,6|2,0:0|0:0,0:0:0:0:
390,24,76565,1,8,0:1:0:0:
471,38,76741,2,0,P|475:78|491:116,1,82.5,2|0,0:0|0:0,0:0:0:0:
497,199,77092,2,0,P|492:239|476:277,1,82.5,2|8,0:0|0:1,0:0:0:0:
394,261,77442,6,0,L|201:268,1,165,2|2,0:0|0:0,0:0:0:0:
167,211,77968,1,8,0:1:0:0:
84,217,78144,1,2,0:0:0:0:
25,159,78319,2,0,B|17:132|17:132|30:68,2,82.5,2|2|8,0:0|0:0|0:1,0:0:0:0:
84,217,78846,1,4,0:3:0:0:
137,279,79021,6,0,L|206:348,1,82.5,4|0,0:3|0:0,0:0:0:0:
273,364,79372,2,0,P|288:329|278:271,1,82.5,8|0,0:3|0:0,0:0:0:0:
265,205,79723,2,0,L|354:189,2,82.5,4|0|4,0:3|0:0|0:3,0:0:0:0:
187,176,80249,1,8,0:1:0:0:
177,94,80424,6,0,L|75:101,1,82.5,4|8,0:3|0:1,0:0:0:0:
28,147,80775,2,0,P|51:193|38:242,1,82.5,4|8,0:3|0:1,0:0:0:0:
20,300,81126,2,4,L|7:358,3,41.25,4|4|4|4,0:3|0:3|0:3|0:3,0:0:0:0:
52,344,81477,2,4,L|65:402,3,41.25,4|4|4|4,0:3|0:3|0:3|0:3,0:0:0:0:
98,370,81828,6,0,P|137:384|181:381,1,78.3749979071618,4|2,0:0|0:0,0:0:0:0:
221,320,82179,1,8,0:1:0:0:
206,243,82354,2,0,P|198:199|278:101,1,156.749995814324,2|4,0:0|0:3,0:0:0:0:
314,57,82881,1,8,0:1:0:0:
392,61,83056,6,0,B|389:126|389:126|406:151|406:151|407:220,1,156.749995814324,2|4,0:0|0:3,0:0:0:0:
407,291,83582,1,8,0:1:0:0:
334,259,83758,2,0,P|289:257|192:342,1,156.749995814324,2|4,0:0|0:3,0:0:0:0:
126,343,84284,2,0,L|26:328,1,78.3749979071618,8|4,0:1|0:3,0:0:0:0:
19,258,84635,6,0,L|24:175,1,78.3749979071618,2|4,0:0|0:3,0:0:0:0:
63,111,84986,1,8,0:1:0:0:
107,175,85161,2,0,P|151:200|276:162,1,156.749995814324,2|4,0:0|0:3,0:0:0:0:
311,133,85688,1,8,0:1:0:0:
360,71,85863,6,0,P|388:115|334:211,1,156.749995814324,2|4,0:0|0:3,0:0:0:0:
311,133,86389,1,8,0:1:0:0:
254,78,86565,1,2,0:0:0:0:
179,104,86740,2,0,L|88:111,2,78.3749979071618,0|4|8,0:0|0:3|0:1,0:0:0:0:
236,157,87267,1,4,0:3:0:0:
195,224,87442,6,0,B|188:262|188:262|207:323,1,78.3749979071618,2|2,0:0|0:0,0:0:0:0:
256,353,87793,1,8,0:1:0:0:
312,299,87968,2,0,B|324:262|324:262|317:224,1,78.3749979071618,2|0,0:0|0:0,0:0:0:0:
299,147,88319,1,4,0:3:0:0:
344,83,88495,1,8,0:1:0:0:
411,123,88670,6,0,P|422:79|343:5,1,156.749995814324,2|4,0:0|0:3,0:0:0:0:
344,83,89196,1,8,0:1:0:0:
274,118,89372,2,0,P|202:137|109:99,1,156.749995814324,2|4,0:0|0:3,0:0:0:0:
61,66,89898,2,0,P|45:117|69:168,1,78.3749979071618,8|4,0:1|0:3,0:0:0:0:
89,208,90249,6,0,L|78:289,1,78.3749979071618,8|8,0:1|0:1,0:0:0:0:
132,342,90600,1,2,0:0:0:0:
202,308,90775,2,0,L|373:296,1,156.749995814324,0|4,0:0|0:3,0:0:0:0:
419,247,91302,2,0,P|427:211|415:173,1,78.3749979071618,2|0,0:0|0:0,0:0:0:0:
392,139,91565,1,0,0:0:0:0:
392,139,91653,5,8,0:1:0:0:
343,204,91828,1,8,0:1:0:0:
275,243,92003,1,2,0:0:0:0:
197,255,92179,2,0,P|114:246|73:162,1,156.749995814324,0|0,3:0|3:0,0:0:0:0:
81,111,92705,1,0,0:0:0:0:
81,111,92881,1,0,3:0:0:0:
