osu file format v14

[General]
AudioFilename: Red Like Roses Part I II Complete.mp3
AudioLeadIn: 0
PreviewTime: 342873
Countdown: 0
SampleSet: Soft
StackLeniency: 0.7
Mode: 0
LetterboxInBreaks: 1
WidescreenStoryboard: 0

[Editor]
Bookmarks: 123597,187721
DistanceSpacing: 1.8
BeatDivisor: 4
GridSize: 4
TimelineZoom: 2.4

[Metadata]
Title:Red Like Roses part I & II
TitleUnicode:Red Like Roses part I & II
Artist:Jeff Williams
ArtistUnicode:Jeff Williams
Creator:Kotayo
Version:Rose
Source:RWBY
Tags:rooster teeth, casey lee williams, ruby rose, "red" trailer, ed, ending
BeatmapID:326864
BeatmapSetID:129314

[Difficulty]
HPDrainRate:5
CircleSize:4
OverallDifficulty:9
ApproachRate:9.8
SliderMultiplier:1.9
SliderTickRate:1

[Events]
//Background and Video events
0,0,"rwby.jpg",0,0
//Break Periods
2,161458,164188
2,187912,196226
//Storyboard Layer 0 (Background)
//Storyboard Layer 1 (Fail)
//Storyboard Layer 2 (Pass)
//Storyboard Layer 3 (Foreground)
//Storyboard Sound Samples

[TimingPoints]
297,428.571428571429,4,2,1,35,1,0
297,-133.333333333333,4,2,1,35,0,0
20868,-133.333333333333,4,2,1,35,0,0
21725,-133.333333333333,4,2,1,35,0,0
27725,-200,4,2,1,35,0,0
65439,-100,4,2,1,70,0,0
74996,300,6,2,1,70,1,0
74996,-153.846153846154,6,2,1,70,0,0
80396,295.566502463054,6,2,1,70,1,0
80396,-153.846153846154,6,2,1,70,0,0
81578,307.692307692308,6,2,1,70,1,0
82183,300,6,2,1,70,1,0
82183,-153.846153846154,6,2,1,70,0,0
87593,297.029702970297,6,2,1,70,1,0
87593,-153.846153846154,6,2,1,70,0,0
88781,303.030303030303,6,2,1,70,1,0
88781,-153.846153846154,6,2,1,70,0,0
89387,300,6,2,1,70,1,0
89387,-153.846153846154,6,2,1,70,0,0
96587,295.566502463054,6,2,1,70,1,0
96587,-153.846153846154,6,2,1,70,0,0
97769,304.568527918782,6,2,1,70,1,0
98378,303.030303030303,6,2,1,70,1,0
98378,-153.846153846154,6,2,1,70,0,0
103832,300,6,2,1,70,1,0
103832,-153.846153846154,6,2,1,70,0,0
105632,297.766749379653,6,2,1,70,1,0
105632,-153.846153846154,6,2,1,70,0,0
109205,300,6,2,1,70,1,0
109205,-153.846153846154,6,2,1,70,0,0
147005,326.086956521739,3,2,1,100,1,0
147983,300,3,2,1,100,1,0
148883,314.13612565445,3,2,1,100,1,0
150767,331.491712707182,3,2,1,100,1,0
151761,322.58064516129,3,2,1,100,1,0
153696,327.868852459016,3,2,1,100,1,0
154679,375,3,2,1,100,1,0
155804,340.909090909091,3,2,1,100,1,0
164667,361.44578313253,4,2,1,100,1,0
164667,-100,4,2,1,10,0,0
166046,-100,6,2,1,70,0,0
166112,300,4,2,1,100,1,0
166112,-100,4,2,1,70,0,1
187723,285.714285714286,4,2,1,70,1,0
187723,-100,4,2,1,70,0,0
196705,285.714285714286,4,2,1,70,1,0
214976,285.714285714286,4,2,1,70,1,0
214976,-83.3333333333333,4,2,1,70,0,0
215118,285.714285714286,4,2,1,70,1,0
215118,-83.3333333333333,4,2,1,70,0,0
342975,-83.3333333333333,4,2,1,70,0,1
361260,-83.3333333333333,4,2,1,70,0,0
425260,-83.3333333333333,4,2,1,70,0,1
443976,-125,4,2,1,70,0,0
470975,-83.3333333333333,4,2,1,70,0,0
470976,-83.3333333333333,4,2,1,70,0,1
495689,-83.3333333333333,4,2,1,70,0,0
498403,-83.3333333333333,4,2,1,70,0,1
517689,-83.3333333333333,4,2,1,70,0,0
517975,-83.3333333333333,4,2,1,10,0,0

[Colours]
Combo1 : 104,71,237
Combo2 : 213,0,5
Combo3 : 250,155,86
Combo4 : 131,188,207

[HitObjects]
144,76,297,6,0,P|152:160|212:208,1,142.500005435944,4|2,0:0|0:0,0:0:0:0:
368,76,1154,2,0,P|360:160|300:208,1,142.500005435944,0|2,0:0|0:0,0:0:0:0:
184,300,2011,2,0,L|344:300,1,142.500005435944,0|2,0:0|0:0,0:0:0:0:
300,140,2868,5,0,0:0:0:0:
184,140,3082,1,0,0:0:0:0:
256,36,3297,5,0,0:0:0:0:
372,36,3511,1,0,0:0:0:0:
416,144,3725,6,0,P|376:232|320:256,1,142.500005435944,4|2,0:0|0:0,0:0:0:0:
216,264,4582,2,0,L|325:382,1,142.500005435944,0|2,0:0|0:0,0:0:0:0:
416,272,5439,2,0,P|404:212|324:176,1,142.500005435944,0|2,0:0|0:0,0:0:0:0:
216,264,6297,5,0,0:0:0:0:
164,152,6511,1,0,0:0:0:0:
88,240,6725,5,2,0:0:0:0:
164,152,6939,1,0,0:0:0:0:
80,48,7154,5,2,0:0:0:0:
268,100,7582,1,4,0:0:0:0:
212,288,8011,2,0,P|300:292|352:256,1,142.500005435944,0|2,0:0|0:0,0:0:0:0:
228,12,8868,1,0,0:0:0:0:
272,200,9297,1,2,0:0:0:0:
88,160,9725,6,0,P|80:204|88:232,1,71.2500027179719
228,356,10154,1,2,0:0:0:0:
344,280,10368,1,0,0:0:0:0:
444,336,10582,5,0,0:0:0:0:
344,176,11011,1,2,0:0:0:0:
176,264,11439,2,0,P|144:192|160:128,1,142.500005435944,0|2,0:0|0:0,0:0:0:0:
276,56,12297,2,0,P|284:124|236:188,1,142.500005435944,0|2,0:0|0:0,0:0:0:0:
160,96,14011,5,4,0:0:0:0:
208,324,14439,1,2,0:0:0:0:
432,262,14868,1,0,0:0:0:0:
384,33,15297,1,2,0:0:0:0:
187,156,15725,1,0,0:0:0:0:
350,323,16154,1,2,0:0:0:0:
350,323,16582,5,4,0:0:0:0:
246,375,16797,1,0,0:0:0:0:
174,283,17011,1,2,0:0:0:0:
66,327,17225,1,0,0:0:0:0:
92,200,17439,6,0,L|250:137,1,142.500005435944,0|2,0:0|0:0,0:0:0:0:
420,184,18297,2,0,L|262:247,1,142.500005435944,0|2,0:0|0:0,0:0:0:0:
40,332,19154,1,0,0:0:0:0:
140,144,19582,1,2,0:0:0:0:
140,144,20011,5,4,0:0:0:0:
220,60,20225,1,0,0:0:0:0:
140,144,20439,1,2,0:0:0:0:
220,228,20654,1,0,0:0:0:0:
296,144,20868,6,0,P|336:72|312:0,1,142.500005435944,0|2,0:0|0:0,0:0:0:0:
64,136,21725,2,0,P|120:192|204:196,1,142.500005435944,0|2,0:0|0:0,0:0:0:0:
448,200,22582,2,0,P|392:256|308:260,1,142.500005435944,0|2,0:0|0:0,0:0:0:0:
104,268,23439,5,0,0:0:0:0:
104,268,23653,1,0,0:0:0:0:
192,342,23867,1,2,0:0:0:0:
192,342,24082,1,0,0:0:0:0:
204,188,24296,6,0,L|216:40,1,142.500005435944,0|2,0:0|0:0,0:0:0:0:
412,124,25154,2,0,L|400:272,1,142.500005435944,0|2,0:0|0:0,0:0:0:0:
336,64,26010,1,4,0:0:0:0:
140,44,27725,6,0,P|96:88|85:177,1,142.5,4|0,0:0|0:0,0:0:0:0:
184,139,28582,2,0,P|219:160|258:212,1,95,0|2,0:0|0:0,0:0:0:0:
299,296,29225,1,0,0:0:0:0:
402,277,29439,2,0,P|422:218|400:136,1,142.5
326,70,30296,2,0,L|239:18,1,95,0|2,0:0|0:0,0:0:0:0:
140,33,30939,1,0,0:0:0:0:
168,132,31153,6,0,P|170:183|132:274,1,142.5,4|0,0:0|0:0,0:0:0:0:
68,332,32010,2,0,P|103:356|168:348,1,95,0|2,0:0|0:0,0:0:0:0:
256,296,32653,1,0,0:0:0:0:
364,352,32867,6,0,P|376:280|344:216,1,142.5
280,168,33725,2,0,B|248:144|212:144|212:144|244:128|264:92,1,142.5
337,42,34582,6,0,P|360:95|420:157,1,142.5,4|0,0:0|0:0,0:0:0:0:
472,256,35439,2,0,P|467:301|435:338,2,95,0|2|0,0:0|0:0|0:0,0:0:0:0:
256,336,36725,1,2,0:0:0:0:
44,256,37154,2,0,P|49:301|81:338,1,95,0|2,0:0|0:0,0:0:0:0:
129,101,38010,6,0,P|199:102|256:144,1,142.5
335,199,38867,2,0,P|350:131|315:70,1,142.5
235,23,39725,1,4,0:0:0:0:
35,148,40582,1,4,0:0:0:0:
76,240,41439,6,0,P|128:192|128:120,1,142.5,4|2,0:0|0:0,0:0:0:0:
228,164,42297,2,0,P|264:176|288:176,1,47.5
392,176,42725,2,0,P|375:221|365:232,1,47.5,2|0,0:0|0:0,0:0:0:0:
292,331,43153,6,0,P|250:334|157:293,1,142.5,4|0,0:0|0:0,0:0:0:0:
243,232,44010,2,0,P|279:212|291:191,1,47.5
315,108,44439,2,0,P|270:93|263:86,1,47.5,2|0,0:0|0:0,0:0:0:0:
173,58,44867,6,0,P|164:120|145:159,2,95,4|2|0,0:0|0:0|0:0,0:0:0:0:
272,22,45939,1,0,0:0:0:0:
370,58,46153,2,0,P|398:91|401:107,1,47.5,2|0,0:0|0:0,0:0:0:0:
376,176,46582,6,0,B|328:208|328:208|280:176|232:188,1,142.5,4|0,0:0|0:0,0:0:0:0:
124,268,47439,2,0,B|172:300|172:300|220:268|268:280,1,142.5,4|0,0:0|0:0,0:0:0:0:
386,279,48296,6,0,P|392:336|373:374,2,95,4|2|0,0:0|0:0|0:0,0:0:0:0:
386,279,50010,2,0,P|374:182|431:95,1,190,4|0,0:0|0:0,0:0:0:0:
217,48,51296,5,2,0:0:0:0:
217,48,51725,2,0,P|170:105|160:138,1,95,0|2,0:0|0:0,0:0:0:0:
82,317,52582,2,0,P|144:307|182:282,1,95,0|2,0:0|0:0,0:0:0:0:
311,136,53439,2,0,P|348:178|352:309,1,190,4|0,0:0|0:0,0:0:0:0:
155,233,54725,5,2,0:0:0:0:
155,233,54939,1,0,0:0:0:0:
155,233,55153,2,0,P|193:271|242:284,1,95,4|2,0:0|0:0,0:0:0:0:
368,276,56011,2,0,B|440:276|404:216|488:216,1,142.5
368,180,56867,2,0,P|314:159|285:129,1,95,0|2,0:0|0:0,0:0:0:0:
224,40,57510,1,0,0:0:0:0:
151,183,57725,2,0,P|131:142|137:88,1,95,0|2,0:0|0:0,0:0:0:0:
224,40,58367,1,0,0:0:0:0:
80,240,58582,6,0,P|112:268|168:276,1,95,0|2,0:0|0:0,0:0:0:0:
276,232,59225,1,0,0:0:0:0:
368,300,59439,2,0,P|392:324|400:348,1,47.5
456,248,59868,2,0,P|468:220|488:200,1,47.5
420,148,60296,6,0,P|404:104|363:78,2,95,4|2|0,0:0|0:0|0:0,0:0:0:0:
328,160,61368,2,0,P|288:164|268:172,1,47.5
184,212,61796,1,0,0:0:0:0:
72,128,62010,6,0,P|52:78|62:37,2,95,4|2|0,0:0|0:0|0:0,0:0:0:0:
324,164,63296,2,0,P|326:194|320:223,1,47.5,2|0,0:0|0:0,0:0:0:0:
276,328,63725,2,0,P|238:303|216:256,1,95,4|2,0:0|0:0,0:0:0:0:
276,56,64582,2,0,P|238:81|216:128,1,95,4|2,0:0|0:0,0:0:0:0:
256,192,65439,12,0,68225,0:0:0:0:
256,192,68867,12,0,72082,0:0:0:0:
288,280,74996,6,0,P|344:256|380:196,1,123.499994346619,4|0,0:0|0:0,0:0:0:0:
400,136,75446,1,8,0:0:0:0:
236,36,75746,1,0,0:0:0:0:
244,132,75896,2,0,P|164:128|112:92,1,123.499994346619
4,12,76496,1,0,0:0:0:0:
260,44,76796,6,0,P|320:88|336:152,1,123.499994346619
324,212,77246,1,8,0:0:0:0:
212,316,77546,1,0,0:0:0:0:
212,316,77696,2,0,P|144:288|104:248,2,123.499994346619,0|0|4,0:0|0:0|0:0,0:0:0:0:
364,300,78596,5,0,0:0:0:0:
396,232,78746,1,0,0:0:0:0:
364,164,78896,1,0,0:0:0:0:
404,100,79046,1,8,0:0:0:0:
352,48,79196,1,0,0:0:0:0:
444,168,79496,5,0,0:0:0:0:
332,148,79796,1,0,0:0:0:0:
264,180,79946,1,8,0:0:0:0:
204,132,80096,1,0,0:0:0:0:
264,180,80246,1,0,0:0:0:0:
232,248,80396,2,0,P|176:248|124:208,1,123.499994346619
44,204,80839,5,8,0:0:0:0:
84,288,80987,1,0,0:0:0:0:
144,244,81134,1,0,0:0:0:0:
192,184,81282,2,0,P|200:136|160:72,2,123.499994346619,0|0|4,0:0|0:0|0:0,0:0:0:0:
336,140,82193,6,0,P|308:96|240:52,1,123.499994346619
172,48,82633,1,8,0:0:0:0:
56,148,82933,1,0,0:0:0:0:
112,200,83083,2,0,P|164:200|236:248,1,123.499994346619
364,308,83683,5,0,0:0:0:0:
364,308,83833,1,0,0:0:0:0:
440,296,83983,1,0,0:0:0:0:
396,152,84283,2,0,L|340:104,1,61.7499971733095,0|8,0:0|0:0,0:0:0:0:
284,156,84583,2,0,L|236:108,1,61.7499971733095
164,92,84883,5,0,0:0:0:0:
24,36,85183,1,0,0:0:0:0:
44,188,85483,1,0,0:0:0:0:
160,288,85783,1,0,0:0:0:0:
160,288,85933,2,0,P|252:316|300:320,1,123.499994346619,0|12,0:0|0:0,0:0:0:0:
432,292,86533,6,0,P|432:240|424:224,1,61.7499971733095
392,168,86833,1,0,0:0:0:0:
316,176,86983,1,0,0:0:0:0:
292,104,87133,1,8,0:0:0:0:
220,124,87283,1,0,0:0:0:0:
176,64,87433,1,0,0:0:0:0:
112,104,87583,2,0,P|108:144|120:160,1,61.7499971733095
152,184,87815,1,0,0:0:0:0:
184,204,87890,1,0,0:0:0:0:
228,264,88038,5,8,0:0:0:0:
228,264,88187,1,0,0:0:0:0:
208,336,88335,2,0,L|148:320,1,61.7499971733095,4|0,0:0|0:0,0:0:0:0:
456,244,88781,1,0,0:0:0:0:
412,180,88932,1,8,0:0:0:0:
352,132,89084,2,0,L|380:72,1,61.7499971733095
320,200,89387,1,4,0:0:0:0:
36,324,89837,5,8,0:0:0:0:
36,324,90137,2,0,L|104:344,1,61.7499971733095
172,340,90437,2,0,L|244:312,1,61.7499971733095
308,320,90737,2,0,L|372:344,1,61.7499971733095,8|4,0:0|0:0,0:0:0:0:
104,184,91187,1,0,0:0:0:0:
404,72,91637,5,8,0:0:0:0:
416,224,91937,1,0,0:0:0:0:
416,224,92087,2,0,L|352:192,1,61.7499971733095
288,164,92387,2,0,L|224:132,1,61.7499971733095,0|8,0:0|0:0,0:0:0:0:
164,100,92687,1,4,0:0:0:0:
40,12,92987,6,0,L|172:28,1,123.499994346619
232,64,93437,1,8,0:0:0:0:
132,180,93737,1,0,0:0:0:0:
56,180,93887,2,0,P|80:240|144:256,1,123.499994346619
288,252,94487,1,0,0:0:0:0:
288,252,94787,5,0,0:0:0:0:
160,332,95087,1,0,0:0:0:0:
192,264,95237,1,8,0:0:0:0:
224,196,95387,1,0,0:0:0:0:
256,128,95537,1,0,0:0:0:0:
292,60,95687,5,0,0:0:0:0:
216,64,95837,2,0,P|184:104|180:124,1,61.7499971733095
332,124,96137,2,0,P|324:160|304:180,1,61.7499971733095,8|4,0:0|0:0,0:0:0:0:
44,308,96587,5,0,0:0:0:0:
364,176,96882,1,0,0:0:0:0:
420,349,97030,1,8,0:0:0:0:
272,242,97178,1,0,0:0:0:0:
455,242,97325,1,0,0:0:0:0:
307,349,97473,1,0,0:0:0:0:
172,276,97769,1,0,0:0:0:0:
68,164,98073,1,0,0:0:0:0:
272,64,98681,6,0,B|232:172|232:172|296:236|284:304,1,246.999988693238,4|0,0:0|0:0,0:0:0:0:
124,280,99590,1,0,0:0:0:0:
96,132,99893,1,0,0:0:0:0:
96,132,100499,6,0,L|152:104,1,61.7499971733095,0|8,0:0|0:0,0:0:0:0:
208,156,100802,1,0,0:0:0:0:
144,200,100953,1,0,0:0:0:0:
208,240,101105,2,0,L|320:176,1,123.499994346619
384,140,101559,1,8,0:0:0:0:
444,92,101711,1,0,0:0:0:0:
384,140,101862,1,0,0:0:0:0:
444,92,102014,1,0,0:0:0:0:
464,244,102317,6,0,L|400:280,1,61.7499971733095,4|8,0:0|0:0,0:0:0:0:
188,300,102771,1,0,0:0:0:0:
140,236,102923,1,0,0:0:0:0:
188,176,103074,1,0,0:0:0:0:
140,116,103226,1,0,0:0:0:0:
140,116,103378,1,8,0:0:0:0:
188,176,103529,1,0,0:0:0:0:
140,236,103681,1,0,0:0:0:0:
188,300,103832,6,0,P|244:324|364:296,1,185.249991519928,4|8,0:0|0:0,0:0:0:0:
352,72,104582,1,0,0:0:0:0:
239,52,104732,1,0,0:0:0:0:
40,163,105032,1,0,0:0:0:0:
162,127,105332,1,0,0:0:0:0:
172,156,105407,1,0,0:0:0:0:
172,187,105482,1,0,0:0:0:0:
167,218,105557,1,0,0:0:0:0:
152,245,105632,6,0,P|152:303|268:328,1,185.249991519928,4|8,0:0|0:0,0:0:0:0:
423,179,106376,2,0,L|364:136,1,61.7499971733095
155,65,106823,1,0,0:0:0:0:
155,65,106971,1,8,0:0:0:0:
235,145,107120,1,0,0:0:0:0:
322,218,107269,1,0,0:0:0:0:
155,65,107418,5,4,0:0:0:0:
359,339,107865,1,8,0:0:0:0:
132,311,108163,1,0,0:0:0:0:
132,311,108311,2,0,L|100:248,1,61.7499971733095
79,143,108609,1,0,0:0:0:0:
175,204,108758,1,8,0:0:0:0:
167,90,108907,5,0,0:0:0:0:
198,91,108981,1,0,0:0:0:0:
227,102,109056,1,0,0:0:0:0:
250,123,109130,1,0,0:0:0:0:
264,151,109205,1,4,0:0:0:0:
264,151,109655,5,8,0:0:0:0:
56,244,109955,1,0,0:0:0:0:
164,280,110105,1,0,0:0:0:0:
280,84,110405,1,0,0:0:0:0:
388,116,110555,1,8,0:0:0:0:
444,216,110705,1,0,0:0:0:0:
444,248,110780,1,0,0:0:0:0:
432,276,110855,1,0,0:0:0:0:
160,160,111005,5,4,0:0:0:0:
316,328,111305,1,0,0:0:0:0:
280,220,111455,1,8,0:0:0:0:
384,172,111605,1,0,0:0:0:0:
304,92,111755,1,0,0:0:0:0:
196,60,111905,1,0,0:0:0:0:
84,260,112205,5,0,0:0:0:0:
196,288,112359,1,8,0:0:0:0:
132,196,112505,1,0,0:0:0:0:
116,168,112580,1,0,0:0:0:0:
112,136,112655,1,0,0:0:0:0:
128,108,112730,1,0,0:0:0:0:
148,84,112805,6,0,L|208:52,1,61.7499971733095
320,64,113105,2,0,L|384:84,1,61.7499971733095,0|8,0:0|0:0,0:0:0:0:
440,180,113405,1,0,0:0:0:0:
324,180,113555,2,0,L|268:212,1,61.7499971733095
368,264,113855,1,0,0:0:0:0:
268,368,114005,1,0,0:0:0:0:
368,264,114155,1,8,0:0:0:0:
140,232,114305,5,0,0:0:0:0:
388,128,114455,1,0,0:0:0:0:
128,56,114605,5,0,0:0:0:0:
108,80,114680,1,0,0:0:0:0:
96,108,114755,1,0,0:0:0:0:
92,140,114830,1,0,0:0:0:0:
92,172,114905,1,0,0:0:0:0:
104,284,115055,1,12,0:0:0:0:
324,336,115355,5,0,0:0:0:0:
228,276,115505,1,0,0:0:0:0:
328,220,115655,1,0,0:0:0:0:
348,108,115805,1,0,0:0:0:0:
348,108,115880,1,0,0:0:0:0:
348,108,115955,1,8,0:0:0:0:
232,104,116105,1,0,0:0:0:0:
120,100,116255,1,0,0:0:0:0:
348,108,116405,5,4,0:0:0:0:
440,316,116705,1,0,0:0:0:0:
368,228,116855,1,8,0:0:0:0:
276,292,117005,2,0,L|216:312,1,61.7499971733095
108,276,117305,5,0,0:0:0:0:
96,248,117380,1,0,0:0:0:0:
88,216,117455,1,0,0:0:0:0:
84,184,117530,1,0,0:0:0:0:
88,152,117605,1,0,0:0:0:0:
100,120,117680,1,0,0:0:0:0:
120,100,117755,1,8,0:0:0:0:
144,80,117830,1,0,0:0:0:0:
168,60,117905,1,0,0:0:0:0:
200,48,117980,1,0,0:0:0:0:
232,40,118055,1,0,0:0:0:0:
264,36,118130,1,0,0:0:0:0:
296,40,118205,5,4,0:0:0:0:
392,204,118505,1,0,0:0:0:0:
300,176,118655,1,8,0:0:0:0:
216,216,118805,1,0,0:0:0:0:
132,172,118955,1,0,0:0:0:0:
132,172,119105,1,0,0:0:0:0:
284,60,119405,2,0,P|312:24|340:16,1,61.7499971733095,0|8,0:0|0:0,0:0:0:0:
360,96,119705,2,0,P|384:120|396:148,1,61.7499971733095
52,304,120005,5,4,0:0:0:0:
52,304,120305,1,0,0:0:0:0:
148,304,120455,1,8,0:0:0:0:
244,304,120605,1,0,0:0:0:0:
340,304,120755,1,0,0:0:0:0:
436,304,120905,1,0,0:0:0:0:
436,304,121055,1,0,0:0:0:0:
340,304,121205,1,0,0:0:0:0:
244,304,121355,1,8,0:0:0:0:
148,304,121505,1,0,0:0:0:0:
52,304,121655,1,0,0:0:0:0:
52,56,121805,5,4,0:0:0:0:
168,208,122105,1,0,0:0:0:0:
308,80,122255,1,8,0:0:0:0:
308,208,122405,1,0,0:0:0:0:
168,80,122555,1,0,0:0:0:0:
100,144,122705,2,0,P|76:192|96:260,1,123.499994346619
164,324,123155,2,0,L|236:336,1,61.7499971733095,8|0,0:0|0:0,0:0:0:0:
320,320,123455,1,0,0:0:0:0:
496,88,123605,5,4,0:0:0:0:
12,280,123905,1,4,0:0:0:0:
504,336,124205,1,4,0:0:0:0:
16,64,124505,1,4,0:0:0:0:
508,160,124805,1,4,0:0:0:0:
4,356,125105,1,4,0:0:0:0:
504,48,125405,1,4,0:0:0:0:
364,176,125705,5,0,0:0:0:0:
352,272,125855,1,8,0:0:0:0:
272,220,126005,1,0,0:0:0:0:
256,312,126155,1,0,0:0:0:0:
180,256,126305,2,0,P|168:212|204:136,1,123.499994346619
288,108,126755,1,8,0:0:0:0:
372,64,126905,1,0,0:0:0:0:
444,128,127055,1,0,0:0:0:0:
104,56,127205,5,4,0:0:0:0:
100,248,127505,5,0,0:0:0:0:
148,168,127655,1,8,0:0:0:0:
196,248,127805,1,0,0:0:0:0:
248,168,127955,1,0,0:0:0:0:
296,248,128105,1,0,0:0:0:0:
348,328,128255,1,0,0:0:0:0:
400,248,128405,1,0,0:0:0:0:
448,168,128555,1,8,0:0:0:0:
400,88,128705,1,0,0:0:0:0:
296,88,128855,1,0,0:0:0:0:
56,336,129005,5,4,0:0:0:0:
269,149,129305,1,0,0:0:0:0:
260,244,129455,2,0,P|304:272|320:272,1,61.7499971733095,8|0,0:0|0:0,0:0:0:0:
404,240,129755,1,0,0:0:0:0:
468,308,129905,2,0,P|496:260|484:196,1,123.499994346619
408,136,130355,1,8,0:0:0:0:
320,100,130505,1,0,0:0:0:0:
236,56,130655,1,0,0:0:0:0:
44,320,130805,5,4,0:0:0:0:
496,148,131105,1,4,0:0:0:0:
32,200,131405,1,4,0:0:0:0:
492,64,131705,1,4,0:0:0:0:
32,260,132005,1,4,0:0:0:0:
492,320,132305,1,4,0:0:0:0:
56,64,132605,6,0,P|92:56|188:64,1,123.499994346619,4|0,0:0|0:0,0:0:0:0:
268,100,133055,1,8,0:0:0:0:
160,256,133355,1,0,0:0:0:0:
248,292,133505,2,0,P|308:296|372:264,1,123.499994346619
424,192,133955,2,0,L|484:224,2,61.7499971733095,8|0|0,0:0|0:0|0:0,0:0:0:0:
328,188,134405,2,0,P|276:200|200:176,1,123.499994346619
128,128,134855,5,8,0:0:0:0:
68,204,135005,1,0,0:0:0:0:
140,268,135155,1,0,0:0:0:0:
204,200,135305,2,0,P|240:224|256:284,1,92.6249957599642
284,348,135605,2,0,P|320:372|376:368,1,92.6249957599642
440,328,135905,2,0,P|464:292|456:232,1,92.6249957599642
416,168,136205,2,0,P|384:124|300:88,1,123.499994346619,4|0,0:0|0:0,0:0:0:0:
228,112,136655,6,0,L|236:176,2,61.7499971733095,8|0|0,0:0|0:0|0:0,0:0:0:0:
296,44,137105,2,0,P|256:16|180:28,1,123.499994346619
128,104,137555,2,0,L|96:160,1,61.7499971733095,8|0,0:0|0:0,0:0:0:0:
152,236,137855,1,0,0:0:0:0:
84,300,138005,2,0,P|140:328|212:304,1,123.499994346619
284,272,138455,1,8,0:0:0:0:
352,208,138605,1,0,0:0:0:0:
284,272,138755,1,0,0:0:0:0:
128,160,138905,5,0,0:0:0:0:
500,76,139205,1,0,0:0:0:0:
220,332,139505,1,0,0:0:0:0:
8,16,139805,2,0,L|124:56,1,123.499994346619,4|0,0:0|0:0,0:0:0:0:
244,48,140255,1,8,0:0:0:0:
248,160,140405,1,0,0:0:0:0:
352,116,140555,1,0,0:0:0:0:
352,232,140705,6,0,P|312:276|228:284,1,123.499994346619
152,224,141155,2,0,L|88:260,1,61.7499971733095,8|0,0:0|0:0,0:0:0:0:
148,116,141455,1,0,0:0:0:0:
92,16,141605,2,0,P|52:52|32:120,1,123.499994346619
148,116,142055,2,0,L|184:52,2,61.7499971733095,8|0|0,0:0|0:0|0:0,0:0:0:0:
376,84,142505,1,0,0:0:0:0:
8,352,142805,1,0,0:0:0:0:
292,0,143105,1,0,0:0:0:0:
508,264,143405,2,0,P|480:300|400:320,1,123.499994346619,4|0,0:0|0:0,0:0:0:0:
292,328,143855,5,8,0:0:0:0:
344,226,144005,1,0,0:0:0:0:
396,124,144155,1,0,0:0:0:0:
288,92,144305,2,0,P|248:80|156:96,1,123.499994346619
72,156,144755,1,8,0:0:0:0:
180,188,144905,1,0,0:0:0:0:
288,224,145055,1,0,0:0:0:0:
184,268,145205,2,0,P|208:312|292:336,1,123.499994346619
384,296,145655,2,0,L|428:352,2,61.7499971733095,8|0|0,0:0|0:0|0:0,0:0:0:0:
496,68,146105,1,0,0:0:0:0:
48,164,146405,1,0,0:0:0:0:
472,352,146705,1,0,0:0:0:0:
256,192,147005,5,4,0:0:0:0:
256,192,147086,12,0,147901,0:0:0:0:
256,192,147983,12,0,148808,0:0:0:0:
256,192,148883,12,0,149746,0:0:0:0:
256,192,149825,12,0,150689,0:0:0:0:
256,192,150767,12,0,151678,0:0:0:0:
256,192,151761,12,0,152648,0:0:0:0:
256,192,152728,12,0,153615,0:0:0:0:
256,192,153696,12,0,154597,0:0:0:0:
256,192,154679,12,0,155710,0:0:0:0:
256,192,155804,12,0,156741,0:0:0:0:
256,192,156826,12,0,157764,0:0:0:0:
256,192,157849,12,0,161258,0:0:0:0:
327,54,164667,6,0,L|372:84,15,47.5
424,112,166112,2,0,P|448:156|440:204,1,95,4|0,0:0|0:0,0:0:0:0:
328,180,166412,2,0,P|332:240|360:276,1,95,8|0,0:0|0:0,0:0:0:0:
464,264,166712,2,0,P|448:328|424:352,1,95
316,360,167012,2,0,P|268:324|256:288,1,95,8|0,0:0|0:0,0:0:0:0:
236,180,167312,2,0,L|124:136,1,95
236,72,167612,2,0,L|148:36,1,95,8|0,0:0|0:0,0:0:0:0:
48,100,167912,5,0,0:0:0:0:
328,48,168062,1,0,0:0:0:0:
196,300,168212,1,8,0:0:0:0:
256,20,168362,1,0,0:0:0:0:
160,80,168512,6,0,L|112:168,1,95,4|0,0:0|0:0,0:0:0:0:
4,188,168812,2,0,P|24:236|64:264,1,95,8|0,0:0|0:0,0:0:0:0:
164,220,169112,2,0,P|224:220|256:240,1,95
296,344,169412,2,0,L|404:348,1,95,8|0,0:0|0:0,0:0:0:0:
504,344,169712,2,0,P|488:288|452:256,1,95
372,192,170012,2,0,L|300:264,1,95,8|0,0:0|0:0,0:0:0:0:
204,316,170312,1,4,0:0:0:0:
372,88,170462,1,0,0:0:0:0:
88,88,170612,1,8,0:0:0:0:
372,88,170762,1,0,0:0:0:0:
276,28,170912,6,0,L|228:124,1,95
124,152,171212,2,0,L|76:240,1,95,8|0,0:0|0:0,0:0:0:0:
52,348,171512,2,0,P|112:348|156:316,1,95
208,240,171812,2,0,P|248:192|296:184,1,95,8|0,0:0|0:0,0:0:0:0:
380,232,172112,2,0,P|353:270|310:288,1,95
198,311,172412,2,0,P|155:290|119:246,1,95
48,168,172712,1,0,0:0:0:0:
320,80,172862,1,0,0:0:0:0:
260,360,173012,1,8,0:0:0:0:
48,168,173162,1,0,0:0:0:0:
152,124,173312,6,0,P|112:68|80:60,2,95,0|0|8,0:0|0:0|0:0,0:0:0:0:
128,236,173762,1,0,0:0:0:0:
212,312,173912,2,0,P|312:316|376:252,1,190,0|8,0:0|0:0,0:0:0:0:
268,212,174362,1,0,0:0:0:0:
415,87,174512,1,0,0:0:0:0:
268,212,174662,1,0,0:0:0:0:
244,24,174812,1,8,0:0:0:0:
83,124,174962,1,0,0:0:0:0:
244,24,175112,2,0,P|312:28|416:88,1,190,0|8,0:0|0:0,0:0:0:0:
436,228,175562,5,0,0:0:0:0:
436,228,175637,1,0,0:0:0:0:
436,228,175712,1,4,0:0:0:0:
344,340,175862,1,0,0:0:0:0:
252,228,176012,1,8,0:0:0:0:
164,340,176162,1,0,0:0:0:0:
40,272,176312,1,0,0:0:0:0:
29,129,176462,2,0,P|61:89|101:69,1,95,0|8,0:0|0:0,0:0:0:0:
145,205,176762,5,0,0:0:0:0:
227,88,176912,1,0,0:0:0:0:
252,228,177062,1,0,0:0:0:0:
361,136,177212,1,8,0:0:0:0:
227,88,177362,1,0,0:0:0:0:
145,205,177512,1,0,0:0:0:0:
145,205,177587,1,0,0:0:0:0:
145,205,177662,1,0,0:0:0:0:
376,48,177812,5,8,0:0:0:0:
452,168,177962,1,0,0:0:0:0:
452,168,178037,1,0,0:0:0:0:
452,168,178112,1,4,0:0:0:0:
396,300,178262,2,0,P|344:264|324:228,1,95,0|8,0:0|0:0,0:0:0:0:
304,96,178562,1,0,0:0:0:0:
168,60,178712,1,0,0:0:0:0:
70,164,178862,1,0,0:0:0:0:
33,26,179012,5,8,0:0:0:0:
133,126,179162,1,0,0:0:0:0:
83,259,179312,1,0,0:0:0:0:
83,259,179387,1,0,0:0:0:0:
83,259,179462,1,0,0:0:0:0:
83,259,179537,1,0,0:0:0:0:
83,259,179612,1,8,0:0:0:0:
133,126,179762,1,0,0:0:0:0:
428,204,179912,5,0,0:0:0:0:
144,228,180062,1,0,0:0:0:0:
384,72,180212,1,8,0:0:0:0:
252,324,180362,1,0,0:0:0:0:
252,324,180437,1,0,0:0:0:0:
252,324,180512,1,4,0:0:0:0:
304,192,180662,6,0,L|392:144,2,95,0|8|0,0:0|0:0|0:0,0:0:0:0:
228,72,181112,1,0,0:0:0:0:
100,136,181262,1,0,0:0:0:0:
219,213,181412,1,8,0:0:0:0:
228,72,181562,1,0,0:0:0:0:
151,191,181712,1,0,0:0:0:0:
144,344,181862,1,0,0:0:0:0:
144,344,181937,1,0,0:0:0:0:
144,344,182012,1,8,0:0:0:0:
266,217,182162,1,0,0:0:0:0:
424,296,182312,5,0,0:0:0:0:
424,12,182462,1,0,0:0:0:0:
140,12,182612,1,8,0:0:0:0:
140,296,182762,1,0,0:0:0:0:
140,296,182837,1,0,0:0:0:0:
140,296,182912,2,0,L|240:296,1,95,4|0,0:0|0:0,0:0:0:0:
140,112,183212,1,8,0:0:0:0:
200,240,183362,2,0,P|240:272|284:280,1,95
308,138,183662,1,0,0:0:0:0:
416,232,183812,6,0,P|424:280|468:322,2,95,8|0|0,0:0|0:0|0:0,0:0:0:0:
400,196,184187,1,0,0:0:0:0:
397,157,184262,1,0,0:0:0:0:
411,121,184337,1,0,0:0:0:0:
435,91,184412,1,8,0:0:0:0:
308,138,184562,1,0,0:0:0:0:
96,292,184712,5,0,0:0:0:0:
252,52,184862,1,0,0:0:0:0:
96,292,185012,1,8,0:0:0:0:
252,52,185162,1,0,0:0:0:0:
108,44,185312,2,0,P|72:92|68:132,1,95
156,240,185612,6,0,L|200:264,1,47.5,8|0,0:0|0:0,0:0:0:0:
336,300,185762,2,0,L|380:324,1,47.5
436,188,185912,2,0,L|484:156,1,47.5
352,88,186062,2,0,L|296:72,1,47.5
184,140,186212,2,0,L|148:104,1,47.5,8|0,0:0|0:0,0:0:0:0:
40,200,186362,2,0,L|56:256,1,47.5
172,328,186512,2,0,L|212:284,1,47.5
188,148,186662,6,0,L|224:188,1,47.5
360,224,186812,2,0,L|328:184,1,47.5,8|0,0:0|0:0,0:0:0:0:
264,56,186962,2,0,L|312:56,1,47.5
432,132,187112,2,0,L|388:160,1,47.5
424,300,187262,2,0,L|368:272,1,47.5
236,264,187412,2,0,L|200:232,1,47.5,8|0,0:0|0:0,0:0:0:0:
92,136,187562,2,0,L|68:88,1,47.5
256,146,187712,1,4,0:0:0:0:
280,232,196705,6,0,P|352:256|376:288,1,95,4|0,0:0|0:0,0:0:0:0:
232,320,196990,2,0,L|332:360,2,95,8|0|0,0:0|0:0|0:0,0:0:0:0:
92,280,197419,1,0,0:0:0:0:
52,140,197562,2,0,L|32:48,2,95,8|0|0,0:0|0:0|0:0,0:0:0:0:
328,76,198133,5,8,0:0:0:0:
216,164,198276,1,0,0:0:0:0:
196,24,198419,1,0,0:0:0:0:
284,136,198562,1,0,0:0:0:0:
380,240,198705,1,8,0:0:0:0:
248,292,198847,1,0,0:0:0:0:
456,120,198990,1,4,0:0:0:0:
136,336,199276,5,8,0:0:0:0:
64,212,199419,2,0,P|48:164|64:124,2,95
196,268,199847,1,8,0:0:0:0:
320,196,199990,1,0,0:0:0:0:
196,128,200133,1,0,0:0:0:0:
472,60,200419,5,8,0:0:0:0:
332,40,200562,1,0,0:0:0:0:
432,144,200705,1,0,0:0:0:0:
292,120,200847,1,0,0:0:0:0:
388,224,200990,1,8,0:0:0:0:
248,196,201133,1,0,0:0:0:0:
36,36,201276,1,4,0:0:0:0:
192,276,201562,6,0,P|176:332|144:356,2,95,8|0|0,0:0|0:0|0:0,0:0:0:0:
336,280,201990,2,0,P|320:336|288:360,2,95,0|8|0,0:0|0:0|0:0,0:0:0:0:
316,136,202419,2,0,P|240:84|148:104,1,190,0|8,0:0|0:0,0:0:0:0:
96,236,202847,1,0,0:0:0:0:
152,104,202990,1,0,0:0:0:0:
184,244,203133,1,0,0:0:0:0:
152,104,203276,1,8,0:0:0:0:
32,180,203419,1,0,0:0:0:0:
280,320,203562,1,4,0:0:0:0:
416,72,203847,5,8,0:0:0:0:
284,132,203990,1,0,0:0:0:0:
404,212,204133,1,0,0:0:0:0:
368,140,204276,1,0,0:0:0:0:
236,200,204419,1,8,0:0:0:0:
356,280,204562,1,0,0:0:0:0:
76,324,204705,5,4,0:0:0:0:
136,196,204847,2,0,P|92:184|40:188,1,95,0|8,0:0|0:0,0:0:0:0:
176,244,205133,1,0,0:0:0:0:
372,32,205276,1,4,0:0:0:0:
440,156,205419,2,0,P|380:172|328:164,1,95,0|8,0:0|0:0,0:0:0:0:
436,56,205705,1,0,0:0:0:0:
156,100,205847,1,4,0:0:0:0:
372,288,206133,5,8,0:0:0:0:
228,296,206276,2,0,P|164:316|140:344,2,95
344,212,206705,1,8,0:0:0:0:
204,188,206847,1,0,0:0:0:0:
292,76,206990,1,0,0:0:0:0:
108,292,207276,5,8,0:0:0:0:
150,162,207419,1,0,0:0:0:0:
39,243,207562,1,0,2:0:0:0:
175,243,207705,1,0,0:0:0:0:
66,162,207847,1,8,0:0:0:0:
108,292,207990,1,0,0:0:0:0:
108,8,208133,1,4,0:0:0:0:
380,96,208419,6,0,L|448:184,1,95,8|0,0:0|0:0,0:0:0:0:
352,284,208705,2,0,P|391:309|438:312,2,95,0|0|8,0:0|0:0|0:0,0:0:0:0:
256,180,209133,1,0,0:0:0:0:
272,40,209276,1,0,0:0:0:0:
72,292,209562,5,8,0:0:0:0:
204,236,209705,1,0,0:0:0:0:
72,188,209847,1,0,0:0:0:0:
200,128,209990,1,0,0:0:0:0:
72,188,210133,1,8,0:0:0:0:
204,236,210276,1,0,0:0:0:0:
464,108,210419,1,4,0:0:0:0:
320,352,210705,5,8,0:0:0:0:
184,312,210847,1,0,0:0:0:0:
320,264,210990,2,0,P|380:288|404:332,2,95,0|0|8,0:0|0:0|0:0,0:0:0:0:
180,228,211419,1,0,0:0:0:0:
84,124,211562,2,0,P|184:88|272:124,1,190,0|8,0:0|0:0,0:0:0:0:
384,188,211990,2,0,P|424:152|448:112,2,95
248,232,212419,1,8,0:0:0:0:
112,268,212562,1,0,0:0:0:0:
332,84,212705,5,4,0:0:0:0:
68,196,212990,2,0,L|68:296,1,95,8|0,0:0|0:0,0:0:0:0:
192,216,213276,2,0,L|192:316,1,95
316,236,213562,2,0,L|316:336,1,95,8|0,0:0|0:0,0:0:0:0:
420,64,213847,5,4,0:0:0:0:
428,208,213990,1,0,0:0:0:0:
428,208,214133,2,0,P|368:200|328:176,1,95,8|0,0:0|0:0,0:0:0:0:
92,36,214419,1,4,0:0:0:0:
36,168,214562,1,0,0:0:0:0:
36,168,214705,2,0,P|108:180|144:168,1,95,8|0,0:0|0:0,0:0:0:0:
280,140,214976,6,0,P|248:72|216:48,1,113.999996520996,4|0,0:0|0:0,0:0:0:0:
176,216,215261,1,0,0:0:0:0:
60,340,215404,1,8,0:0:0:0:
220,284,215547,1,0,0:0:0:0:
388,252,215690,2,0,P|408:316|404:372,2,113.999996520996,0|0|8,0:0|0:0|0:0,0:0:0:0:
344,88,216118,1,0,0:0:0:0:
172,92,216261,2,0,L|52:76,1,113.999996520996
120,240,216547,1,8,0:0:0:0:
288,204,216690,2,0,P|424:196|464:104,1,227.999993041992
316,36,217118,1,8,0:0:0:0:
208,168,217261,2,0,L|36:336,1,227.999993041992,4|0,0:0|0:0,0:0:0:0:
216,348,217690,6,0,P|288:352|340:328,1,113.999996520996,8|0,0:0|0:0,0:0:0:0:
408,184,217976,1,0,0:0:0:0:
260,100,218118,1,0,0:0:0:0:
432,120,218261,1,8,0:0:0:0:
268,172,218404,1,0,0:0:0:0:
108,116,218547,1,0,0:0:0:0:
280,100,218690,1,0,0:0:0:0:
132,184,218833,1,8,0:0:0:0:
292,248,218976,2,0,P|340:196|328:40,1,227.999993041992
164,44,219404,5,8,0:0:0:0:
204,212,219547,2,0,P|184:276|144:300,1,113.999996520996,4|0,0:0|0:0,0:0:0:0:
20,180,219833,1,0,0:0:0:0:
184,128,219976,1,8,0:0:0:0:
344,76,220118,1,0,0:0:0:0:
504,20,220261,1,0,0:0:0:0:
432,176,220404,1,0,0:0:0:0:
268,128,220547,1,8,0:0:0:0:
100,100,220690,2,0,P|96:156|136:200,1,113.999996520996
300,232,220976,1,0,0:0:0:0:
460,288,221118,2,0,P|424:348|372:376,1,113.999996520996,8|0,0:0|0:0,0:0:0:0:
220,340,221403,2,0,P|168:260|212:132,1,227.999993041992,4|8,0:0|0:0,0:0:0:0:
356,216,221833,6,0,L|476:164,1,113.999996520996,4|0,0:0|0:0,0:0:0:0:
300,116,222118,1,0,0:0:0:0:
464,64,222261,1,8,0:0:0:0:
156,216,222404,2,0,L|36:164,1,113.999996520996,4|0,0:0|0:0,0:0:0:0:
212,116,222689,1,0,0:0:0:0:
48,64,222832,1,8,0:0:0:0:
356,216,222976,2,0,L|476:164,1,113.999996520996,4|0,0:0|0:0,0:0:0:0:
300,116,223261,1,0,0:0:0:0:
464,64,223404,1,8,0:0:0:0:
468,236,223547,2,0,P|436:296|288:304,1,227.999993041992,4|0,0:0|0:0,0:0:0:0:
168,184,223976,1,8,0:0:0:0:
264,44,224118,2,0,P|196:28|144:56,1,113.999996520996,4|0,0:0|0:0,0:0:0:0:
88,200,224404,5,0,0:0:0:0:
168,348,224547,1,8,0:0:0:0:
256,200,224690,1,0,0:0:0:0:
172,152,224833,1,0,0:0:0:0:
256,300,224976,1,0,0:0:0:0:
340,152,225119,1,8,0:0:0:0:
256,200,225261,1,0,0:0:0:0:
344,348,225404,1,0,0:0:0:0:
424,200,225547,1,0,0:0:0:0:
324,60,225690,2,0,P|392:76|420:112,2,113.999996520996,8|0|0,0:0|0:0|0:0,0:0:0:0:
184,60,226118,2,0,P|116:76|88:112,2,113.999996520996,0|8|0,0:0|0:0|0:0,0:0:0:0:
180,232,226547,6,0,L|152:352,1,113.999996520996,4|0,0:0|0:0,0:0:0:0:
324,316,226833,2,0,L|416:248,1,113.999996520996,8|0,0:0|0:0,0:0:0:0:
380,80,227118,2,0,L|276:156,1,113.999996520996
120,108,227404,2,0,L|24:184,1,113.999996520996,8|0,0:0|0:0,0:0:0:0:
200,220,227690,2,0,L|328:244,1,113.999996520996
472,172,227976,2,0,L|344:152,1,113.999996520996,8|0,0:0|0:0,0:0:0:0:
228,48,228261,2,0,L|372:32,1,113.999996520996
204,136,228547,2,0,L|100:200,1,113.999996520996,8|0,0:0|0:0,0:0:0:0:
228,320,228833,6,0,P|284:280|300:232,2,113.999996520996,4|0|8,0:0|0:0|0:0,0:0:0:0:
76,240,229261,1,0,0:0:0:0:
60,68,229404,2,0,P|128:40|264:112,1,227.999993041992,0|8,0:0|0:0,0:0:0:0:
200,264,229833,2,0,P|160:204|148:160,2,113.999996520996
312,132,230261,1,8,0:0:0:0:
368,292,230403,1,0,0:0:0:0:
368,292,230546,2,0,P|452:240|464:88,1,227.999993041992,4|8,0:0|0:0,0:0:0:0:
256,56,230975,1,0,0:0:0:0:
256,328,231118,5,0,0:0:0:0:
335,81,231260,1,0,0:0:0:0:
126,234,231403,1,8,0:0:0:0:
385,234,231546,1,0,0:0:0:0:
176,81,231689,1,0,0:0:0:0:
256,344,231832,5,0,0:0:0:0:
345,69,231975,1,8,0:0:0:0:
111,238,232118,1,0,0:0:0:0:
400,238,232260,1,0,0:0:0:0:
166,69,232403,1,0,0:0:0:0:
256,360,232546,5,8,0:0:0:0:
354,56,232689,1,0,0:0:0:0:
96,243,232832,1,0,0:0:0:0:
415,243,232975,1,0,0:0:0:0:
157,56,233118,1,8,0:0:0:0:
256,376,233261,2,0,L|256:136,1,227.999993041992,4|0,0:0|0:0,0:0:0:0:
88,112,233690,1,8,0:0:0:0:
168,264,233833,2,0,L|188:136,1,113.999996520996
344,88,234118,1,0,0:0:0:0:
364,256,234261,6,0,L|304:276,1,56.9999982604981,12|0,0:0|0:0,0:0:0:0:
260,272,234404,2,0,P|244:208|196:176,1,113.999996520996
108,320,234690,2,0,P|32:268|8:140,1,227.999993041992
176,160,235118,1,0,0:0:0:0:
304,44,235261,2,0,L|420:80,1,113.999996520996,0|8,0:0|0:0,0:0:0:0:
416,252,235547,2,0,P|380:312|212:324,1,227.999993041992
260,168,235976,1,8,0:0:0:0:
132,60,236118,1,0,0:0:0:0:
40,204,236261,2,0,P|76:264|244:276,1,227.999993041992,0|8,0:0|0:0,0:0:0:0:
352,176,236690,5,0,0:0:0:0:
224,64,236833,1,0,0:0:0:0:
152,220,236976,2,0,L|248:148,1,113.999996520996,0|8,0:0|0:0,0:0:0:0:
400,88,237261,1,0,0:0:0:0:
460,248,237404,1,0,0:0:0:0:
296,296,237547,1,0,0:0:0:0:
424,180,237690,2,0,L|480:80,1,113.999996520996,8|4,0:0|0:0,0:0:0:0:
140,124,238118,5,0,0:0:0:0:
103,295,238260,1,8,0:0:0:0:
270,241,238404,1,0,0:0:0:0:
111,138,238547,1,0,0:0:0:0:
138,312,238690,1,0,0:0:0:0:
275,201,238833,1,8,0:0:0:0:
224,36,238976,6,0,P|296:32|344:56,1,113.999996520996
400,204,239261,1,0,0:0:0:0:
296,340,239404,1,8,0:0:0:0:
284,168,239547,2,0,P|220:176|180:216,1,113.999996520996
108,364,239833,1,0,0:0:0:0:
44,204,239976,1,8,0:0:0:0:
128,56,240118,6,0,L|188:168,1,113.999996520996,4|0,0:0|0:0,0:0:0:0:
176,328,240404,1,0,0:0:0:0:
100,176,240547,1,8,0:0:0:0:
384,56,240690,2,0,L|324:168,1,113.999996520996,4|0,0:0|0:0,0:0:0:0:
336,328,240976,1,0,0:0:0:0:
412,176,241119,1,8,0:0:0:0:
128,56,241261,2,0,L|188:168,1,113.999996520996,4|0,0:0|0:0,0:0:0:0:
176,328,241547,1,0,0:0:0:0:
100,176,241690,1,8,0:0:0:0:
176,328,241833,6,0,P|236:308|272:256,1,113.999996520996,4|0,0:0|0:0,0:0:0:0:
272,100,242118,1,0,0:0:0:0:
296,60,242190,1,0,0:0:0:0:
336,40,242261,1,8,0:0:0:0:
380,48,242333,1,0,0:0:0:0:
416,76,242404,2,0,P|448:128|452:188,1,113.999996520996,4|0,0:0|0:0,0:0:0:0:
384,336,242690,1,0,0:0:0:0:
276,204,242833,1,8,0:0:0:0:
384,336,242976,1,0,0:0:0:0:
276,204,243118,2,0,L|200:108,1,113.999996520996
40,60,243404,1,8,0:0:0:0:
52,232,243547,6,0,P|92:292|248:320,1,227.999993041992
384,236,243976,2,0,L|488:176,1,113.999996520996,8|0,0:0|0:0,0:0:0:0:
340,84,244261,2,0,L|444:24,1,113.999996520996
340,168,244547,1,8,0:0:0:0:
192,256,244690,2,0,P|136:192|184:72,1,227.999993041992
284,212,245118,1,8,0:0:0:0:
176,344,245261,2,0,P|272:352|396:296,1,227.999993041992
424,132,245690,5,8,0:0:0:0:
256,92,245833,1,0,0:0:0:0:
108,180,245976,1,0,0:0:0:0:
240,288,246118,2,0,L|352:264,1,113.999996520996,0|8,0:0|0:0,0:0:0:0:
360,92,246404,5,0,0:0:0:0:
212,176,246547,1,0,0:0:0:0:
360,92,246690,1,0,0:0:0:0:
212,176,246833,1,8,0:0:0:0:
100,304,246976,2,0,P|16:224|24:104,1,227.999993041992,4|0,0:0|0:0,0:0:0:0:
176,60,247404,1,8,0:0:0:0:
148,228,247547,2,0,L|232:308,1,113.999996520996
400,288,247833,5,0,0:0:0:0:
260,188,247976,1,8,0:0:0:0:
400,288,248118,2,0,P|440:196|388:80,1,227.999993041992,4|0,0:0|0:0,0:0:0:0:
260,188,248546,1,8,0:0:0:0:
144,60,248690,2,0,L|68:152,1,113.999996520996
240,112,248976,1,0,0:0:0:0:
124,236,249118,1,8,0:0:0:0:
284,300,249261,2,0,P|224:264|168:120,1,227.999993041992
340,144,249690,5,8,0:0:0:0:
388,308,249833,1,0,0:0:0:0:
452,148,249976,2,0,L|364:236,1,113.999996520996
228,320,250261,1,8,0:0:0:0:
64,272,250404,2,0,L|40:156,1,113.999996520996
184,64,250690,1,0,0:0:0:0:
140,228,250833,1,8,0:0:0:0:
300,284,250976,2,0,L|244:184,1,113.999996520996
404,244,251261,1,0,0:0:0:0:
344,84,251404,1,8,0:0:0:0:
180,28,251547,6,0,P|72:100|84:184,1,227.999993041992
180,328,251976,1,8,0:0:0:0:
348,356,252118,2,0,P|456:284|444:200,1,227.999993041992
284,268,252547,1,8,0:0:0:0:
356,112,252690,2,0,L|136:184,1,227.999993041992
13,302,253118,1,8,0:0:0:0:
184,308,253261,2,0,L|404:236,1,227.999993041992
432,68,253690,1,8,0:0:0:0:
260,80,253833,6,0,L|168:160,1,113.999996520996
68,288,254118,2,0,P|128:340|176:348,1,113.999996520996,0|8,0:0|0:0,0:0:0:0:
276,220,254404,2,0,P|324:260|336:312,1,113.999996520996
404,152,254690,2,0,L|336:48,1,113.999996520996,0|8,0:0|0:0,0:0:0:0:
172,76,254976,2,0,L|56:116,1,113.999996520996
228,164,255261,2,0,L|344:216,1,113.999996520996,0|8,0:0|0:0,0:0:0:0:
436,72,255547,2,0,L|476:188,1,113.999996520996
352,304,255833,2,0,L|236:328,1,113.999996520996,0|8,0:0|0:0,0:0:0:0:
256,68,256118,5,0,0:0:0:0:
256,316,256261,1,0,0:0:0:0:
320,68,256404,1,0,0:0:0:0:
192,316,256547,1,8,0:0:0:0:
256,68,256690,1,0,0:0:0:0:
316,316,256833,1,0,0:0:0:0:
192,68,256976,1,0,0:0:0:0:
256,316,257118,1,8,0:0:0:0:
320,68,257261,1,0,0:0:0:0:
192,316,257404,1,0,0:0:0:0:
192,68,257547,1,0,0:0:0:0:
316,316,257690,1,8,0:0:0:0:
256,68,257833,1,0,0:0:0:0:
256,316,257976,2,0,L|256:86,1,227.999993041992,4|0,0:0|0:0,0:0:0:0:
96,52,260690,6,0,P|80:128|176:240,1,227.999993041992,4|0,0:0|0:0,0:0:0:0:
336,208,261118,1,8,0:0:0:0:
260,56,261261,1,0,0:0:0:0:
424,104,261404,1,0,0:0:0:0:
452,272,261547,2,0,P|412:324|356:340,1,113.999996520996,0|8,0:0|0:0,0:0:0:0:
196,332,261833,2,0,P|116:320|44:196,1,227.999993041992
212,172,262261,6,0,L|320:124,1,113.999996520996,8|0,0:0|0:0,0:0:0:0:
288,296,262547,1,0,0:0:0:0:
384,152,262690,1,0,0:0:0:0:
224,88,262833,1,8,0:0:0:0:
132,232,262976,2,0,L|264:228,2,113.999996520996
84,68,263404,1,8,0:0:0:0:
132,232,263547,1,0,0:0:0:0:
280,148,263690,2,0,P|328:192|336:244,1,113.999996520996
192,328,263976,1,8,0:0:0:0:
360,336,264118,2,0,P|424:280|412:140,1,227.999993041992
247,178,264546,1,0,0:0:0:0:
72,164,264690,6,0,L|172:104,1,113.999996520996,4|0,0:0|0:0,0:0:0:0:
248,260,264976,1,0,0:0:0:0:
376,152,265118,1,8,0:0:0:0:
240,48,265261,2,0,P|320:28|460:96,1,227.999993041992
420,252,265690,1,8,0:0:0:0:
264,184,265833,1,0,0:0:0:0:
144,304,265976,1,0,0:0:0:0:
144,136,266118,1,0,0:0:0:0:
240,280,266261,1,8,0:0:0:0:
84,208,266404,2,0,P|40:264|36:304,2,113.999996520996
234,123,266833,6,0,P|298:99|333:61,1,113.999996520996,8|0,0:0|0:0,0:0:0:0:
493,190,267118,2,0,L|425:223,1,56.9999982604981,4|0,0:0|0:0,0:0:0:0:
424,252,267261,2,0,P|416:324|384:360,1,113.999996520996,0|8,0:0|0:0,0:0:0:0:
220,336,267547,2,0,L|336:136,1,227.999993041992
168,88,267976,1,8,0:0:0:0:
52,212,268118,1,0,0:0:0:0:
212,148,268261,1,0,0:0:0:0:
96,272,268404,1,0,0:0:0:0:
256,208,268547,1,8,0:0:0:0:
140,332,268690,2,0,B|208:348|272:320|272:320|388:352,1,227.999993041992
440,192,269118,5,8,0:0:0:0:
336,56,269261,1,0,0:0:0:0:
440,192,269404,1,0,0:0:0:0:
156,224,269547,1,0,0:0:0:0:
440,192,269690,1,8,0:0:0:0:
288,112,269833,2,0,B|168:88|168:88|124:128|64:148,1,227.999993041992,4|0,0:0|0:0,0:0:0:0:
212,252,270261,2,0,L|320:320,1,113.999996520996,8|0,0:0|0:0,0:0:0:0:
476,264,270547,1,0,0:0:0:0:
320,196,270690,2,0,L|400:116,1,113.999996520996,0|8,0:0|0:0,0:0:0:0:
240,56,270976,6,0,P|352:16|460:64,1,227.999993041992,4|0,0:0|0:0,0:0:0:0:
452,224,271404,1,8,0:0:0:0:
360,368,271547,1,0,0:0:0:0:
188,372,271690,1,0,0:0:0:0:
104,224,271833,1,0,0:0:0:0:
184,72,271976,1,8,0:0:0:0:
340,140,272118,2,0,L|160:296,1,227.999993041992,4|0,0:0|0:0,0:0:0:0:
32,184,272547,2,0,P|72:128|120:104,2,113.999996520996,8|0|0,0:0|0:0|0:0,0:0:0:0:
56,356,272976,1,0,0:0:0:0:
224,344,273118,1,8,0:0:0:0:
388,296,273261,6,0,B|420:244|404:184|404:184|500:112,1,227.999993041992,4|0,0:0|0:0,0:0:0:0:
320,100,273690,1,8,0:0:0:0:
148,120,273833,2,0,L|244:48,1,113.999996520996
100,152,274118,2,0,L|0:224,1,113.999996520996,0|8,0:0|0:0,0:0:0:0:
156,304,274404,2,0,B|228:256|228:256|216:176|288:124,1,227.999993041992,4|0,0:0|0:0,0:0:0:0:
400,252,274833,1,8,0:0:0:0:
244,324,274976,1,0,0:0:0:0:
412,324,275118,1,0,0:0:0:0:
256,252,275261,2,0,L|144:216,1,113.999996520996,0|8,0:0|0:0,0:0:0:0:
68,64,275547,2,0,L|184:104,1,113.999996520996
332,176,275833,2,0,P|400:148|424:108,1,113.999996520996,0|8,0:0|0:0,0:0:0:0:
268,40,276118,5,0,0:0:0:0:
184,188,276261,1,0,0:0:0:0:
268,40,276404,1,0,0:0:0:0:
184,188,276547,1,8,0:0:0:0:
92,332,276690,2,0,P|44:284|40:216,2,113.999996520996
264,336,277118,1,8,0:0:0:0:
436,336,277261,1,0,0:0:0:0:
280,268,277404,1,0,0:0:0:0:
452,268,277547,1,0,0:0:0:0:
296,200,277690,1,8,0:0:0:0:
144,120,277833,6,0,P|200:64|356:60,1,227.999993041992
380,220,278261,1,8,0:0:0:0:
220,284,278404,2,0,B|104:320|104:320|120:256|80:216,1,227.999993041992
56,184,278761,1,0,0:0:0:0:
40,140,278832,2,0,L|12:28,1,113.999996520996,8|4,0:0|0:0,0:0:0:0:
400,300,281261,5,4,0:0:0:0:
100,76,283547,1,4,0:0:0:0:
400,300,285833,1,4,0:0:0:0:
100,76,286976,1,4,0:0:0:0:
400,300,287547,1,4,0:0:0:0:
100,76,288118,1,4,0:0:0:0:
100,308,290404,5,4,0:0:0:0:
400,84,292690,1,4,0:0:0:0:
100,308,294976,1,4,0:0:0:0:
400,84,296118,1,4,0:0:0:0:
100,308,296690,1,4,0:0:0:0:
400,84,297261,6,0,L|264:108,1,113.999996520996,4|0,0:0|0:0,0:0:0:0:
144,200,297547,2,0,P|100:152|100:100,2,113.999996520996,0|8|0,0:0|0:0|0:0,0:0:0:0:
316,220,297976,1,0,0:0:0:0:
172,312,298118,1,0,0:0:0:0:
240,156,298261,1,8,0:0:0:0:
404,204,298404,1,0,0:0:0:0:
300,340,298547,1,0,0:0:0:0:
320,172,298690,1,0,0:0:0:0:
468,84,298833,1,8,0:0:0:0:
296,96,298976,1,0,0:0:0:0:
188,228,299118,2,0,P|152:176|156:120,1,113.999996520996,4|0,0:0|0:0,0:0:0:0:
288,236,299404,6,0,P|352:244|388:284,2,113.999996520996,8|0|0,0:0|0:0|0:0,0:0:0:0:
128,304,299833,2,0,P|52:264|44:232,1,113.999996520996,0|8,0:0|0:0,0:0:0:0:
212,284,300118,1,0,0:0:0:0:
208,112,300261,1,0,0:0:0:0:
380,112,300404,1,0,0:0:0:0:
380,284,300547,2,0,P|456:264|488:240,1,113.999996520996,8|0,0:0|0:0,0:0:0:0:
452,74,300833,1,0,0:0:0:0:
339,203,300976,2,0,P|287:155|287:103,1,113.999996520996,0|8,0:0|0:0,0:0:0:0:
130,39,301261,2,0,P|102:151|186:211,1,227.999993041992
231,217,301618,1,0,0:0:0:0:
280,216,301690,2,0,L|417:217,1,113.999996520996,8|4,0:0|0:0,0:0:0:0:
48,328,302118,6,0,P|16:272|32:224,1,113.999996520996,0|8,0:0|0:0,0:0:0:0:
160,116,302404,1,0,0:0:0:0:
200,284,302547,1,0,0:0:0:0:
372,300,302690,1,0,0:0:0:0:
160,116,302833,1,8,0:0:0:0:
332,112,302976,1,0,0:0:0:0:
484,40,303118,2,0,P|512:96|504:152,1,113.999996520996
348,216,303404,1,8,0:0:0:0:
176,204,303547,2,0,P|96:184|92:52,1,227.999993041992
244,128,303976,1,8,0:0:0:0:
316,284,304118,6,0,L|432:232,1,113.999996520996,4|0,0:0|0:0,0:0:0:0:
256,188,304404,1,0,0:0:0:0:
412,120,304546,1,8,0:0:0:0:
196,284,304690,2,0,L|80:232,1,113.999996520996,4|0,0:0|0:0,0:0:0:0:
256,188,304976,1,0,0:0:0:0:
100,120,305119,1,8,0:0:0:0:
256,52,305261,2,0,L|256:176,1,113.999996520996,4|0,0:0|0:0,0:0:0:0:
112,264,305547,1,0,0:0:0:0:
400,264,305690,1,8,0:0:0:0:
252,352,305833,2,0,B|200:316|200:316|232:228|152:172,1,227.999993041992,4|0,0:0|0:0,0:0:0:0:
36,296,306261,1,8,0:0:0:0:
16,128,306404,2,0,P|52:48|176:88,1,227.999993041992,4|0,0:0|0:0,0:0:0:0:
200,244,306833,6,0,P|272:280|320:284,1,113.999996520996,8|0,0:0|0:0,0:0:0:0:
448,192,307118,1,0,0:0:0:0:
276,208,307261,1,0,0:0:0:0:
332,44,307404,1,8,0:0:0:0:
364,212,307547,1,0,0:0:0:0:
248,340,307690,1,0,0:0:0:0:
248,340,307833,1,0,0:0:0:0:
104,244,307976,1,8,0:0:0:0:
160,84,308118,2,0,L|44:44,2,113.999996520996
312,167,308547,1,8,0:0:0:0:
296,340,308690,6,0,P|368:312|440:180,1,227.999993041992,4|0,0:0|0:0,0:0:0:0:
272,216,309118,1,8,0:0:0:0:
400,100,309261,1,0,0:0:0:0:
236,148,309404,1,0,0:0:0:0:
112,268,309547,1,0,0:0:0:0:
168,108,309690,2,0,P|112:88|56:112,1,113.999996520996,8|0,0:0|0:0,0:0:0:0:
112,268,309976,2,0,P|172:320|312:288,1,227.999993041992,0|8,0:0|0:0,0:0:0:0:
324,120,310404,1,0,0:0:0:0:
164,180,310547,1,0,0:0:0:0:
324,120,310690,1,0,0:0:0:0:
164,180,310833,5,12,0:0:0:0:
136,216,310904,1,0,0:0:0:0:
144,260,310976,1,0,0:0:0:0:
300,324,311118,2,0,L|440:312,1,113.999996520996
184,184,311404,2,0,L|280:300,1,113.999996520996,8|0,0:0|0:0,0:0:0:0:
272,100,311690,1,0,0:0:0:0:
440,168,311833,1,0,0:0:0:0:
268,164,311976,1,8,0:0:0:0:
200,320,312118,2,0,P|112:336|72:224,1,227.999993041992
244,248,312547,1,8,0:0:0:0:
144,108,312690,2,0,P|212:64|268:56,1,113.999996520996
332,204,312976,2,0,P|384:156|400:104,1,113.999996520996,0|8,0:0|0:0,0:0:0:0:
92,332,313260,5,4,0:0:0:0:
312,52,313403,1,0,0:0:0:0:
420,332,313546,1,0,0:0:0:0:
200,52,313689,1,8,0:0:0:0:
312,332,313832,1,0,0:0:0:0:
420,52,313975,1,0,0:0:0:0:
200,332,314118,1,0,0:0:0:0:
92,52,314260,1,8,0:0:0:0:
92,332,314403,5,0,0:0:0:0:
312,52,314546,1,0,0:0:0:0:
420,332,314689,1,0,0:0:0:0:
200,52,314832,1,8,0:0:0:0:
312,332,314975,1,0,0:0:0:0:
420,52,315118,1,0,0:0:0:0:
200,332,315260,1,0,0:0:0:0:
92,52,315403,1,8,0:0:0:0:
256,104,315547,6,0,P|352:136|396:252,1,227.999993041992,4|0,0:0|0:0,0:0:0:0:
276,368,315976,1,8,0:0:0:0:
112,324,316118,2,0,P|64:244|64:212,1,113.999996520996
40,56,316404,2,0,P|128:76|156:104,1,113.999996520996,0|8,0:0|0:0,0:0:0:0:
204,252,316690,1,0,0:0:0:0:
244,88,316833,1,0,0:0:0:0:
300,252,316976,1,0,0:0:0:0:
400,116,317118,2,0,P|456:176|460:224,2,113.999996520996,8|0|0,0:0|0:0|0:0,0:0:0:0:
240,176,317547,1,0,0:0:0:0:
120,52,317690,1,8,0:0:0:0:
56,212,317833,6,0,P|92:268|264:328,1,227.999993041992,4|0,0:0|0:0,0:0:0:0:
388,252,318261,1,8,0:0:0:0:
336,88,318404,1,0,0:0:0:0:
220,216,318547,1,0,0:0:0:0:
318,322,318690,1,0,0:0:0:0:
384,163,318833,1,8,0:0:0:0:
212,187,318976,1,0,0:0:0:0:
124,252,319118,5,0,0:0:0:0:
176,88,319261,1,0,0:0:0:0:
292,216,319404,1,8,0:0:0:0:
193,322,319547,1,0,0:0:0:0:
127,163,319690,1,0,0:0:0:0:
299,187,319833,1,0,0:0:0:0:
396,48,319976,5,8,0:0:0:0:
432,76,320047,1,0,0:0:0:0:
460,112,320118,2,0,P|488:176|440:332,1,227.999993041992,4|0,0:0|0:0,0:0:0:0:
276,300,320547,1,8,0:0:0:0:
108,332,320690,2,0,P|60:284|48:232,1,113.999996520996
212,184,320976,1,0,0:0:0:0:
72,92,321118,1,8,0:0:0:0:
244,100,321261,2,0,P|316:56|360:56,2,113.999996520996
188,264,321690,1,8,0:0:0:0:
188,264,321761,1,0,0:0:0:0:
188,264,321833,2,0,P|240:304|400:272,1,227.999993041992
404,108,322261,5,8,0:0:0:0:
404,108,322404,2,0,L|264:56,1,113.999996520996
128,100,322690,1,0,0:0:0:0:
128,100,322833,1,8,0:0:0:0:
128,100,322976,2,0,L|216:196,1,113.999996520996
372,220,323261,1,0,0:0:0:0:
372,220,323404,1,8,0:0:0:0:
372,220,323547,2,0,L|256:280,1,113.999996520996
104,236,323833,1,0,0:0:0:0:
400,64,323976,1,8,0:0:0:0:
168,304,324118,6,0,P|228:332|284:328,1,113.999996520996
320,320,324333,1,0,0:0:0:0:
360,300,324404,1,0,0:0:0:0:
396,272,324476,1,0,0:0:0:0:
424,236,324547,1,8,0:0:0:0:
436,192,324618,1,0,0:0:0:0:
428,148,324690,1,4,0:0:0:0:
100,56,324976,5,0,0:0:0:0:
268,48,325118,2,0,P|264:112|232:152,1,113.999996520996,8|0,0:0|0:0,0:0:0:0:
68,192,325404,1,0,0:0:0:0:
224,260,325547,2,0,P|292:248|324:216,1,113.999996520996,0|8,0:0|0:0,0:0:0:0:
376,56,325833,1,0,0:0:0:0:
460,208,325976,1,0,0:0:0:0:
316,116,326118,1,0,0:0:0:0:
160,184,326261,1,8,0:0:0:0:
176,356,326404,2,0,P|92:352|40:316,2,113.999996520996
344,316,326833,2,0,P|392:268|408:96,2,227.999993041992,8|0|8,0:0|0:0|0:0,0:0:0:0:
184,260,327546,5,0,0:0:0:0:
60,140,327689,1,0,0:0:0:0:
224,92,327832,1,0,0:0:0:0:
216,264,327975,5,8,0:0:0:0:
54,201,328118,1,0,0:0:0:0:
187,93,328260,1,0,0:0:0:0:
356,80,328403,1,0,0:0:0:0:
216,180,328546,1,8,0:0:0:0:
356,80,328689,1,0,0:0:0:0:
316,248,328833,6,0,P|380:248|432:228,2,113.999996520996,0|0|8,0:0|0:0|0:0,0:0:0:0:
144,256,329261,2,0,P|112:148|184:40,1,227.999993041992,4|0,0:0|0:0,0:0:0:0:
268,171,329690,1,8,0:0:0:0:
268,344,329833,1,0,0:0:0:0:
268,171,329976,1,0,0:0:0:0:
268,3,330118,1,0,0:0:0:0:
268,171,330261,1,8,0:0:0:0:
368,52,330404,2,0,P|424:148|396:260,1,227.999993041992,4|0,0:0|0:0,0:0:0:0:
268,172,330833,5,8,0:0:0:0:
96,172,330976,1,0,0:0:0:0:
268,171,331118,1,0,0:0:0:0:
440,172,331261,1,0,0:0:0:0:
268,171,331404,1,8,0:0:0:0:
169,331,331546,6,0,P|268:380|368:332,1,227.999993041992,4|0,0:0|0:0,0:0:0:0:
268,172,331976,1,8,0:0:0:0:
368,52,332118,2,0,P|273:4|169:53,1,227.999993041992,4|0,0:0|0:0,0:0:0:0:
268,171,332547,1,8,0:0:0:0:
169,331,332689,6,0,P|268:380|368:332,1,227.999993041992,4|0,0:0|0:0,0:0:0:0:
268,172,333119,1,8,0:0:0:0:
368,52,333261,2,0,P|273:4|169:53,1,227.999993041992,4|0,0:0|0:0,0:0:0:0:
268,171,333690,1,8,0:0:0:0:
96,172,333833,6,0,L|32:72,2,113.999996520996,4|0|0,0:0|0:0|0:0,0:0:0:0:
212,300,334261,1,8,0:0:0:0:
376,252,334404,2,0,L|448:348,2,113.999996520996,4|0|0,0:0|0:0|0:0,0:0:0:0:
208,216,334833,1,8,0:0:0:0:
316,84,334976,2,0,P|244:48|100:80,1,227.999993041992,4|0,0:0|0:0,0:0:0:0:
208,216,335404,1,8,0:0:0:0:
208,216,335547,2,0,B|272:148|356:176|356:176|408:112,1,227.999993041992,4|0,0:0|0:0,0:0:0:0:
304,272,335976,1,8,0:0:0:0:
136,308,336118,6,0,L|48:224,1,113.999996520996
32,60,336404,2,0,L|120:144,1,113.999996520996,0|8,0:0|0:0,0:0:0:0:
288,140,336690,2,0,L|380:60,1,113.999996520996
464,212,336976,2,0,L|380:296,1,113.999996520996,0|8,0:0|0:0,0:0:0:0:
216,320,337261,2,0,L|320:224,1,113.999996520996
220,88,337546,2,0,L|132:0,1,113.999996520996,0|8,0:0|0:0,0:0:0:0:
72,168,337833,2,0,L|160:260,1,113.999996520996
320,232,338118,2,0,L|408:320,1,113.999996520996,0|8,0:0|0:0,0:0:0:0:
68,320,338404,5,0,0:0:0:0:
340,132,338547,1,0,0:0:0:0:
176,160,338690,1,0,0:0:0:0:
488,272,338833,1,8,0:0:0:0:
244,48,338976,1,0,0:0:0:0:
280,272,339118,1,0,0:0:0:0:
484,12,339261,1,0,0:0:0:0:
280,272,339404,1,8,0:0:0:0:
0,96,339547,1,0,0:0:0:0:
329,196,339690,1,0,0:0:0:0:
154,304,339833,1,0,0:0:0:0:
438,334,339976,1,8,0:0:0:0:
8,204,340118,1,0,0:0:0:0:
504,204,340261,1,4,0:0:0:0:
392,56,342976,6,0,P|436:124|408:276,1,227.999993041992,4|0,0:0|0:0,0:0:0:0:
256,328,343404,1,8,0:0:0:0:
88,304,343547,1,0,0:0:0:0:
232,212,343690,1,0,0:0:0:0:
392,152,343833,1,0,0:0:0:0:
220,148,343976,1,8,0:0:0:0:
56,192,344118,6,0,P|64:72|152:-4,1,227.999993041992
280,96,344547,1,8,0:0:0:0:
340,256,344690,2,0,L|460:320,2,113.999996520996
180,320,345118,1,8,0:0:0:0:
16,272,345261,6,0,L|248:224,1,227.999993041992
388,140,345690,2,0,P|448:144|500:180,2,113.999996520996,8|0|0,0:0|0:0|0:0,0:0:0:0:
216,120,346118,1,0,0:0:0:0:
320,256,346261,2,0,P|284:332|236:352,1,113.999996520996,8|0,0:0|0:0,0:0:0:0:
92,308,346547,2,0,L|208:264,1,113.999996520996
304,132,346833,1,8,0:0:0:0:
136,92,346976,1,0,0:0:0:0:
472,48,347118,5,0,0:0:0:0:
472,48,347261,2,0,L|436:160,1,113.999996520996,0|8,0:0|0:0,0:0:0:0:
380,320,347547,2,0,B|298:355|228:305|228:305|164:336,1,227.999993041992,4|0,0:0|0:0,0:0:0:0:
12,264,347976,1,8,0:0:0:0:
176,212,348118,1,0,0:0:0:0:
336,148,348261,1,0,0:0:0:0:
492,80,348404,1,0,0:0:0:0:
324,56,348547,1,8,0:0:0:0:
152,40,348690,2,0,B|64:116|64:116|48:188|96:232,1,227.999993041992,4|0,0:0|0:0,0:0:0:0:
412,320,349118,1,0,0:0:0:0:
412,320,349261,5,4,0:0:0:0:
240,316,349404,1,0,0:0:0:0:
388,228,349547,2,0,B|288:220|288:220|272:136|356:96,1,227.999993041992
500,64,349976,2,0,P|436:44|380:36,1,113.999996520996
220,64,350261,5,8,0:0:0:0:
80,160,350404,1,0,0:0:0:0:
220,64,350547,1,0,0:0:0:0:
344,184,350690,1,0,0:0:0:0:
220,64,350833,1,8,0:0:0:0:
136,212,350976,1,0,0:0:0:0:
220,64,351118,1,0,0:0:0:0:
284,224,351261,1,0,0:0:0:0:
220,64,351404,1,8,0:0:0:0:
208,236,351547,1,0,0:0:0:0:
220,64,351690,1,0,0:0:0:0:
196,348,351833,1,0,0:0:0:0:
220,64,351976,1,8,0:0:0:0:
388,40,352118,6,0,P|456:104|436:248,1,227.999993041992,4|0,0:0|0:0,0:0:0:0:
300,316,352547,1,8,0:0:0:0:
468,348,352690,1,0,0:0:0:0:
336,240,352833,1,0,0:0:0:0:
296,72,352976,1,0,0:0:0:0:
260,240,353118,1,8,0:0:0:0:
124,344,353261,2,0,P|60:304|32:140,1,227.999993041992,4|0,0:0|0:0,0:0:0:0:
192,200,353690,1,8,0:0:0:0:
352,136,353833,2,0,L|436:56,2,113.999996520996
192,200,354261,1,8,0:0:0:0:
288,344,354403,6,0,B|368:328|376:244|376:244|456:200,1,227.999993041992,4|0,0:0|0:0,0:0:0:0:
284,252,354833,1,8,0:0:0:0:
188,108,354976,1,0,0:0:0:0:
284,252,355118,1,0,0:0:0:0:
268,80,355261,2,0,P|268:140|224:188,1,113.999996520996,0|8,0:0|0:0,0:0:0:0:
88,260,355547,2,0,P|40:212|48:56,1,227.999993041992,4|0,0:0|0:0,0:0:0:0:
212,28,355976,5,8,0:0:0:0:
348,132,356118,2,0,L|464:168,1,113.999996520996
284,188,356404,1,0,0:0:0:0:
432,272,356547,1,8,0:0:0:0:
260,272,356690,2,0,P|200:216|260:104,2,227.999993041992,4|0|0,0:0|0:0|0:0,0:0:0:0:
408,188,357404,1,0,0:0:0:0:
104,188,357547,1,0,0:0:0:0:
408,188,357690,1,8,0:0:0:0:
328,340,357833,2,0,B|232:344|232:344|180:296|180:296|112:300,1,227.999993041992
172,136,358261,6,0,L|88:48,2,113.999996520996,8|0|0,0:0|0:0|0:0,0:0:0:0:
320,212,358690,1,0,0:0:0:0:
156,212,358833,1,8,0:0:0:0:
308,136,358976,2,0,L|392:48,2,113.999996520996
200,280,359404,2,0,L|120:376,1,113.999996520996,8|0,0:0|0:0,0:0:0:0:
240,240,359690,1,0,0:0:0:0:
284,280,359833,2,0,L|364:376,1,113.999996520996,0|8,0:0|0:0,0:0:0:0:
240,240,360118,2,0,L|240:8,1,227.999993041992
400,72,360547,1,8,0:0:0:0:
428,108,360618,1,0,0:0:0:0:
440,152,360690,2,0,B|444:224|424:272|424:272|368:232|368:232|328:224,1,227.999993041992
160,224,361118,1,12,0:0:0:0:
255,155,361261,5,0,0:0:0:0:
254,228,361404,1,0,0:0:0:0:
281,166,361547,1,0,0:0:0:0:
229,216,361690,1,8,0:0:0:0:
292,191,361833,1,0,0:0:0:0:
219,190,361976,1,0,0:0:0:0:
281,217,362118,1,0,0:0:0:0:
231,165,362261,1,8,0:0:0:0:
256,228,362404,1,0,0:0:0:0:
257,155,362547,1,0,0:0:0:0:
230,217,362690,1,0,0:0:0:0:
282,167,362833,1,8,0:0:0:0:
219,192,362976,1,0,0:0:0:0:
292,193,363119,1,0,0:0:0:0:
230,166,363261,1,0,0:0:0:0:
280,218,363404,1,8,0:0:0:0:
256,112,363547,5,4,0:0:0:0:
256,272,363690,1,0,0:0:0:0:
312,135,363833,1,0,0:0:0:0:
199,248,363976,1,8,0:0:0:0:
336,192,364118,1,0,0:0:0:0:
176,192,364261,1,0,0:0:0:0:
312,248,364404,1,0,0:0:0:0:
199,135,364546,1,8,0:0:0:0:
256,272,364690,1,0,0:0:0:0:
256,112,364833,1,0,0:0:0:0:
199,248,364976,1,0,0:0:0:0:
312,135,365119,1,8,0:0:0:0:
176,192,365261,1,0,0:0:0:0:
336,192,365404,1,0,0:0:0:0:
199,135,365547,1,0,0:0:0:0:
312,248,365690,1,8,0:0:0:0:
256,72,365833,5,4,0:0:0:0:
256,312,365976,1,0,0:0:0:0:
340,107,366118,1,0,0:0:0:0:
171,276,366261,1,8,0:0:0:0:
376,191,366404,1,0,0:0:0:0:
136,192,366547,1,0,0:0:0:0:
340,276,366690,1,0,0:0:0:0:
171,107,366833,1,8,0:0:0:0:
256,312,366976,1,0,0:0:0:0:
256,72,367119,1,0,0:0:0:0:
171,276,367261,1,0,0:0:0:0:
340,107,367404,1,8,0:0:0:0:
136,192,367547,1,0,0:0:0:0:
375,192,367690,1,0,0:0:0:0:
171,107,367833,1,0,0:0:0:0:
340,276,367976,1,8,0:0:0:0:
256,32,368118,5,4,0:0:0:0:
256,352,368261,1,0,0:0:0:0:
369,78,368404,1,0,0:0:0:0:
142,305,368547,1,8,0:0:0:0:
416,192,368690,1,0,0:0:0:0:
96,192,368833,1,0,0:0:0:0:
369,305,368976,1,0,0:0:0:0:
142,78,369119,1,8,0:0:0:0:
256,352,369261,5,4,0:0:0:0:
369,78,369404,1,0,0:0:0:0:
142,79,369547,1,0,0:0:0:0:
256,351,369690,1,8,0:0:0:0:
257,32,369833,5,4,0:0:0:0:
142,304,369976,1,0,0:0:0:0:
369,305,370118,1,0,0:0:0:0:
257,32,370261,1,8,0:0:0:0:
256,351,370404,1,4,0:0:0:0:
256,192,370547,5,0,0:0:0:0:
224,192,370690,1,0,0:0:0:0:
288,192,370833,1,8,0:0:0:0:
200,182,370976,1,0,0:0:0:0:
311,201,371118,1,0,0:0:0:0:
180,164,371261,1,0,0:0:0:0:
331,219,371404,1,8,0:0:0:0:
162,138,371547,1,0,0:0:0:0:
352,248,371690,1,0,0:0:0:0:
148,102,371833,1,0,0:0:0:0:
366,284,371976,1,8,0:0:0:0:
145,60,372118,1,0,0:0:0:0:
369,326,372261,1,0,0:0:0:0:
154,15,372404,1,0,0:0:0:0:
360,372,372547,1,8,0:0:0:0:
256,192,372690,5,4,0:0:0:0:
256,192,372833,1,0,0:0:0:0:
288,192,372975,1,0,0:0:0:0:
224,192,373119,1,8,0:0:0:0:
311,182,373260,1,0,0:0:0:0:
200,201,373403,1,0,0:0:0:0:
331,164,373546,1,0,0:0:0:0:
180,219,373689,1,8,0:0:0:0:
349,138,373833,1,0,0:0:0:0:
159,248,373976,1,0,0:0:0:0:
363,102,374119,1,0,0:0:0:0:
145,284,374260,1,8,0:0:0:0:
366,60,374403,1,0,0:0:0:0:
142,326,374547,1,0,0:0:0:0:
358,15,374690,1,0,0:0:0:0:
152,372,374833,1,8,0:0:0:0:
256,192,374975,5,4,0:0:0:0:
233,169,375118,1,0,0:0:0:0:
278,214,375260,1,0,0:0:0:0:
200,192,375403,1,8,0:0:0:0:
312,192,375546,1,0,0:0:0:0:
199,248,375689,1,0,0:0:0:0:
312,135,375832,1,0,0:0:0:0:
256,296,375975,1,8,0:0:0:0:
256,87,376118,1,0,0:0:0:0:
346,282,376260,1,0,0:0:0:0:
165,101,376403,1,0,0:0:0:0:
408,192,376546,1,8,0:0:0:0:
104,192,376689,1,0,0:0:0:0:
374,73,376832,1,0,0:0:0:0:
137,310,376975,1,0,0:0:0:0:
256,7,377118,1,8,0:0:0:0:
355,290,377261,5,4,0:0:0:0:
157,291,377404,1,0,0:0:0:0:
355,93,377547,1,0,0:0:0:0:
157,94,377690,1,8,0:0:0:0:
355,290,377833,1,0,0:0:0:0:
157,291,377976,1,0,0:0:0:0:
355,93,378118,1,0,0:0:0:0:
157,94,378261,1,8,0:0:0:0:
416,338,378404,1,4,0:0:0:0:
96,46,378547,1,0,0:0:0:0:
487,249,378690,1,0,0:0:0:0:
25,135,378833,1,8,0:0:0:0:
487,135,378976,1,4,0:0:0:0:
25,249,379118,1,0,0:0:0:0:
416,46,379261,1,0,0:0:0:0:
96,338,379403,1,8,0:0:0:0:
256,49,379547,5,0,0:0:0:0:
256,49,379618,1,0,0:0:0:0:
256,49,379690,2,0,L|256:170,1,113.999996520996,4|0,0:0|0:0,0:0:0:0:
334,316,379976,1,8,0:0:0:0:
164,312,380118,2,0,P|93:270|58:209,2,113.999996520996,0|0|0,0:0|0:0|0:0,0:0:0:0:
314,228,380547,1,8,0:0:0:0:
175,127,380690,1,0,0:0:0:0:
344,105,380833,1,0,0:0:0:0:
404,265,380976,1,0,0:0:0:0:
235,243,381118,1,8,0:0:0:0:
363,356,381261,1,0,0:0:0:0:
193,335,381404,2,0,P|123:254|202:143,1,227.999993041992,4|8,0:0|0:0,0:0:0:0:
297,40,381833,5,0,0:0:0:0:
381,189,381976,2,0,P|439:151|461:106,2,113.999996520996,0|0|8,0:0|0:0|0:0,0:0:0:0:
212,158,382404,1,0,0:0:0:0:
84,43,382547,1,0,0:0:0:0:
130,207,382690,1,0,0:0:0:0:
297,170,382833,1,8,0:0:0:0:
177,292,382976,2,0,P|99:336|52:333,2,113.999996520996,0|0|0,0:0|0:0|0:0,0:0:0:0:
297,170,383404,1,8,0:0:0:0:
465,200,383547,2,0,P|445:292|319:338,1,227.999993041992,4|0,0:0|0:0,0:0:0:0:
300,337,383904,1,0,0:0:0:0:
270,331,383976,1,8,0:0:0:0:
247,312,384047,1,0,0:0:0:0:
234,285,384118,1,0,0:0:0:0:
54,66,384404,6,0,P|42:142|69:200,1,113.999996520996,0|8,0:0|0:0,0:0:0:0:
215,117,384690,1,0,0:0:0:0:
377,64,384833,1,0,0:0:0:0:
215,117,384976,1,0,0:0:0:0:
375,173,385118,1,8,0:0:0:0:
209,216,385261,2,0,P|136:179|121:148,2,113.999996520996,0|0|0,0:0|0:0|0:0,0:0:0:0:
350,117,385690,1,8,0:0:0:0:
398,281,385833,1,0,0:0:0:0:
398,281,385976,2,0,P|346:315|179:323,1,227.999993041992,4|8,0:0|0:0,0:0:0:0:
69,54,386404,6,0,L|189:97,1,113.999996520996,4|0,0:0|0:0,0:0:0:0:
54,189,386690,1,0,0:0:0:0:
219,235,386833,1,8,0:0:0:0:
443,54,386976,6,0,L|335:92,1,113.999996520996,4|0,0:0|0:0,0:0:0:0:
458,189,387260,1,0,0:0:0:0:
293,235,387403,1,8,0:0:0:0:
256,31,387546,2,0,L|256:144,1,113.999996520996,4|0,0:0|0:0,0:0:0:0:
160,88,387832,1,0,0:0:0:0:
350,88,387975,1,8,0:0:0:0:
150,298,388118,2,0,P|255:336|362:298,1,227.999993041992,4|0,0:0|0:0,0:0:0:0:
396,254,388476,1,0,0:0:0:0:
415,200,388547,1,8,0:0:0:0:
256,136,388690,5,4,0:0:0:0:
256,136,388976,1,0,0:0:0:0:
100,68,389118,1,8,0:0:0:0:
100,240,389261,1,0,0:0:0:0:
184,92,389404,1,0,0:0:0:0:
324,0,389547,1,0,0:0:0:0:
332,172,389690,1,8,0:0:0:0:
196,276,389833,2,0,P|160:328|104:344,2,113.999996520996,0|0|0,0:0|0:0|0:0,0:0:0:0:
356,336,390261,2,0,P|424:304|436:256,1,113.999996520996,8|0,0:0|0:0,0:0:0:0:
388,104,390547,1,0,0:0:0:0:
276,236,390690,1,0,0:0:0:0:
112,192,390833,1,8,0:0:0:0:
112,192,390904,1,0,0:0:0:0:
112,192,390976,6,0,P|96:116|116:76,2,113.999996520996,4|0|0,0:0|0:0|0:0,0:0:0:0:
224,324,391404,1,8,0:0:0:0:
380,252,391547,1,0,0:0:0:0:
380,252,391690,2,0,B|436:176|436:176|364:204|316:140,1,227.999993041992,0|8,0:0|0:0,0:0:0:0:
176,44,392118,1,0,0:0:0:0:
196,216,392261,2,0,L|296:284,1,113.999996520996
436,188,392547,1,8,0:0:0:0:
256,48,392690,1,0,0:0:0:0:
76,188,392833,1,0,0:0:0:0:
256,336,392976,1,0,0:0:0:0:
256,48,393261,5,0,0:0:0:0:
256,48,393333,1,0,0:0:0:0:
256,48,393403,2,0,L|256:174,1,113.999996520996,4|0,0:0|0:0,0:0:0:0:
337,313,393690,1,8,0:0:0:0:
370,145,393833,1,0,0:0:0:0:
175,313,393976,1,0,0:0:0:0:
142,145,394118,1,0,0:0:0:0:
256,271,394261,1,8,0:0:0:0:
417,214,394404,1,0,0:0:0:0:
348,57,394547,1,0,0:0:0:0:
164,57,394690,1,0,0:0:0:0:
95,214,394833,1,8,0:0:0:0:
394,356,394976,2,0,L|478:270,1,113.999996520996
118,28,395261,2,0,L|34:114,1,113.999996520996,0|8,0:0|0:0,0:0:0:0:
256,48,395547,5,4,0:0:0:0:
152,332,395690,1,0,0:0:0:0:
360,332,395833,1,0,0:0:0:0:
152,52,395976,1,8,0:0:0:0:
256,336,396119,1,0,0:0:0:0:
360,52,396260,1,0,0:0:0:0:
104,332,396404,5,0,0:0:0:0:
256,48,396547,1,8,0:0:0:0:
408,332,396690,1,0,0:0:0:0:
104,52,396833,1,0,0:0:0:0:
408,52,396976,1,0,0:0:0:0:
256,336,397119,1,8,0:0:0:0:
408,52,397261,5,0,0:0:0:0:
104,332,397404,1,0,0:0:0:0:
104,52,397547,1,0,0:0:0:0:
408,332,397690,1,8,0:0:0:0:
80,192,397833,5,0,0:0:0:0:
80,192,397904,1,0,0:0:0:0:
80,192,397976,2,0,P|144:244|196:248,1,113.999996520996,4|0,0:0|0:0,0:0:0:0:
344,256,398261,1,8,0:0:0:0:
464,132,398404,1,0,0:0:0:0:
300,80,398547,1,0,0:0:0:0:
136,128,398690,1,0,0:0:0:0:
300,176,398833,1,8,0:0:0:0:
344,340,398976,5,0,0:0:0:0:
344,340,399118,1,0,0:0:0:0:
344,340,399261,2,0,P|272:340|208:312,1,113.999996520996,0|8,0:0|0:0,0:0:0:0:
80,252,399547,2,0,P|20:204|4:156,2,113.999996520996,0|0|0,0:0|0:0|0:0,0:0:0:0:
252,248,399976,1,8,0:0:0:0:
420,276,400118,2,0,B|456:216|464:160|464:160|400:160|376:96,1,227.999993041992,4|0,0:0|0:0,0:0:0:0:
216,64,400547,1,8,0:0:0:0:
80,168,400690,2,0,L|200:220,1,113.999996520996
280,356,400976,1,0,0:0:0:0:
348,200,401118,2,0,P|304:136|304:80,1,113.999996520996,8|0,0:0|0:0,0:0:0:0:
464,44,401404,1,0,0:0:0:0:
476,216,401547,2,0,P|464:296|424:328,1,113.999996520996,0|8,0:0|0:0,0:0:0:0:
276,272,401833,5,0,0:0:0:0:
144,163,401976,1,0,0:0:0:0:
257,36,402118,1,0,0:0:0:0:
390,144,402261,1,8,0:0:0:0:
276,272,402404,2,0,P|162:283|69:221,1,227.999993041992,4|0,0:0|0:0,0:0:0:0:
210,122,402833,1,8,0:0:0:0:
346,224,402976,1,0,0:0:0:0:
316,56,403118,1,0,0:0:0:0:
247,212,403261,1,0,0:0:0:0:
339,355,403404,1,8,0:0:0:0:
452,226,403547,5,0,0:0:0:0:
452,226,403690,2,0,B|460:126|441:87|441:87|358:137,1,227.999993041992,0|8,0:0|0:0,0:0:0:0:
256,263,404118,1,0,0:0:0:0:
96,325,404261,1,0,0:0:0:0:
256,263,404404,1,0,0:0:0:0:
68,88,404547,5,8,0:0:0:0:
85,258,404690,1,4,0:0:0:0:
235,49,404903,1,0,0:0:0:0:
265,74,404975,1,0,0:0:0:0:
296,98,405046,1,0,0:0:0:0:
329,118,405118,1,8,0:0:0:0:
362,140,405189,1,0,0:0:0:0:
395,160,405260,1,4,0:0:0:0:
229,361,405475,5,0,0:0:0:0:
267,366,405546,1,0,0:0:0:0:
304,353,405618,1,8,0:0:0:0:
337,331,405690,1,0,0:0:0:0:
353,295,405760,1,0,0:0:0:0:
353,255,405832,1,0,0:0:0:0:
29,314,406046,5,0,0:0:0:0:
10,280,406118,1,0,0:0:0:0:
0,242,406189,1,0,0:0:0:0:
0,203,406260,1,8,0:0:0:0:
18,168,406332,1,0,0:0:0:0:
52,150,406403,1,4,0:0:0:0:
281,68,406546,5,0,0:0:0:0:
318,53,406618,1,0,0:0:0:0:
358,56,406689,1,0,0:0:0:0:
391,77,406760,1,0,0:0:0:0:
419,105,406832,1,8,0:0:0:0:
442,136,406903,1,0,0:0:0:0:
458,172,406975,2,0,B|505:240|476:305|476:305|414:298|380:325,1,227.999993041992,4|0,0:0|0:0,0:0:0:0:
224,276,407403,5,8,0:0:0:0:
388,232,407546,1,0,0:0:0:0:
260,348,407689,1,0,0:0:0:0:
324,188,407833,2,0,P|276:140|212:124,1,113.999996520996,0|8,0:0|0:0,0:0:0:0:
136,264,408118,1,0,0:0:0:0:
96,96,408261,2,0,L|24:4,2,113.999996520996,0|0|8,0:0|0:0|0:0,0:0:0:0:
232,200,408690,1,0,0:0:0:0:
300,44,408833,1,0,0:0:0:0:
432,152,408976,1,0,0:0:0:0:
264,120,409118,1,8,0:0:0:0:
308,284,409261,2,0,B|264:340|176:324|176:324|128:240,1,227.999993041992,4|0,0:0|0:0,0:0:0:0:
200,92,409690,5,8,0:0:0:0:
372,108,409833,1,0,0:0:0:0:
212,168,409976,1,0,0:0:0:0:
328,44,410118,1,0,0:0:0:0:
416,192,410261,1,8,0:0:0:0:
300,320,410404,2,0,P|248:356|176:360,1,113.999996520996
92,228,410690,2,0,P|176:256|208:252,1,113.999996520996,0|8,0:0|0:0,0:0:0:0:
348,164,410976,1,0,0:0:0:0:
184,116,411118,6,0,L|72:60,2,113.999996520996,0|0|8,0:0|0:0|0:0,0:0:0:0:
348,60,411547,2,0,P|436:100|416:244,1,227.999993041992,4|0,0:0|0:0,0:0:0:0:
308,332,411976,5,8,0:0:0:0:
140,300,412118,1,0,0:0:0:0:
308,332,412261,1,0,0:0:0:0:
172,228,412404,1,0,0:0:0:0:
176,56,412547,1,8,0:0:0:0:
348,60,412690,2,0,P|436:100|416:244,1,227.999993041992,4|0,0:0|0:0,0:0:0:0:
308,332,413118,5,8,0:0:0:0:
140,300,413260,1,0,0:0:0:0:
308,332,413403,1,0,0:0:0:0:
440,220,413546,1,0,0:0:0:0:
272,200,413689,1,8,0:0:0:0:
100,208,413833,2,0,B|24:148|24:148|76:104|168:124,1,227.999993041992,4|0,0:0|0:0,0:0:0:0:
256,256,414261,1,8,0:0:0:0:
412,208,414404,2,0,B|488:148|488:148|436:104|344:124,1,227.999993041992,4|0,0:0|0:0,0:0:0:0:
256,40,414833,5,8,0:0:0:0:
160,180,414976,2,0,L|20:372,1,227.999993041992,4|0,0:0|0:0,0:0:0:0:
256,40,415404,1,8,0:0:0:0:
352,180,415547,2,0,L|492:372,1,227.999993041992,4|0,0:0|0:0,0:0:0:0:
256,344,415976,5,8,0:0:0:0:
160,204,416119,2,0,L|20:12,1,227.999993041992,4|0,0:0|0:0,0:0:0:0:
256,344,416547,1,8,0:0:0:0:
352,204,416690,2,0,L|492:12,1,227.999993041992,4|0,0:0|0:0,0:0:0:0:
256,192,417118,1,8,0:0:0:0:
116,288,417261,2,0,P|104:316|104:256,1,227.999993041992,4|0,0:0|0:0,0:0:0:0:
256,192,417690,1,8,0:0:0:0:
396,96,417833,2,0,P|408:68|408:128,1,227.999993041992,4|0,0:0|0:0,0:0:0:0:
256,192,418261,1,8,0:0:0:0:
172,44,418404,6,0,L|84:144,1,113.999996520996
340,340,418690,2,0,L|428:240,1,113.999996520996,0|8,0:0|0:0,0:0:0:0:
147,60,418976,2,0,L|78:174,1,113.999996520996
364,323,419262,2,0,L|433:209,1,113.999996520996,0|8,0:0|0:0,0:0:0:0:
126,81,419547,2,0,L|77:205,1,113.999996520996
385,302,419833,2,0,L|434:178,1,113.999996520996,0|8,0:0|0:0,0:0:0:0:
109,105,420118,2,0,L|83:236,1,113.999996520996
402,278,420404,2,0,L|428:147,1,113.999996520996,0|8,0:0|0:0,0:0:0:0:
369,78,420690,5,0,0:0:0:0:
142,305,420833,1,0,0:0:0:0:
369,305,420976,1,0,0:0:0:0:
142,78,421118,1,8,0:0:0:0:
256,352,421261,1,0,0:0:0:0:
256,32,421404,1,0,0:0:0:0:
96,192,421547,1,0,0:0:0:0:
416,192,421689,1,8,0:0:0:0:
142,305,421833,1,0,0:0:0:0:
369,78,421976,1,0,0:0:0:0:
142,78,422119,1,0,0:0:0:0:
369,305,422261,1,8,0:0:0:0:
256,32,422404,1,0,0:0:0:0:
256,352,422547,2,0,L|256:220,1,113.999996520996,4|0,0:0|0:0,0:0:0:0:
148,285,425261,6,0,B|232:314|320:244|320:244|371:269,1,227.999993041992,4|0,0:0|0:0,0:0:0:0:
491,370,425689,1,8,0:0:0:0:
426,211,425832,1,0,0:0:0:0:
463,44,425975,1,0,0:0:0:0:
318,135,426118,1,0,0:0:0:0:
155,81,426261,1,8,0:0:0:0:
34,202,426404,2,0,P|149:250|251:222,1,227.999993041992,4|0,0:0|0:0,0:0:0:0:
392,137,426832,1,8,0:0:0:0:
334,298,426975,2,0,L|451:370,2,113.999996520996
162,296,427403,1,8,0:0:0:0:
162,296,427546,6,0,L|65:85,1,227.999993041992,4|0,0:0|0:0,0:0:0:0:
229,32,427975,2,0,P|289:36|341:72,2,113.999996520996,8|0|0,0:0|0:0|0:0,0:0:0:0:
229,203,428403,1,0,0:0:0:0:
385,271,428546,2,0,P|349:347|301:367,1,113.999996520996,8|0,0:0|0:0,0:0:0:0:
152,351,428833,1,0,0:0:0:0:
71,199,428976,1,0,0:0:0:0:
234,151,429118,1,8,0:0:0:0:
105,38,429261,1,0,0:0:0:0:
472,48,429403,5,0,0:0:0:0:
472,48,429546,2,0,L|436:160,1,113.999996520996,0|8,0:0|0:0,0:0:0:0:
439,330,429833,2,0,B|377:380|318:353|318:353|297:233,1,227.999993041992,4|0,0:0|0:0,0:0:0:0:
273,88,430261,2,0,L|364:10,2,113.999996520996,8|0|0,0:0|0:0|0:0,0:0:0:0:
141,199,430690,1,0,0:0:0:0:
244,334,430832,1,8,0:0:0:0:
374,220,430976,2,0,P|440:121|417:13,1,227.999993041992
321,158,431404,5,8,0:0:0:0:
164,90,431546,1,0,0:0:0:0:
48,216,431689,1,0,0:0:0:0:
144,358,431833,2,0,B|217:304|217:304|284:357|362:322,1,227.999993041992
501,257,432261,2,0,P|454:195|437:140,1,113.999996520996
364,7,432547,1,8,0:0:0:0:
264,146,432690,1,0,0:0:0:0:
340,299,432833,2,0,P|268:322|219:307,1,113.999996520996
264,146,433118,1,8,0:0:0:0:
102,88,433261,2,0,P|85:155|106:202,1,113.999996520996
264,146,433546,1,0,0:0:0:0:
435,161,433690,2,0,P|425:86|406:53,1,113.999996520996,8|0,0:0|0:0,0:0:0:0:
264,146,433975,1,0,0:0:0:0:
354,291,434118,1,0,0:0:0:0:
183,302,434261,1,8,0:0:0:0:
16,262,434404,6,0,B|-8:195|26:154|26:154|140:188,1,227.999993041992,4|0,0:0|0:0,0:0:0:0:
296,244,434832,1,8,0:0:0:0:
371,90,434975,1,0,0:0:0:0:
296,244,435118,1,0,0:0:0:0:
220,90,435261,1,0,0:0:0:0:
296,244,435403,1,8,0:0:0:0:
124,250,435546,2,0,P|60:210|32:46,1,227.999993041992,4|0,0:0|0:0,0:0:0:0:
194,92,435975,1,8,0:0:0:0:
356,145,436118,2,0,L|462:97,2,113.999996520996
192,197,436546,1,8,0:0:0:0:
238,363,436690,6,0,P|323:333|364:210,1,227.999993041992,4|0,0:0|0:0,0:0:0:0:
193,194,437118,1,8,0:0:0:0:
194,22,437261,1,0,0:0:0:0:
360,58,437403,1,0,0:0:0:0:
292,215,437546,2,0,P|262:274|202:295,1,113.999996520996,0|8,0:0|0:0,0:0:0:0:
58,236,437832,2,0,P|10:188|18:32,1,227.999993041992,4|0,0:0|0:0,0:0:0:0:
166,117,438261,5,8,0:0:0:0:
243,268,438403,2,0,L|305:371,1,113.999996520996
467,318,438689,1,0,0:0:0:0:
368,178,438832,1,8,0:0:0:0:
232,71,438976,2,0,P|119:38|21:83,2,227.999993041992,4|0|0,0:0|0:0|0:0,0:0:0:0:
408,188,439689,1,0,0:0:0:0:
92,319,439832,1,0,0:0:0:0:
408,188,439975,1,8,0:0:0:0:
273,82,440118,2,0,B|176:72|176:72|128:29|128:29|45:20,1,227.999993041992
92,190,440546,6,0,L|230:206,2,113.999996520996,8|0|0,0:0|0:0|0:0,0:0:0:0:
252,350,440975,1,0,0:0:0:0:
402,268,441118,1,8,0:0:0:0:
356,103,441261,2,0,L|440:15,2,113.999996520996,4|0|0,0:0|0:0|0:0,0:0:0:0:
186,126,441689,2,0,L|69:51,1,113.999996520996,8|0,0:0|0:0,0:0:0:0:
38,228,441975,1,0,0:0:0:0:
180,323,442118,2,0,L|311:381,1,113.999996520996,0|8,0:0|0:0,0:0:0:0:
415,257,442404,1,0,0:0:0:0:
264,175,442547,1,0,0:0:0:0:
410,87,442690,1,0,0:0:0:0:
410,87,442761,1,0,0:0:0:0:
410,87,442833,2,0,P|354:50|293:40,1,113.999996520996,8|0,0:0|0:0,0:0:0:0:
41,137,443118,1,0,0:0:0:0:
260,320,443261,1,0,0:0:0:0:
167,50,443404,1,8,0:0:0:0:
421,180,443547,6,0,B|366:261|366:261|322:195|246:206,1,227.999993041992,4|0,0:0|0:0,0:0:0:0:
121,312,443976,1,8,0:0:0:0:
170,211,444118,2,0,L|103:203,1,38
80,192,444261,2,0,P|126:155|150:62,1,152,0|8,0:0|0:0,0:0:0:0:
222,158,444690,2,0,P|215:221|250:308,1,152
348,352,445118,1,8,0:0:0:0:
415,260,445261,2,0,P|447:202|453:162,1,76
336,170,445547,2,0,P|359:107|372:95,1,76,0|8,0:0|0:0,0:0:0:0:
386,48,445761,1,0,0:0:0:0:
328,45,445833,6,0,P|252:71|168:46,1,152,4|0,0:0|0:0,0:0:0:0:
200,168,446261,1,8,0:0:0:0:
86,176,446404,2,0,P|99:225|132:251,1,76
230,256,446690,2,0,P|284:257|314:272,1,76,0|8,0:0|0:0,0:0:0:0:
395,334,446976,1,0,0:0:0:0:
375,222,447118,1,0,0:0:0:0:
418,116,447261,1,0,0:0:0:0:
305,134,447404,1,8,0:0:0:0:
196,169,447547,2,0,L|109:240,1,76
91,322,447833,2,0,P|34:300|18:271,1,76,0|8,0:0|0:0,0:0:0:0:
0,262,448047,1,0,0:0:0:0:
0,262,448118,1,4,0:0:0:0:
108,228,448261,6,0,P|145:222|179:206,1,76
252,116,448547,2,0,L|220:38,1,76,8|0,0:0|0:0,0:0:0:0:
120,100,448833,2,0,P|156:136|192:140,1,76
284,184,449118,1,8,0:0:0:0:
396,196,449261,2,0,P|451:170|471:152,2,76,0|0|0,0:0|0:0|0:0,0:0:0:0:
324,284,449690,1,8,0:0:0:0:
324,284,449761,1,0,0:0:0:0:
324,284,449833,2,0,P|280:328|244:344,1,76,4|0,0:0|0:0,0:0:0:0:
156,320,450118,2,0,P|102:304|72:288,1,76,0|8,0:0|0:0,0:0:0:0:
56,184,450404,6,0,B|12:131|16:117|16:117|104:101,2,152,4|0|0,0:0|0:0|0:0,0:0:0:0:
213,242,451118,1,0,0:0:0:0:
170,135,451261,1,0,0:0:0:0:
280,162,451404,1,8,0:0:0:0:
387,123,451547,6,0,P|452:138|484:157,2,76,0|0|0,0:0|0:0|0:0,0:0:0:0:
287,65,451976,1,8,0:0:0:0:
176,48,452118,1,0,0:0:0:0:
149,38,452190,1,0,0:0:0:0:
122,30,452261,1,4,0:0:0:0:
54,122,452404,1,0,0:0:0:0:
136,200,452547,1,8,0:0:0:0:
136,200,452618,1,0,0:0:0:0:
136,200,452690,6,0,P|201:251|282:250,1,152,4|0,0:0|0:0,0:0:0:0:
237,144,453118,1,8,0:0:0:0:
345,108,453261,1,0,0:0:0:0:
405,204,453404,2,0,P|419:271|417:290,1,76
330,351,453690,1,8,0:0:0:0:
217,329,453833,2,0,P|170:349|143:351,2,76,0|0|0,0:0|0:0|0:0,0:0:0:0:
297,247,454261,1,8,0:0:0:0:
291,133,454404,1,0,0:0:0:0:
201,203,454547,2,0,P|133:216|75:153,1,152,4|8,0:0|0:0,0:0:0:0:
173,99,454976,6,0,P|199:54|233:34,1,76,0|0,0:0|0:0,0:0:0:0:
291,133,455261,1,0,0:0:0:0:
298,246,455404,1,8,0:0:0:0:
193,291,455547,1,0,0:0:0:0:
291,348,455690,2,0,P|345:338|377:309,1,76
391,215,455976,1,8,0:0:0:0:
488,157,456118,2,0,P|432:108|354:107,1,152
255,159,456547,2,0,L|255:237,1,76,8|0,0:0|0:0,0:0:0:0:
150,75,456833,5,0,0:0:0:0:
362,309,456976,1,0,0:0:0:0:
362,75,457118,1,8,0:0:0:0:
150,309,457261,1,4,0:0:0:0:
50,103,457547,5,0,0:0:0:0:
141,170,457690,2,0,P|195:164|219:141,1,76,8|0,0:0|0:0,0:0:0:0:
268,52,457976,1,0,0:0:0:0:
326,149,458118,2,0,P|335:217|329:236,1,76,0|8,0:0|0:0,0:0:0:0:
237,285,458404,1,0,0:0:0:0:
237,285,458476,1,0,0:0:0:0:
237,285,458547,2,0,P|272:322|300:330,1,76,4|0,0:0|0:0,0:0:0:0:
438,151,458976,5,0,0:0:0:0:
368,61,459118,1,4,0:0:0:0:
144,61,459404,5,8,0:0:0:0:
74,151,459547,2,0,P|100:200|191:240,1,152,4|0,0:0|0:0,0:0:0:0:
293,203,459976,1,8,0:0:0:0:
327,310,460118,2,0,P|370:288|390:265,1,76
327,94,460404,2,0,P|370:116|390:139,1,76,0|8,0:0|0:0,0:0:0:0:
293,203,460690,2,0,L|141:203,1,152
340,315,461118,5,12,0:0:0:0:
203,132,461261,1,4,0:0:0:0:
220,277,461404,1,4,0:0:0:0:
303,68,461547,1,4,0:0:0:0:
100,238,461690,1,12,0:0:0:0:
401,5,461833,2,0,P|455:34|475:58,2,76,4|0|0,0:0|0:0|0:0,0:0:0:0:
366,113,462261,6,0,P|403:156|413:193,1,76,8|0,0:0|0:0,0:0:0:0:
391,286,462547,1,0,0:0:0:0:
286,330,462690,2,0,P|241:350|208:352,1,76,0|8,0:0|0:0,0:0:0:0:
145,174,462976,6,0,P|82:163|66:155,2,76,0|0|0,0:0|0:0|0:0,0:0:0:0:
254,204,463404,2,0,L|342:222,1,76,8|0,0:0|0:0,0:0:0:0:
440,195,463690,2,0,L|388:135,1,76,0|0,0:0|0:0,0:0:0:0:
277,114,463976,1,8,0:0:0:0:
175,273,464118,6,0,P|123:297|85:298,1,76,4|0,0:0|0:0,0:0:0:0:
44,201,464404,1,0,0:0:0:0:
63,177,464476,1,0,0:0:0:0:
82,153,464547,1,8,0:0:0:0:
33,49,464690,1,0,0:0:0:0:
145,74,464833,2,0,P|192:88|228:82,1,76
322,39,465118,1,8,0:0:0:0:
308,229,465261,6,0,P|285:274|253:302,2,76,4|0|0,0:0|0:0|0:0,0:0:0:0:
348,121,465690,1,8,0:0:0:0:
241,161,465833,2,0,P|192:165|138:155,1,76
89,247,466118,1,0,0:0:0:0:
179,316,466261,1,8,0:0:0:0:
110,139,466404,6,0,P|123:97|157:65,1,76,4|0,0:0|0:0,0:0:0:0:
258,83,466690,1,0,0:0:0:0:
311,183,466833,1,8,0:0:0:0:
425,181,466976,2,0,P|396:249|392:263,1,76
437,356,467261,2,0,P|385:364|344:350,1,76,0|8,0:0|0:0,0:0:0:0:
201,256,467547,6,0,B|163:212|172:160|172:160|111:141,1,152,4|0,0:0|0:0,0:0:0:0:
64,242,467976,1,8,0:0:0:0:
131,332,468118,2,0,P|165:355|209:358,1,76
307,320,468404,1,0,0:0:0:0:
372,226,468547,1,8,0:0:0:0:
236,93,468690,6,0,P|189:77|157:52,2,76,4|0|0,0:0|0:0|0:0,0:0:0:0:
346,121,469118,2,0,P|409:102|440:85,1,76,8|0,0:0|0:0,0:0:0:0:
449,208,469404,1,0,0:0:0:0:
400,311,469547,2,0,P|335:291|306:270,1,76,0|8,0:0|0:0,0:0:0:0:
170,181,469833,6,0,P|131:228|147:317,1,152,4|0,0:0|0:0,0:0:0:0:
38,269,470261,2,0,B|54:222|32:157|32:157|49:123,1,152,12|0,0:0|0:0,0:0:0:0:
316,56,470690,1,0,0:0:0:0:
316,56,470976,6,0,P|292:132|368:253,1,227.999993041992,4|0,0:0|0:0,0:0:0:0:
492,365,471404,2,0,P|389:362|263:315,1,227.999993041992,8|0,0:0|0:0,0:0:0:0:
89,127,471833,5,0,0:0:0:0:
89,127,471976,1,8,0:0:0:0:
89,127,472118,2,0,B|99:187|162:211|162:211|192:325,1,227.999993041992,4|0,0:0|0:0,0:0:0:0:
357,360,472547,1,8,0:0:0:0:
466,229,472689,2,0,P|477:152|456:106,2,113.999996520996,0|0|0,0:0|0:0|0:0,0:0:0:0:
299,274,473118,1,8,0:0:0:0:
135,324,473261,2,0,B|66:312|66:312|140:239|86:158,1,227.999993041992,4|0,0:0|0:0,0:0:0:0:
203,38,473689,1,8,0:0:0:0:
214,208,473832,2,0,L|222:325,1,113.999996520996
392,300,474118,1,0,0:0:0:0:
379,130,474260,2,0,P|335:66|335:10,1,113.999996520996,8|0,0:0|0:0,0:0:0:0:
183,120,474546,1,0,0:0:0:0:
334,200,474689,2,0,P|322:280|282:312,1,113.999996520996,0|8,0:0|0:0,0:0:0:0:
129,317,474975,5,0,0:0:0:0:
248,194,475118,1,0,0:0:0:0:
79,169,475260,1,0,0:0:0:0:
212,62,475403,1,8,0:0:0:0:
382,89,475547,2,0,B|355:142|355:142|424:197|372:297,1,227.999993041992,4|0,0:0|0:0,0:0:0:0:
210,346,475975,1,8,0:0:0:0:
322,216,476118,1,0,0:0:0:0:
153,235,476260,1,0,0:0:0:0:
265,105,476403,1,0,0:0:0:0:
242,274,476546,1,8,0:0:0:0:
394,351,476689,5,0,0:0:0:0:
394,351,476832,2,0,B|473:290|489:249|489:249|397:221,1,227.999993041992,4|8,0:0|0:0,0:0:0:0:
240,182,477260,1,0,0:0:0:0:
104,286,477403,1,0,0:0:0:0:
275,284,477546,1,0,0:0:0:0:
141,176,477689,5,8,0:0:0:0:
43,35,477832,1,4,0:0:0:0:
300,39,478047,1,0,0:0:0:0:
337,52,478118,1,0,0:0:0:0:
362,82,478190,1,0,0:0:0:0:
369,120,478261,1,8,0:0:0:0:
356,158,478333,1,0,0:0:0:0:
324,180,478403,1,4,0:0:0:0:
80,261,478618,5,0,0:0:0:0:
66,297,478688,1,0,0:0:0:0:
77,336,478760,1,0,0:0:0:0:
104,363,478831,1,8,0:0:0:0:
141,374,478903,1,0,0:0:0:0:
179,364,478974,1,4,0:0:0:0:
398,227,479190,5,0,0:0:0:0:
426,254,479261,1,0,0:0:0:0:
430,294,479333,1,0,0:0:0:0:
412,329,479404,1,8,0:0:0:0:
374,342,479476,1,0,0:0:0:0:
336,329,479547,1,4,0:0:0:0:
192,237,479689,5,0,0:0:0:0:
183,198,479760,1,0,0:0:0:0:
154,169,479832,1,0,0:0:0:0:
118,152,479903,1,0,0:0:0:0:
94,119,479975,1,8,0:0:0:0:
103,80,480046,1,0,0:0:0:0:
134,55,480118,2,0,B|192:23|231:73|272:136|348:86,1,227.999993041992,4|0,0:0|0:0,0:0:0:0:
280,248,480546,5,8,0:0:0:0:
443,197,480689,1,0,0:0:0:0:
373,353,480832,1,0,0:0:0:0:
202,341,480975,2,0,P|132:320|90:277,1,113.999996520996,0|8,0:0|0:0,0:0:0:0:
46,131,481260,1,0,0:0:0:0:
213,89,481404,2,0,P|280:51|309:17,2,113.999996520996,0|0|8,0:0|0:0|0:0,0:0:0:0:
46,131,481832,1,0,0:0:0:0:
164,254,481975,1,0,0:0:0:0:
326,308,482118,1,0,0:0:0:0:
264,149,482260,1,8,0:0:0:0:
243,318,482403,2,0,B|199:374|111:358|111:358|63:274,1,227.999993041992,4|0,0:0|0:0,0:0:0:0:
146,132,482832,5,8,0:0:0:0:
312,91,482975,1,0,0:0:0:0:
189,210,483118,1,0,0:0:0:0:
241,48,483260,1,0,0:0:0:0:
389,133,483403,1,8,0:0:0:0:
384,304,483546,2,0,P|332:340|260:344,1,113.999996520996
116,302,483832,2,0,P|187:304|230:281,1,113.999996520996,0|8,0:0|0:0,0:0:0:0:
146,131,484118,1,0,0:0:0:0:
302,197,484260,6,0,L|403:247,2,113.999996520996,0|0|8,0:0|0:0|0:0,0:0:0:0:
129,220,484690,2,0,P|54:146|119:44,1,227.999993041992,4|0,0:0|0:0,0:0:0:0:
255,127,485118,5,8,0:0:0:0:
200,287,485260,1,0,0:0:0:0:
255,127,485403,1,0,0:0:0:0:
307,289,485546,1,0,0:0:0:0:
422,162,485689,1,8,0:0:0:0:
303,36,485833,2,0,P|184:53|160:159,1,227.999993041992,4|0,0:0|0:0,0:0:0:0:
248,286,486260,5,8,0:0:0:0:
83,330,486402,1,0,0:0:0:0:
248,286,486545,1,0,0:0:0:0:
413,330,486688,1,0,0:0:0:0:
248,199,486831,1,8,0:0:0:0:
98,113,486975,2,0,B|22:53|22:53|74:9|166:29,1,227.999993041992,4|0,0:0|0:0,0:0:0:0:
376,192,487403,1,8,0:0:0:0:
98,271,487547,2,0,B|22:331|22:331|74:375|166:355,1,227.999993041992,4|0,0:0|0:0,0:0:0:0:
116,192,487975,5,8,0:0:0:0:
276,128,488118,2,0,P|332:64|352:24,2,113.999996520996,4|0|0,0:0|0:0|0:0,0:0:0:0:
188,276,488546,1,8,0:0:0:0:
340,360,488690,2,0,B|376:292|352:232|352:232|412:152,1,227.999993041992,4|0,0:0|0:0,0:0:0:0:
256,80,489118,5,8,0:0:0:0:
140,280,489261,2,0,P|144:310|113:258,1,227.999993041992,4|0,0:0|0:0,0:0:0:0:
256,80,489689,1,8,0:0:0:0:
372,280,489833,2,0,P|367:310|398:258,1,227.999993041992,4|0,0:0|0:0,0:0:0:0:
256,192,490260,1,8,0:0:0:0:
116,92,490404,2,0,L|16:8,2,113.999996520996,4|0|0,0:0|0:0|0:0,0:0:0:0:
256,192,490832,1,8,0:0:0:0:
396,292,490976,2,0,L|496:376,2,113.999996520996,4|0|0,0:0|0:0|0:0,0:0:0:0:
256,192,491403,1,8,0:0:0:0:
368,64,491546,6,0,L|480:32,1,113.999996520996,4|0,0:0|0:0,0:0:0:0:
144,320,491833,2,0,L|32:352,1,113.999996520996,0|8,0:0|0:0,0:0:0:0:
398,99,492118,2,0,L|515:99,1,113.999996520996
113,284,492403,2,0,L|-6:284,1,113.999996520996,0|8,0:0|0:0,0:0:0:0:
418,142,492690,2,0,L|530:175,1,113.999996520996
93,241,492975,2,0,L|-18:207,1,113.999996520996,0|8,0:0|0:0,0:0:0:0:
426,189,493261,2,0,L|524:251,1,113.999996520996
85,194,493546,2,0,L|-14:131,1,113.999996520996,0|8,0:0|0:0,0:0:0:0:
369,78,493832,5,0,0:0:0:0:
142,305,493975,1,0,0:0:0:0:
369,305,494118,1,0,0:0:0:0:
142,78,494260,1,8,0:0:0:0:
256,352,494403,1,0,0:0:0:0:
256,32,494546,1,0,0:0:0:0:
369,306,494690,1,0,0:0:0:0:
142,79,494833,1,8,0:0:0:0:
369,79,494976,1,0,0:0:0:0:
142,306,495118,1,0,0:0:0:0:
416,192,495261,1,0,0:0:0:0:
96,192,495404,1,8,0:0:0:0:
256,352,495547,1,0,0:0:0:0:
256,32,495690,2,0,L|256:262,1,227.999993041992,4|0,0:0|0:0,0:0:0:0:
176,325,498404,6,0,B|106:290|100:189|100:189|54:136,1,227.999993041992,4|0,0:0|0:0,0:0:0:0:
190,34,498831,1,8,0:0:0:0:
256,191,498974,1,0,0:0:0:0:
360,55,499117,1,0,0:0:0:0:
430,210,499260,1,0,0:0:0:0:
256,191,499403,1,8,0:0:0:0:
390,299,499547,6,0,B|329:348|235:354|235:354|272:284,1,227.999993041992,4|0,0:0|0:0,0:0:0:0:
350,154,499974,1,8,0:0:0:0:
182,119,500117,2,0,L|128:14,2,113.999996520996
99,269,500545,1,8,0:0:0:0:
271,253,500690,6,0,B|380:212|380:212|342:165|266:171,1,227.999993041992,4|0,0:0|0:0,0:0:0:0:
111,187,501117,2,0,P|83:133|87:70,2,113.999996520996,8|0|0,0:0|0:0|0:0,0:0:0:0:
214,323,501545,1,0,0:0:0:0:
385,318,501688,2,0,P|428:282|444:228,1,113.999996520996,8|0,0:0|0:0,0:0:0:0:
351,81,501975,1,0,0:0:0:0:
216,186,502118,1,0,0:0:0:0:
285,31,502260,1,8,0:0:0:0:
293,201,502403,1,0,0:0:0:0:
205,55,502545,5,0,0:0:0:0:
49,127,502688,2,0,L|13:239,1,113.999996520996,0|8,0:0|0:0,0:0:0:0:
127,368,502976,2,0,B|156:280|156:280|195:327|269:331|304:297,1,227.999993041992,4|0,0:0|0:0,0:0:0:0:
401,195,503403,2,0,L|492:117,2,113.999996520996,8|0|0,0:0|0:0|0:0,0:0:0:0:
284,67,503832,1,0,0:0:0:0:
237,230,503974,1,8,0:0:0:0:
64,227,504118,2,0,B|43:161|86:64|86:64|150:101,1,227.999993041992,4|0,0:0|0:0,0:0:0:0:
295,160,504546,5,8,0:0:0:0:
362,315,504688,1,0,0:0:0:0:
190,316,504831,1,0,0:0:0:0:
181,142,504976,2,0,P|242:56|357:64,1,227.999993041992
370,232,505404,2,0,P|297:266|255:258,1,113.999996520996
114,181,505689,1,8,0:0:0:0:
89,350,505832,1,0,0:0:0:0:
114,181,505976,1,0,0:0:0:0:
89,12,506118,1,0,0:0:0:0:
114,181,506260,1,8,0:0:0:0:
288,181,506404,6,0,L|403:181,1,113.999996520996,4|0,0:0|0:0,0:0:0:0:
114,181,506688,1,0,0:0:0:0:
235,46,506833,1,8,0:0:0:0:
114,181,506976,1,0,0:0:0:0:
235,298,507117,1,0,0:0:0:0:
114,181,507261,1,0,0:0:0:0:
454,181,507403,1,8,0:0:0:0:
454,181,507547,6,0,P|476:275|358:374,1,227.999993041992,4|0,0:0|0:0,0:0:0:0:
296,244,507974,1,8,0:0:0:0:
381,101,508117,1,0,0:0:0:0:
296,244,508261,1,0,0:0:0:0:
228,88,508403,1,0,0:0:0:0:
296,244,508545,1,8,0:0:0:0:
150,338,508690,2,0,B|49:297|49:297|87:248|80:178,1,227.999993041992,4|0,0:0|0:0,0:0:0:0:
19,26,509117,1,8,0:0:0:0:
191,20,509261,2,0,P|274:26|297:51,1,113.999996520996
229,205,509547,1,0,0:0:0:0:
368,109,509688,1,8,0:0:0:0:
469,250,509833,6,0,P|354:254|261:351,1,227.999993041992,4|0,0:0|0:0,0:0:0:0:
116,258,510260,1,8,0:0:0:0:
221,123,510403,1,0,0:0:0:0:
51,134,510545,1,0,0:0:0:0:
203,211,510688,2,0,P|264:205|302:152,1,113.999996520996,0|8,0:0|0:0,0:0:0:0:
386,17,510976,2,0,B|454:48|465:117|465:117|351:108,1,227.999993041992,4|0,0:0|0:0,0:0:0:0:
214,43,511403,5,8,0:0:0:0:
128,189,511545,2,0,L|190:292,1,113.999996520996
352,335,511831,1,0,0:0:0:0:
376,165,511974,1,8,0:0:0:0:
206,131,512118,2,0,P|93:98|28:176,2,227.999993041992,4|0|0,0:0|0:0|0:0,0:0:0:0:
327,250,512831,1,0,0:0:0:0:
367,83,512974,1,0,0:0:0:0:
420,245,513117,1,8,0:0:0:0:
274,335,513260,2,0,B|177:325|177:325|129:282|129:282|46:273,1,227.999993041992,4|0,0:0|0:0,0:0:0:0:
98,107,513688,6,0,L|10:10,2,113.999996520996,8|0|0,0:0|0:0|0:0,0:0:0:0:
226,221,514117,1,0,0:0:0:0:
267,54,514260,1,8,0:0:0:0:
351,204,514404,2,0,P|423:244|481:244,2,113.999996520996,4|0|0,0:0|0:0|0:0,0:0:0:0:
188,145,514833,2,0,P|140:200|139:238,1,113.999996520996,8|0,0:0|0:0,0:0:0:0:
295,305,515117,1,0,0:0:0:0:
306,134,515260,2,0,L|410:67,1,113.999996520996,0|8,0:0|0:0,0:0:0:0:
232,41,515546,1,0,0:0:0:0:
80,123,515690,1,0,0:0:0:0:
104,291,515832,1,0,0:0:0:0:
104,291,515903,1,0,0:0:0:0:
104,291,515975,2,0,P|160:328|221:338,1,113.999996520996,12|0,0:0|0:0,0:0:0:0:
438,173,516260,5,0,0:0:0:0:
156,215,516403,1,0,0:0:0:0:
404,355,516546,1,8,0:0:0:0:
310,85,516689,6,0,B|255:166|255:166|211:100|135:111,1,227.999993041992,4|0,0:0|0:0,0:0:0:0:
21,229,517118,1,8,0:0:0:0:
422,105,517404,5,0,0:0:0:0:
90,279,517547,1,4,0:0:0:0:
256,192,517689,12,0,518546,0:0:0:0:
