osu file format v14

[General]
AudioFilename: Red Like Roses.mp3
AudioLeadIn: 0
PreviewTime: 0
Countdown: 1
SampleSet: Soft
StackLeniency: 0.2
Mode: 0
LetterboxInBreaks: 1
WidescreenStoryboard: 1

[Editor]
Bookmarks: 123597,187721
DistanceSpacing: 1.2
BeatDivisor: 4
GridSize: 32
TimelineZoom: 2.4

[Metadata]
Title:Red Like Roses [Hard Part Training]
TitleUnicode:Red Like Roses [Hard Part Training]
Artist:Jeff Williams
ArtistUnicode:Jeff Williams
Creator:- - Makrica - -
Version:Squares
Source:RWBY
Tags:Jeff Williams Red Like Roses
BeatmapID:1533683
BeatmapSetID:668593

[Difficulty]
HPDrainRate:5
CircleSize:4
OverallDifficulty:10
ApproachRate:10
SliderMultiplier:1.9
SliderTickRate:1

[Events]
//Background and Video events
0,0,"rwby-anime-ruby_rose.jpg",0,0
//Break Periods
//Storyboard Layer 0 (Background)
//Storyboard Layer 1 (Fail)
//Storyboard Layer 2 (Pass)
//Storyboard Layer 3 (Foreground)
//Storyboard Sound Samples

[TimingPoints]
297,285.714285714286,4,2,0,70,1,0

[Colours]
Combo1 : 255,255,255
Combo2 : 223,0,5
Combo3 : 232,243,3
Combo4 : 166,171,234

[HitObjects]
224,192,18582,5,6,3:2:0:0:
256,160,18725,1,2,3:2:0:0:
288,192,18868,1,2,3:2:0:0:
256,224,19011,1,10,3:2:0:0:
224,192,19154,5,2,3:2:0:0:
256,160,19297,1,2,3:2:0:0:
288,192,19440,1,2,3:2:0:0:
256,224,19583,1,10,3:2:0:0:
224,192,19725,5,2,3:2:0:0:
256,160,19868,1,2,3:2:0:0:
288,192,20011,1,2,3:2:0:0:
256,224,20154,1,10,3:2:0:0:
224,192,20296,5,2,3:2:0:0:
256,160,20439,1,2,3:2:0:0:
288,192,20582,1,2,3:2:0:0:
256,224,20725,1,10,3:2:0:0:
192,192,20868,5,6,3:2:0:0:
256,128,21011,1,2,3:2:0:0:
320,192,21154,1,2,3:2:0:0:
256,256,21297,1,10,3:2:0:0:
192,192,21439,5,2,3:2:0:0:
256,128,21582,1,2,3:2:0:0:
320,192,21725,1,2,3:2:0:0:
256,256,21868,1,10,3:2:0:0:
192,192,22011,5,2,3:2:0:0:
256,128,22154,1,2,3:2:0:0:
320,192,22297,1,2,3:2:0:0:
256,256,22440,1,10,3:2:0:0:
192,192,22582,5,2,3:2:0:0:
256,128,22725,1,2,3:2:0:0:
320,192,22868,1,2,3:2:0:0:
256,256,23011,1,10,3:2:0:0:
160,192,23154,5,6,3:2:0:0:
256,96,23297,1,2,3:2:0:0:
352,192,23440,1,2,3:2:0:0:
256,288,23582,1,10,3:2:0:0:
160,192,23725,5,2,3:2:0:0:
256,96,23868,1,2,3:2:0:0:
352,192,24011,1,2,3:2:0:0:
256,288,24153,1,10,3:2:0:0:
160,192,24296,5,2,3:2:0:0:
256,96,24439,1,2,3:2:0:0:
352,192,24582,1,2,3:2:0:0:
256,288,24724,1,10,3:2:0:0:
160,192,24868,5,2,3:2:0:0:
256,96,25011,1,2,3:2:0:0:
352,192,25154,1,2,3:2:0:0:
256,288,25296,1,10,3:2:0:0:
128,192,25439,5,6,3:2:0:0:
256,64,25582,1,2,3:2:0:0:
384,192,25725,1,2,3:2:0:0:
256,320,25868,1,10,3:2:0:0:
128,192,26011,5,2,3:2:0:0:
256,64,26154,1,2,3:2:0:0:
384,192,26297,1,2,3:2:0:0:
256,320,26440,1,10,3:2:0:0:
128,192,26582,5,6,3:2:0:0:
256,64,26725,1,2,3:2:0:0:
384,192,26868,1,2,3:2:0:0:
256,320,27011,1,10,3:2:0:0:
128,192,27154,5,6,3:2:0:0:
256,64,27297,1,2,3:2:0:0:
384,192,27440,1,2,3:2:0:0:
256,320,27583,1,10,3:2:0:0:
384,192,27725,1,6,3:2:0:0:
256,64,27868,1,2,3:2:0:0:
128,192,28011,1,2,3:2:0:0:
256,320,28154,5,10,3:2:0:0:
384,192,28297,1,2,3:2:0:0:
256,64,28440,1,2,3:2:0:0:
128,192,28583,1,2,3:2:0:0:
256,320,28725,5,10,3:2:0:0:
384,192,28868,1,2,3:2:0:0:
256,64,29011,1,2,3:2:0:0:
128,192,29154,1,2,3:2:0:0:
256,320,29297,5,10,3:2:0:0:
384,192,29440,1,2,3:2:0:0:
256,64,29583,1,2,3:2:0:0:
128,192,29726,1,2,3:2:0:0:
256,288,29869,5,10,3:2:0:0:
352,192,30011,1,6,3:2:0:0:
256,96,30154,1,2,3:2:0:0:
160,192,30297,1,2,3:2:0:0:
256,288,30439,5,10,3:2:0:0:
352,192,30583,1,2,3:2:0:0:
256,96,30726,1,2,3:2:0:0:
160,192,30869,1,2,3:2:0:0:
256,288,31012,5,10,3:2:0:0:
352,192,31154,1,2,3:2:0:0:
256,96,31297,1,2,3:2:0:0:
160,192,31440,1,2,3:2:0:0:
256,288,31583,5,10,3:2:0:0:
352,192,31725,1,2,3:2:0:0:
256,96,31868,1,2,3:2:0:0:
160,192,32011,1,2,3:2:0:0:
256,256,32154,5,10,3:2:0:0:
320,192,32297,1,6,3:2:0:0:
256,128,32440,1,2,3:2:0:0:
192,192,32583,1,2,3:2:0:0:
256,256,32725,5,10,3:2:0:0:
320,192,32868,1,2,3:2:0:0:
256,128,33011,1,2,3:2:0:0:
192,192,33154,1,2,3:2:0:0:
256,256,33297,5,10,3:2:0:0:
320,192,33440,1,2,3:2:0:0:
256,128,33583,1,2,3:2:0:0:
192,192,33726,1,2,3:2:0:0:
256,256,33868,5,10,3:2:0:0:
320,192,34011,1,2,3:2:0:0:
256,128,34154,1,2,3:2:0:0:
192,192,34297,1,2,3:2:0:0:
256,224,34440,5,10,3:2:0:0:
288,192,34583,1,6,3:2:0:0:
256,160,34726,1,2,3:2:0:0:
224,192,34869,1,2,3:2:0:0:
256,224,35011,5,10,3:2:0:0:
288,192,35154,1,2,3:2:0:0:
256,160,35297,1,2,3:2:0:0:
224,192,35440,1,2,3:2:0:0:
256,224,35582,5,10,3:2:0:0:
288,192,35725,1,6,3:2:0:0:
256,160,35868,1,2,3:2:0:0:
224,192,36011,1,2,3:2:0:0:
256,224,36154,5,10,3:2:0:0:
288,192,36297,1,6,3:2:0:0:
256,160,36440,1,10,3:2:0:0:
224,192,36582,1,10,3:2:0:0:
160,128,36725,5,10,3:2:0:0:
352,128,36868,1,6,3:2:0:0:
160,256,37011,1,2,3:2:0:0:
352,256,37154,1,2,3:2:0:0:
160,128,37296,1,10,3:2:0:0:
352,128,37439,1,2,3:2:0:0:
160,256,37582,1,2,3:2:0:0:
352,256,37725,1,2,3:2:0:0:
160,128,37868,5,10,3:2:0:0:
352,128,38011,1,2,3:2:0:0:
160,256,38154,1,2,3:2:0:0:
352,256,38297,1,2,3:2:0:0:
160,128,38439,1,10,3:2:0:0:
352,128,38582,1,2,3:2:0:0:
160,256,38725,1,2,3:2:0:0:
352,256,38868,1,2,3:2:0:0:
160,256,39011,5,14,3:2:0:0:
352,128,39154,1,2,3:2:0:0:
160,128,39297,1,2,3:2:0:0:
352,256,39439,1,2,3:2:0:0:
160,256,39582,1,10,3:2:0:0:
352,128,39725,1,2,3:2:0:0:
160,128,39868,1,2,3:2:0:0:
352,256,40011,1,2,3:2:0:0:
160,256,40154,5,10,3:2:0:0:
352,128,40297,1,2,3:2:0:0:
160,128,40439,1,2,3:2:0:0:
352,256,40582,1,2,3:2:0:0:
160,256,40725,1,10,3:2:0:0:
352,128,40868,1,2,3:2:0:0:
160,128,41011,1,2,3:2:0:0:
352,256,41154,1,2,3:2:0:0:
192,96,41296,5,10,3:2:0:0:
192,288,41439,1,6,3:2:0:0:
320,96,41582,1,2,3:2:0:0:
320,288,41725,1,2,3:2:0:0:
192,96,41867,1,10,3:2:0:0:
192,288,42010,1,2,3:2:0:0:
320,96,42153,1,2,3:2:0:0:
320,288,42296,1,2,3:2:0:0:
192,96,42439,5,10,3:2:0:0:
192,288,42582,1,2,3:2:0:0:
320,96,42725,1,2,3:2:0:0:
320,288,42868,1,2,3:2:0:0:
192,96,43010,1,10,3:2:0:0:
192,288,43153,1,2,3:2:0:0:
320,96,43296,1,6,3:2:0:0:
320,288,43439,1,2,3:2:0:0:
320,96,43582,5,10,3:2:0:0:
192,288,43725,1,2,3:2:0:0:
192,96,43868,1,6,3:2:0:0:
320,288,44010,1,2,3:2:0:0:
320,96,44153,1,10,3:2:0:0:
192,288,44296,1,2,3:2:0:0:
192,96,44439,1,6,3:2:0:0:
320,288,44582,1,2,3:2:0:0:
320,96,44725,5,10,3:2:0:0:
192,288,44868,1,2,3:2:0:0:
192,96,45010,1,6,3:2:0:0:
320,288,45153,1,2,3:2:0:0:
320,96,45296,1,10,3:2:0:0:
192,288,45439,1,2,3:2:0:0:
192,96,45582,1,6,3:2:0:0:
320,288,45725,1,2,3:2:0:0:
96,192,45868,5,14,3:2:0:0:
416,192,46011,1,2,3:2:0:0:
256,32,46154,1,2,3:2:0:0:
256,352,46296,1,2,3:2:0:0:
96,192,46439,1,10,3:2:0:0:
416,192,46582,1,2,3:2:0:0:
256,32,46725,1,2,3:2:0:0:
256,352,46867,1,2,3:2:0:0:
96,192,47011,5,10,3:2:0:0:
416,192,47154,1,2,3:2:0:0:
256,32,47297,1,2,3:2:0:0:
256,352,47439,1,2,3:2:0:0:
96,192,47582,1,10,3:2:0:0:
416,192,47725,1,2,3:2:0:0:
256,32,47868,1,2,3:2:0:0:
256,352,48010,1,2,3:2:0:0:
256,32,48154,5,14,3:2:0:0:
416,192,48297,1,2,3:2:0:0:
96,192,48440,1,2,3:2:0:0:
256,352,48583,1,2,3:2:0:0:
256,32,48725,1,10,3:2:0:0:
416,192,48868,1,2,3:2:0:0:
96,192,49011,1,2,3:2:0:0:
256,352,49154,1,2,3:2:0:0:
256,32,49296,5,10,3:2:0:0:
416,192,49439,1,2,3:2:0:0:
96,192,49582,1,2,3:2:0:0:
256,352,49725,1,2,3:2:0:0:
256,32,49867,1,10,3:2:0:0:
416,192,50010,1,2,3:2:0:0:
96,192,50153,1,2,3:2:0:0:
256,352,50296,1,2,3:2:0:0:
256,32,50439,5,14,3:2:0:0:
256,352,50582,1,2,3:2:0:0:
96,192,50725,1,2,3:2:0:0:
416,192,50867,1,2,3:2:0:0:
256,32,51010,1,10,3:2:0:0:
256,352,51153,1,2,3:2:0:0:
96,192,51296,1,2,3:2:0:0:
416,192,51438,1,2,3:2:0:0:
256,32,51582,5,10,3:2:0:0:
256,352,51725,1,2,3:2:0:0:
96,192,51868,1,2,3:2:0:0:
416,192,52010,1,2,3:2:0:0:
256,32,52153,1,10,3:2:0:0:
256,352,52296,1,2,3:2:0:0:
96,192,52439,1,2,3:2:0:0:
416,192,52581,1,2,3:2:0:0:
96,192,52725,5,14,3:2:0:0:
256,352,52868,1,10,3:2:0:0:
256,32,53011,1,10,3:2:0:0:
416,192,53154,1,10,3:2:0:0:
96,192,53296,1,10,3:2:0:0:
256,352,53439,1,10,3:2:0:0:
256,32,53582,1,10,3:2:0:0:
416,192,53725,1,10,3:2:0:0:
96,192,53867,5,10,3:2:0:0:
256,352,54010,1,10,3:2:0:0:
256,32,54153,1,10,3:2:0:0:
416,192,54296,1,10,3:2:0:0:
96,192,54438,1,10,3:2:0:0:
256,352,54581,1,10,3:2:0:0:
256,32,54724,1,10,3:2:0:0:
416,192,54867,1,10,3:2:0:0:
256,352,55011,5,10,3:2:0:0:
224,352,55154,1,6,3:2:0:0:
288,352,55296,1,2,3:2:0:0:
192,352,55439,1,2,3:2:0:0:
320,352,55582,1,10,3:2:0:0:
160,352,55725,1,2,3:2:0:0:
352,352,55868,1,2,3:2:0:0:
128,352,56011,1,2,3:2:0:0:
384,352,56154,1,10,3:2:0:0:
96,352,56296,1,2,3:2:0:0:
416,352,56439,1,2,3:2:0:0:
64,352,56582,1,2,3:2:0:0:
448,352,56725,1,10,3:2:0:0:
32,352,56868,1,2,3:2:0:0:
480,352,57011,1,2,3:2:0:0:
64,352,57154,5,2,3:2:0:0:
448,352,57297,1,10,3:2:0:0:
96,352,57440,1,6,3:2:0:0:
416,352,57583,1,2,3:2:0:0:
128,352,57725,1,2,3:2:0:0:
384,352,57868,1,10,3:2:0:0:
160,352,58011,1,2,3:2:0:0:
352,352,58154,1,2,3:2:0:0:
192,352,58297,1,2,3:2:0:0:
320,352,58440,1,10,3:2:0:0:
224,352,58583,1,2,3:2:0:0:
288,352,58725,1,2,3:2:0:0:
256,352,58868,5,2,3:2:0:0:
256,32,59011,1,10,3:2:0:0:
256,320,59154,1,2,3:2:0:0:
256,64,59296,1,2,3:2:0:0:
256,288,59439,1,2,3:2:0:0:
256,96,59582,1,10,3:2:0:0:
256,256,59725,1,6,3:2:0:0:
256,128,59868,1,2,3:2:0:0:
256,224,60011,1,2,3:2:0:0:
256,160,60154,1,10,3:2:0:0:
256,192,60296,1,2,3:2:0:0:
256,224,60439,5,2,3:2:0:0:
256,160,60582,1,2,3:2:0:0:
256,256,60725,1,10,3:2:0:0:
256,128,60868,1,2,3:2:0:0:
256,288,61011,1,2,3:2:0:0:
256,96,61154,1,2,3:2:0:0:
256,320,61297,1,10,3:2:0:0:
256,64,61439,1,2,3:2:0:0:
256,352,61582,1,2,3:2:0:0:
256,32,61725,5,2,3:2:0:0:
352,320,61868,1,10,3:2:0:0:
104,139,62011,1,14,3:2:0:0:
408,139,62154,1,10,3:2:0:0:
158,321,62296,1,10,3:2:0:0:
256,32,62439,5,10,3:2:0:0:
352,320,62582,1,14,3:2:0:0:
104,139,62725,1,10,3:2:0:0:
408,139,62868,1,10,3:2:0:0:
158,321,63010,1,10,3:2:0:0:
256,32,63154,5,14,3:2:0:0:
352,320,63297,1,10,3:2:0:0:
104,139,63440,1,10,3:2:0:0:
408,139,63583,1,10,3:2:0:0:
158,321,63725,1,14,3:2:0:0:
256,95,63868,5,10,3:2:0:0:
314,269,64011,1,10,3:2:0:0:
164,159,64154,1,10,3:2:0:0:
348,160,64297,1,6,3:2:0:0:
197,270,64439,1,2,3:2:0:0:
256,95,64582,5,2,3:2:0:0:
314,269,64725,1,10,3:2:0:0:
164,159,64868,1,2,3:2:0:0:
348,160,65011,1,2,3:2:0:0:
197,270,65153,1,2,3:2:0:0:
256,95,65296,5,10,3:2:0:0:
314,269,65439,1,2,3:2:0:0:
164,159,65582,1,2,3:2:0:0:
348,160,65725,1,2,3:2:0:0:
197,270,65867,1,10,3:2:0:0:
255,143,66011,5,2,3:2:0:0:
285,230,66154,1,2,3:2:0:0:
209,175,66297,1,2,3:2:0:0:
302,175,66440,1,10,3:2:0:0:
226,230,66582,1,2,3:2:0:0:
255,143,66725,5,2,3:2:0:0:
285,230,66868,1,2,3:2:0:0:
209,175,67011,1,10,3:2:0:0:
302,175,67154,1,2,3:2:0:0:
226,230,67296,1,2,3:2:0:0:
255,143,67439,5,2,3:2:0:0:
285,230,67582,1,10,3:2:0:0:
209,175,67725,1,2,3:2:0:0:
302,175,67868,1,2,3:2:0:0:
226,230,68010,1,2,3:2:0:0:
302,175,68154,1,10,3:2:0:0:
209,175,68297,1,2,3:2:0:0:
285,230,68440,1,2,3:2:0:0:
255,143,68583,1,2,3:2:0:0:
226,230,68726,5,10,3:2:0:0:
302,175,68868,1,6,3:2:0:0:
209,175,69011,1,2,3:2:0:0:
285,230,69154,1,2,3:2:0:0:
255,143,69297,1,10,3:2:0:0:
226,230,69440,5,2,3:2:0:0:
302,175,69582,1,2,3:2:0:0:
209,175,69725,1,2,3:2:0:0:
285,230,69868,1,10,3:2:0:0:
255,143,70011,1,2,3:2:0:0:
197,270,70155,5,2,3:2:0:0:
348,160,70297,1,2,3:2:0:0:
164,159,70440,1,10,3:2:0:0:
314,269,70583,1,2,3:2:0:0:
256,95,70726,1,2,3:2:0:0:
197,270,70869,5,2,3:2:0:0:
348,160,71011,1,10,3:2:0:0:
164,159,71154,1,2,3:2:0:0:
314,269,71297,1,2,3:2:0:0:
256,95,71440,1,2,3:2:0:0:
197,270,71583,5,10,3:2:0:0:
348,160,71725,1,2,3:2:0:0:
164,159,71868,1,2,3:2:0:0:
314,269,72011,1,2,3:2:0:0:
256,95,72154,1,10,3:2:0:0:
158,321,72297,5,2,3:2:0:0:
408,139,72439,1,2,3:2:0:0:
104,139,72582,1,2,3:2:0:0:
352,320,72725,1,10,3:2:0:0:
256,32,72868,1,2,3:2:0:0:
158,321,73012,5,2,3:2:0:0:
408,139,73154,1,2,3:2:0:0:
104,139,73297,1,10,3:2:0:0:
352,320,73440,1,2,3:2:0:0:
256,32,73583,1,2,3:2:0:0:
158,321,73726,5,2,3:2:0:0:
408,139,73868,1,10,3:2:0:0:
104,139,74011,1,2,3:2:0:0:
352,320,74154,1,2,3:2:0:0:
256,32,74297,1,2,3:2:0:0:
377,192,74439,5,10,3:2:0:0:
137,193,74582,1,2,3:2:0:0:
341,277,74725,1,2,3:2:0:0:
172,108,74868,1,2,3:2:0:0:
257,313,75011,1,10,3:2:0:0:
257,73,75154,1,2,3:2:0:0:
172,277,75296,1,2,3:2:0:0:
341,108,75439,1,2,3:2:0:0:
137,193,75582,1,10,3:2:0:0:
377,192,75725,5,2,3:2:0:0:
172,108,75868,1,10,3:2:0:0:
341,277,76011,1,2,3:2:0:0:
257,73,76154,1,10,3:2:0:0:
257,313,76296,1,2,3:2:0:0:
341,108,76439,1,10,3:2:0:0:
172,277,76582,1,2,3:2:0:0:
377,192,76725,5,10,3:2:0:0:
137,193,76868,1,2,3:2:0:0:
377,192,77011,5,10,3:2:0:0:
172,277,77154,1,2,3:2:0:0:
341,108,77297,5,10,3:2:0:0:
257,313,77440,1,2,3:2:0:0:
257,73,77582,1,10,3:2:0:0:
341,277,77725,1,2,3:2:0:0:
172,108,77868,1,10,3:2:0:0:
377,192,78011,1,10,3:2:0:0:
137,193,78154,1,10,3:2:0:0:
341,108,78296,5,10,3:2:0:0:
172,277,78439,1,10,3:2:0:0:
257,73,78582,1,10,3:2:0:0:
257,313,78725,1,10,3:2:0:0:
172,108,78868,1,10,3:2:0:0:
341,277,79011,1,10,3:2:0:0:
137,193,79154,1,10,3:2:0:0:
377,192,79296,1,10,3:2:0:0:
256,192,79439,5,10,3:2:0:0:
256,192,79582,5,10,3:2:0:0:
256,192,79725,5,10,3:2:0:0:
256,192,79868,5,14,3:2:0:0:
