osu file format v14

[General]
AudioFilename: Red Like Roses.mp3
AudioLeadIn: 0
PreviewTime: 0
Countdown: 1
SampleSet: Soft
StackLeniency: 0.2
Mode: 0
LetterboxInBreaks: 1
WidescreenStoryboard: 1

[Editor]
Bookmarks: 123597,187721
DistanceSpacing: 1.2
BeatDivisor: 4
GridSize: 32
TimelineZoom: 2

[Metadata]
Title:Red Like Roses [Hard Part Training]
TitleUnicode:Red Like Roses [Hard Part Training]
Artist:Jeff Williams
ArtistUnicode:Jeff Williams
Creator:- - Makrica - -
Version:OMG THIS SQUADS
Source:RWBY
Tags:Jeff Williams Red Like Roses
BeatmapID:1563312
BeatmapSetID:668593

[Difficulty]
HPDrainRate:5
CircleSize:4
OverallDifficulty:10
ApproachRate:10
SliderMultiplier:1.9
SliderTickRate:1

[Events]
//Background and Video events
0,0,"rwby-anime-ruby_rose.jpg",0,0
//Break Periods
//Storyboard Layer 0 (Background)
//Storyboard Layer 1 (Fail)
//Storyboard Layer 2 (Pass)
//Storyboard Layer 3 (Foreground)
//Storyboard Sound Samples

[TimingPoints]
297,285.714285714286,4,2,0,70,1,0

[Colours]
Combo1 : 255,255,255
Combo2 : 223,0,5
Combo3 : 232,243,3
Combo4 : 166,171,234

[HitObjects]
88,104,18582,5,6,3:2:0:0:
88,256,18725,1,2,3:2:0:0:
240,256,18868,1,2,3:2:0:0:
240,104,19011,1,10,3:2:0:0:
199,45,19154,5,2,3:2:0:0:
114,171,19296,1,2,3:2:0:0:
240,256,19439,1,2,3:2:0:0:
324,130,19582,1,10,3:2:0:0:
327,59,19724,5,2,3:2:0:0:
186,116,19867,1,2,3:2:0:0:
240,256,20010,1,2,3:2:0:0:
384,200,20153,1,10,3:2:0:0:
423,139,20296,5,2,3:2:0:0:
274,108,20439,1,2,3:2:0:0:
240,256,20582,1,2,3:2:0:0:
391,287,20724,1,10,3:2:0:0:
456,256,20868,5,6,3:2:0:0:
344,144,21011,1,2,3:2:0:0:
240,256,21153,1,2,3:2:0:0:
352,360,21296,1,10,3:2:0:0:
376,256,21439,5,2,3:2:0:0:
264,144,21582,1,2,3:2:0:0:
160,256,21725,1,2,3:2:0:0:
272,360,21868,1,10,3:2:0:0:
304,256,22011,5,2,3:2:0:0:
192,144,22153,1,2,3:2:0:0:
88,256,22296,1,2,3:2:0:0:
200,360,22439,1,10,3:2:0:0:
224,256,22581,5,2,3:2:0:0:
112,144,22724,1,2,3:2:0:0:
8,256,22867,1,2,3:2:0:0:
120,360,23010,1,10,3:2:0:0:
152,192,23153,5,6,3:2:0:0:
256,88,23296,1,2,3:2:0:0:
360,192,23439,1,2,3:2:0:0:
256,296,23581,1,10,3:2:0:0:
156,134,23725,5,2,3:2:0:0:
313,92,23868,1,2,3:2:0:0:
355,249,24010,1,2,3:2:0:0:
198,291,24153,1,10,3:2:0:0:
193,83,24296,5,2,3:2:0:0:
364,129,24439,1,2,3:2:0:0:
318,300,24582,1,2,3:2:0:0:
147,254,24725,1,10,3:2:0:0:
256,56,24868,5,2,3:2:0:0:
391,192,25010,1,2,3:2:0:0:
256,327,25154,1,2,3:2:0:0:
120,192,25297,1,10,3:2:0:0:
328,65,25439,5,6,3:2:0:0:
382,264,25582,1,2,3:2:0:0:
183,318,25725,1,2,3:2:0:0:
129,119,25868,1,10,3:2:0:0:
391,113,26011,5,2,3:2:0:0:
334,327,26154,1,2,3:2:0:0:
120,270,26297,1,2,3:2:0:0:
178,56,26439,1,10,3:2:0:0:
422,192,26582,5,6,3:2:0:0:
255,358,26725,1,2,3:2:0:0:
89,192,26867,1,2,3:2:0:0:
256,25,27010,1,10,3:2:0:0:
409,280,27153,5,6,3:2:0:0:
167,345,27296,1,2,3:2:0:0:
102,103,27439,1,2,3:2:0:0:
344,38,27582,1,10,3:2:0:0:
328,248,27725,5,6,3:2:0:0:
184,248,27867,1,2,3:2:0:0:
184,136,28011,1,2,3:2:0:0:
328,136,28154,1,10,3:2:0:0:
328,248,28296,5,2,3:2:0:0:
184,248,28439,1,2,3:2:0:0:
184,136,28582,1,2,3:2:0:0:
328,136,28725,1,10,3:2:0:0:
328,248,28868,5,2,3:2:0:0:
184,248,29011,1,2,3:2:0:0:
184,136,29154,1,2,3:2:0:0:
328,136,29296,1,10,3:2:0:0:
328,248,29439,5,2,3:2:0:0:
184,248,29582,1,2,3:2:0:0:
184,136,29724,1,2,3:2:0:0:
328,136,29867,1,10,3:2:0:0:
385,292,30010,5,6,3:2:0:0:
126,292,30153,1,2,3:2:0:0:
126,91,30296,1,2,3:2:0:0:
385,91,30439,1,10,3:2:0:0:
385,292,30582,5,2,3:2:0:0:
126,292,30724,1,2,3:2:0:0:
126,91,30868,1,2,3:2:0:0:
385,91,31011,1,10,3:2:0:0:
385,292,31153,5,2,3:2:0:0:
126,292,31296,1,2,3:2:0:0:
126,91,31439,1,2,3:2:0:0:
385,91,31582,1,10,3:2:0:0:
385,292,31725,5,2,3:2:0:0:
126,292,31868,1,2,3:2:0:0:
126,91,32011,1,2,3:2:0:0:
385,91,32153,1,10,3:2:0:0:
195,287,32296,5,6,3:2:0:0:
316,95,32439,1,2,3:2:0:0:
316,287,32581,1,2,3:2:0:0:
195,95,32724,1,10,3:2:0:0:
189,297,32867,5,2,3:2:0:0:
322,86,33010,1,2,3:2:0:0:
322,297,33153,1,2,3:2:0:0:
189,86,33296,1,10,3:2:0:0:
184,307,33439,5,2,3:2:0:0:
328,76,33581,1,2,3:2:0:0:
328,307,33725,1,2,3:2:0:0:
184,76,33868,1,10,3:2:0:0:
178,316,34010,5,2,3:2:0:0:
333,67,34153,1,2,3:2:0:0:
333,316,34296,1,2,3:2:0:0:
178,67,34439,1,10,3:2:0:0:
172,326,34582,5,6,3:2:0:0:
339,57,34725,1,2,3:2:0:0:
339,326,34868,1,2,3:2:0:0:
172,57,35010,1,10,3:2:0:0:
166,336,35154,5,2,3:2:0:0:
346,47,35297,1,2,3:2:0:0:
346,336,35439,1,2,3:2:0:0:
166,47,35582,1,10,3:2:0:0:
376,152,35725,5,6,3:2:0:0:
136,232,35868,1,2,3:2:0:0:
376,232,36011,1,2,3:2:0:0:
136,152,36154,1,10,3:2:0:0:
448,128,36297,5,6,3:2:0:0:
63,256,36439,1,10,3:2:0:0:
448,256,36582,1,10,3:2:0:0:
63,128,36725,1,10,3:2:0:0:
256,192,36867,1,6,3:2:0:0:
155,350,37010,5,2,3:2:0:0:
90,227,37153,1,2,3:2:0:0:
227,227,37296,1,10,3:2:0:0:
284,350,37439,1,2,3:2:0:0:
89,278,37582,5,2,3:2:0:0:
94,140,37725,1,2,3:2:0:0:
213,208,37868,1,10,3:2:0:0:
201,343,38011,1,2,3:2:0:0:
68,183,38154,5,2,3:2:0:0:
142,66,38296,1,2,3:2:0:0:
210,185,38439,1,10,3:2:0:0:
133,296,38582,1,2,3:2:0:0:
97,91,38725,5,2,3:2:0:0:
220,26,38868,1,2,3:2:0:0:
220,163,39011,1,14,3:2:0:0:
97,220,39154,1,2,3:2:0:0:
169,25,39297,5,2,3:2:0:0:
307,30,39440,1,2,3:2:0:0:
239,149,39583,1,10,3:2:0:0:
104,137,39725,1,2,3:2:0:0:
264,4,39868,5,2,3:2:0:0:
381,78,40011,1,2,3:2:0:0:
262,146,40154,1,10,3:2:0:0:
151,69,40297,1,2,3:2:0:0:
356,33,40439,5,2,3:2:0:0:
421,156,40582,1,2,3:2:0:0:
284,156,40725,1,10,3:2:0:0:
227,33,40868,1,2,3:2:0:0:
422,105,41011,5,2,3:2:0:0:
417,243,41153,1,2,3:2:0:0:
298,175,41296,1,10,3:2:0:0:
310,40,41439,1,6,3:2:0:0:
443,200,41582,5,2,3:2:0:0:
369,317,41725,1,2,3:2:0:0:
301,198,41868,1,10,3:2:0:0:
378,87,42011,1,2,3:2:0:0:
414,292,42154,5,2,3:2:0:0:
291,357,42297,1,2,3:2:0:0:
291,220,42440,1,10,3:2:0:0:
414,163,42582,1,2,3:2:0:0:
342,358,42725,5,2,3:2:0:0:
204,353,42868,1,2,3:2:0:0:
272,234,43011,1,10,3:2:0:0:
407,246,43154,1,2,3:2:0:0:
247,379,43296,5,6,3:2:0:0:
130,305,43439,1,2,3:2:0:0:
249,237,43582,1,10,3:2:0:0:
360,314,43725,1,2,3:2:0:0:
176,192,43868,5,6,3:2:0:0:
336,192,44010,1,2,3:2:0:0:
112,144,44153,1,10,3:2:0:0:
400,144,44296,1,2,3:2:0:0:
176,88,44439,1,6,3:2:0:0:
336,88,44582,1,2,3:2:0:0:
112,40,44725,1,10,3:2:0:0:
400,40,44868,1,2,3:2:0:0:
256,96,45011,5,6,3:2:0:0:
339,240,45154,1,2,3:2:0:0:
172,240,45296,1,10,3:2:0:0:
256,280,45439,5,2,3:2:0:0:
208,368,45582,1,6,3:2:0:0:
304,368,45725,1,2,3:2:0:0:
32,24,45868,5,14,3:2:0:0:
168,160,46011,1,2,3:2:0:0:
32,160,46154,1,2,3:2:0:0:
168,24,46297,1,2,3:2:0:0:
64,40,46440,5,10,3:2:0:0:
200,176,46582,1,2,3:2:0:0:
64,176,46725,1,2,3:2:0:0:
200,40,46868,1,2,3:2:0:0:
96,56,47011,5,10,3:2:0:0:
232,192,47154,1,2,3:2:0:0:
96,192,47296,1,2,3:2:0:0:
232,56,47439,1,2,3:2:0:0:
128,72,47582,5,10,3:2:0:0:
264,208,47725,1,2,3:2:0:0:
128,208,47868,1,2,3:2:0:0:
264,72,48010,1,2,3:2:0:0:
160,88,48153,5,14,3:2:0:0:
296,224,48296,1,2,3:2:0:0:
160,224,48439,1,2,3:2:0:0:
296,88,48582,1,2,3:2:0:0:
192,104,48725,5,10,3:2:0:0:
328,240,48868,1,2,3:2:0:0:
192,240,49011,1,2,3:2:0:0:
328,104,49154,1,2,3:2:0:0:
232,128,49297,5,10,3:2:0:0:
448,184,49439,1,2,3:2:0:0:
296,328,49582,1,2,3:2:0:0:
272,152,49725,5,2,3:2:0:0:
488,208,49868,1,10,3:2:0:0:
336,352,50011,1,2,3:2:0:0:
176,336,50154,5,2,3:2:0:0:
40,200,50297,1,2,3:2:0:0:
40,336,50440,1,14,3:2:0:0:
176,200,50582,1,2,3:2:0:0:
200,320,50725,5,2,3:2:0:0:
64,184,50868,1,2,3:2:0:0:
64,320,51011,1,10,3:2:0:0:
200,184,51154,1,2,3:2:0:0:
224,304,51296,5,2,3:2:0:0:
88,168,51439,1,2,3:2:0:0:
88,304,51582,1,10,3:2:0:0:
224,168,51725,1,2,3:2:0:0:
248,288,51868,5,2,3:2:0:0:
112,152,52010,1,2,3:2:0:0:
112,288,52153,1,10,3:2:0:0:
248,152,52296,1,2,3:2:0:0:
280,264,52439,5,2,3:2:0:0:
144,128,52582,1,2,3:2:0:0:
144,264,52725,1,14,3:2:0:0:
280,128,52868,1,10,3:2:0:0:
304,248,53011,5,10,3:2:0:0:
168,112,53154,1,10,3:2:0:0:
168,248,53297,1,10,3:2:0:0:
304,112,53439,1,10,3:2:0:0:
336,224,53582,5,10,3:2:0:0:
256,32,53725,1,10,3:2:0:0:
464,64,53868,1,10,3:2:0:0:
344,144,54011,5,10,3:2:0:0:
320,72,54154,1,10,3:2:0:0:
392,80,54297,1,10,3:2:0:0:
464,240,54439,5,10,3:2:0:0:
328,240,54581,1,10,3:2:0:0:
328,376,54724,1,10,3:2:0:0:
464,376,54867,1,10,3:2:0:0:
440,264,55010,5,10,3:2:0:0:
322,196,55153,1,6,3:2:0:0:
254,313,55296,1,2,3:2:0:0:
372,381,55439,1,2,3:2:0:0:
404,277,55582,5,10,3:2:0:0:
336,160,55725,1,2,3:2:0:0:
218,228,55868,1,2,3:2:0:0:
286,345,56010,1,2,3:2:0:0:
371,268,56153,5,10,3:2:0:0:
371,132,56296,1,2,3:2:0:0:
235,132,56439,1,2,3:2:0:0:
235,268,56582,1,2,3:2:0:0:
346,237,56725,5,10,3:2:0:0:
414,119,56868,1,2,3:2:0:0:
296,51,57011,1,2,3:2:0:0:
229,168,57154,1,2,3:2:0:0:
338,204,57297,5,10,3:2:0:0:
456,136,57439,1,6,3:2:0:0:
388,18,57582,1,2,3:2:0:0:
270,86,57725,1,2,3:2:0:0:
344,168,57868,5,10,3:2:0:0:
400,368,58011,1,2,3:2:0:0:
192,320,58154,1,2,3:2:0:0:
256,168,58297,5,2,3:2:0:0:
312,368,58439,1,10,3:2:0:0:
104,320,58582,1,2,3:2:0:0:
192,232,58725,5,2,3:2:0:0:
320,232,58868,1,2,3:2:0:0:
136,160,59011,1,10,3:2:0:0:
376,160,59154,1,2,3:2:0:0:
192,88,59296,1,2,3:2:0:0:
320,88,59439,1,2,3:2:0:0:
136,16,59582,1,10,3:2:0:0:
376,16,59725,1,6,3:2:0:0:
80,88,59868,5,2,3:2:0:0:
432,88,60010,1,2,3:2:0:0:
136,160,60153,1,10,3:2:0:0:
376,160,60296,1,2,3:2:0:0:
80,232,60439,1,2,3:2:0:0:
432,232,60582,1,2,3:2:0:0:
136,296,60725,1,10,3:2:0:0:
376,296,60868,1,2,3:2:0:0:
256,336,61011,5,2,3:2:0:0:
256,48,61154,1,2,3:2:0:0:
154,293,61297,1,10,3:2:0:0:
357,90,61439,1,2,3:2:0:0:
112,192,61582,1,2,3:2:0:0:
400,192,61725,1,2,3:2:0:0:
154,90,61868,1,10,3:2:0:0:
357,293,62011,1,14,3:2:0:0:
256,47,62154,5,10,3:2:0:0:
131,264,62296,1,10,3:2:0:0:
380,264,62439,1,10,3:2:0:0:
256,160,62582,5,14,3:2:0:0:
256,256,62724,1,10,3:2:0:0:
256,352,62867,1,10,3:2:0:0:
160,192,63011,5,10,3:2:0:0:
256,96,63154,1,14,3:2:0:0:
352,192,63296,1,10,3:2:0:0:
256,288,63439,1,10,3:2:0:0:
188,124,63582,5,10,3:2:0:0:
323,124,63725,1,14,3:2:0:0:
323,259,63868,1,10,3:2:0:0:
188,259,64010,1,10,3:2:0:0:
256,86,64153,5,10,3:2:0:0:
361,191,64296,1,6,3:2:0:0:
256,297,64439,1,2,3:2:0:0:
150,192,64582,1,2,3:2:0:0:
330,117,64725,5,10,3:2:0:0:
330,266,64868,1,2,3:2:0:0:
181,266,65011,1,2,3:2:0:0:
181,117,65154,1,2,3:2:0:0:
371,192,65297,5,10,3:2:0:0:
256,307,65439,1,2,3:2:0:0:
140,192,65582,1,2,3:2:0:0:
256,76,65725,1,2,3:2:0:0:
337,273,65868,5,10,3:2:0:0:
174,273,66011,1,2,3:2:0:0:
174,110,66154,1,2,3:2:0:0:
337,110,66297,1,2,3:2:0:0:
256,316,66440,5,10,3:2:0:0:
131,192,66583,1,2,3:2:0:0:
256,67,66726,1,2,3:2:0:0:
380,192,66868,1,2,3:2:0:0:
167,280,67011,5,10,3:2:0:0:
167,103,67154,1,2,3:2:0:0:
344,103,67297,1,2,3:2:0:0:
344,280,67440,1,2,3:2:0:0:
136,192,67582,1,10,3:2:0:0:
256,72,67724,1,2,3:2:0:0:
376,191,67867,1,2,3:2:0:0:
214,304,68010,5,2,3:2:0:0:
143,150,68153,1,10,3:2:0:0:
297,79,68296,1,2,3:2:0:0:
368,233,68439,1,2,3:2:0:0:
178,283,68582,5,2,3:2:0:0:
164,114,68724,1,10,3:2:0:0:
333,100,68867,1,6,3:2:0:0:
347,269,69011,1,2,3:2:0:0:
152,252,69153,5,2,3:2:0:0:
196,88,69296,1,10,3:2:0:0:
359,131,69439,1,2,3:2:0:0:
316,295,69582,1,2,3:2:0:0:
114,217,69725,5,2,3:2:0:0:
230,50,69868,1,10,3:2:0:0:
397,166,70011,1,2,3:2:0:0:
281,333,70153,1,2,3:2:0:0:
114,166,70296,5,2,3:2:0:0:
281,50,70439,1,10,3:2:0:0:
397,217,70581,1,2,3:2:0:0:
230,333,70724,1,2,3:2:0:0:
131,119,70867,5,2,3:2:0:0:
328,67,71010,1,10,3:2:0:0:
380,264,71153,1,2,3:2:0:0:
184,316,71296,1,2,3:2:0:0:
163,81,71439,5,2,3:2:0:0:
366,99,71581,1,10,3:2:0:0:
348,302,71724,1,2,3:2:0:0:
145,284,71868,1,2,3:2:0:0:
198,34,72010,5,2,3:2:0:0:
413,134,72153,1,10,3:2:0:0:
313,349,72296,1,2,3:2:0:0:
98,249,72439,1,2,3:2:0:0:
256,24,72582,5,2,3:2:0:0:
423,192,72725,1,10,3:2:0:0:
256,359,72868,1,2,3:2:0:0:
88,191,73010,1,2,3:2:0:0:
313,34,73153,5,2,3:2:0:0:
413,249,73296,1,10,3:2:0:0:
198,349,73438,1,2,3:2:0:0:
98,134,73581,1,2,3:2:0:0:
363,63,73724,5,2,3:2:0:0:
384,299,73867,1,10,3:2:0:0:
148,320,74010,1,2,3:2:0:0:
127,84,74153,1,2,3:2:0:0:
401,108,74296,5,2,3:2:0:0:
127,84,74439,1,10,3:2:0:0:
148,320,74582,1,2,3:2:0:0:
384,299,74725,1,2,3:2:0:0:
363,63,74868,5,2,3:2:0:0:
98,134,75011,1,10,3:2:0:0:
198,349,75154,1,2,3:2:0:0:
413,249,75296,1,2,3:2:0:0:
313,34,75439,5,2,3:2:0:0:
88,191,75582,1,10,3:2:0:0:
256,359,75724,1,2,3:2:0:0:
423,192,75867,1,10,3:2:0:0:
256,24,76010,5,2,3:2:0:0:
98,249,76153,1,10,3:2:0:0:
313,349,76296,1,2,3:2:0:0:
413,134,76439,1,10,3:2:0:0:
198,34,76582,5,2,3:2:0:0:
145,284,76724,1,10,3:2:0:0:
348,302,76868,1,2,3:2:0:0:
366,99,77011,1,10,3:2:0:0:
163,81,77153,5,2,3:2:0:0:
184,316,77296,1,10,3:2:0:0:
380,264,77439,1,2,3:2:0:0:
328,67,77582,1,10,3:2:0:0:
131,119,77725,5,2,3:2:0:0:
230,333,77868,1,10,3:2:0:0:
397,217,78011,1,10,3:2:0:0:
281,50,78153,1,10,3:2:0:0:
114,166,78296,5,10,3:2:0:0:
281,333,78439,1,10,3:2:0:0:
397,166,78581,1,10,3:2:0:0:
230,50,78724,1,10,3:2:0:0:
114,217,78867,5,10,3:2:0:0:
316,295,79010,1,10,3:2:0:0:
359,131,79153,1,10,3:2:0:0:
196,88,79296,1,10,3:2:0:0:
152,252,79439,5,10,3:2:0:0:
347,269,79581,1,10,3:2:0:0:
333,100,79725,1,10,3:2:0:0:
164,114,79868,1,14,3:2:0:0:
