osu file format v14

[General]
AudioFilename: Red Like Roses.mp3
AudioLeadIn: 0
PreviewTime: 0
Countdown: 1
SampleSet: Soft
StackLeniency: 0.7
Mode: 0
LetterboxInBreaks: 1
WidescreenStoryboard: 1

[Editor]
Bookmarks: 123597,187721
DistanceSpacing: 1.5
BeatDivisor: 4
GridSize: 4
TimelineZoom: 2.2

[Metadata]
Title:Red Like Roses [Hard Part Training]
TitleUnicode:Red Like Roses [Hard Part Training]
Artist:Jeff Williams
ArtistUnicode:Jeff Williams
Creator:- - Makrica - -
Version:Insane Stars
Source:RWBY
Tags:Jeff Williams Red Like Roses
BeatmapID:1414439
BeatmapSetID:668593

[Difficulty]
HPDrainRate:5
CircleSize:4
OverallDifficulty:10
ApproachRate:10
SliderMultiplier:1.9
SliderTickRate:1

[Events]
//Background and Video events
0,0,"rwby-anime-ruby_rose.jpg",0,0
//Break Periods
//Storyboard Layer 0 (Background)
//Storyboard Layer 1 (Fail)
//Storyboard Layer 2 (Pass)
//Storyboard Layer 3 (Foreground)
//Storyboard Sound Samples

[TimingPoints]
297,285.714285714286,4,2,0,70,1,0

[Colours]
Combo1 : 255,255,255
Combo2 : 223,0,5
Combo3 : 232,243,3
Combo4 : 166,171,234

[HitObjects]
257,33,18582,5,6,3:2:0:0:
257,353,18725,1,2,3:2:0:0:
370,79,18868,1,2,3:2:0:0:
143,306,19011,1,10,3:2:0:0:
417,193,19154,1,2,3:2:0:0:
97,193,19296,1,2,3:2:0:0:
370,306,19439,1,2,3:2:0:0:
143,79,19582,1,10,3:2:0:0:
257,353,19725,1,2,3:2:0:0:
257,33,19868,1,2,3:2:0:0:
143,306,20011,1,2,3:2:0:0:
370,79,20154,1,10,3:2:0:0:
97,193,20296,1,2,3:2:0:0:
417,193,20439,1,2,3:2:0:0:
143,79,20582,1,2,3:2:0:0:
370,306,20725,1,10,3:2:0:0:
257,33,20868,5,6,3:2:0:0:
257,353,21011,1,2,3:2:0:0:
370,79,21154,1,2,3:2:0:0:
143,306,21297,1,10,3:2:0:0:
417,193,21440,1,2,3:2:0:0:
97,193,21582,1,2,3:2:0:0:
370,306,21725,1,2,3:2:0:0:
143,79,21868,1,10,3:2:0:0:
257,353,22011,1,2,3:2:0:0:
257,33,22154,1,2,3:2:0:0:
143,306,22297,1,2,3:2:0:0:
370,79,22440,1,10,3:2:0:0:
97,193,22582,1,2,3:2:0:0:
417,193,22725,1,2,3:2:0:0:
143,79,22868,1,2,3:2:0:0:
370,306,23011,1,10,3:2:0:0:
257,33,23154,5,6,3:2:0:0:
257,353,23297,1,2,3:2:0:0:
370,79,23440,1,2,3:2:0:0:
143,306,23583,1,10,3:2:0:0:
417,193,23726,1,2,3:2:0:0:
97,193,23868,1,2,3:2:0:0:
370,306,24011,1,2,3:2:0:0:
143,79,24154,1,10,3:2:0:0:
257,353,24297,1,2,3:2:0:0:
257,33,24440,1,2,3:2:0:0:
143,306,24583,1,2,3:2:0:0:
370,79,24726,1,10,3:2:0:0:
97,193,24868,1,2,3:2:0:0:
417,193,25011,1,2,3:2:0:0:
143,79,25154,1,2,3:2:0:0:
370,306,25297,1,10,3:2:0:0:
257,33,25440,5,6,3:2:0:0:
257,353,25583,1,2,3:2:0:0:
370,79,25726,1,2,3:2:0:0:
143,306,25869,1,10,3:2:0:0:
417,193,26012,1,2,3:2:0:0:
97,193,26154,1,2,3:2:0:0:
370,306,26297,1,2,3:2:0:0:
143,79,26440,1,10,3:2:0:0:
257,353,26583,1,6,3:2:0:0:
257,33,26726,1,2,3:2:0:0:
143,306,26869,1,2,3:2:0:0:
370,79,27012,1,10,3:2:0:0:
97,193,27154,1,6,3:2:0:0:
417,193,27297,1,2,3:2:0:0:
143,79,27440,1,2,3:2:0:0:
370,306,27583,1,10,3:2:0:0:
257,33,27725,5,6,3:2:0:0:
257,353,27868,1,2,3:2:0:0:
370,79,28011,1,2,3:2:0:0:
143,306,28154,1,10,3:2:0:0:
417,193,28297,1,2,3:2:0:0:
97,193,28439,1,2,3:2:0:0:
370,306,28582,1,2,3:2:0:0:
143,79,28725,1,10,3:2:0:0:
257,353,28868,1,2,3:2:0:0:
257,33,29011,1,2,3:2:0:0:
143,306,29154,1,2,3:2:0:0:
370,79,29297,1,10,3:2:0:0:
97,193,29439,1,2,3:2:0:0:
417,193,29582,1,2,3:2:0:0:
143,79,29725,1,2,3:2:0:0:
370,306,29868,1,10,3:2:0:0:
257,33,30011,5,6,3:2:0:0:
257,353,30154,1,2,3:2:0:0:
370,79,30297,1,2,3:2:0:0:
143,306,30440,1,10,3:2:0:0:
417,193,30583,1,2,3:2:0:0:
97,193,30725,1,2,3:2:0:0:
370,306,30868,1,2,3:2:0:0:
143,79,31011,1,10,3:2:0:0:
257,353,31154,1,2,3:2:0:0:
257,33,31297,1,2,3:2:0:0:
143,306,31440,1,2,3:2:0:0:
370,79,31583,1,10,3:2:0:0:
97,193,31725,1,2,3:2:0:0:
417,193,31868,1,2,3:2:0:0:
143,79,32011,1,2,3:2:0:0:
370,306,32154,1,10,3:2:0:0:
257,33,32297,5,6,3:2:0:0:
257,353,32440,1,2,3:2:0:0:
370,79,32583,1,2,3:2:0:0:
143,306,32726,1,10,3:2:0:0:
417,193,32869,1,2,3:2:0:0:
97,193,33011,1,2,3:2:0:0:
370,306,33154,1,2,3:2:0:0:
143,79,33297,1,10,3:2:0:0:
257,353,33440,1,2,3:2:0:0:
257,33,33583,1,2,3:2:0:0:
143,306,33726,1,2,3:2:0:0:
370,79,33869,1,10,3:2:0:0:
97,193,34011,1,2,3:2:0:0:
417,193,34154,1,2,3:2:0:0:
143,79,34297,1,2,3:2:0:0:
370,306,34440,1,10,3:2:0:0:
257,33,34583,5,6,3:2:0:0:
257,353,34726,1,2,3:2:0:0:
370,79,34869,1,2,3:2:0:0:
143,306,35012,1,10,3:2:0:0:
417,193,35155,1,2,3:2:0:0:
97,193,35297,1,2,3:2:0:0:
370,306,35440,1,2,3:2:0:0:
143,79,35583,1,10,3:2:0:0:
257,353,35726,1,6,3:2:0:0:
257,33,35869,1,2,3:2:0:0:
143,306,36012,1,2,3:2:0:0:
370,79,36155,1,10,3:2:0:0:
97,193,36297,1,6,3:2:0:0:
417,193,36440,1,10,3:2:0:0:
143,79,36583,1,10,3:2:0:0:
370,306,36726,1,10,3:2:0:0:
257,33,36868,5,6,3:2:0:0:
257,353,37011,1,2,3:2:0:0:
370,79,37154,1,2,3:2:0:0:
143,306,37297,1,10,3:2:0:0:
417,193,37440,1,2,3:2:0:0:
97,193,37582,1,2,3:2:0:0:
370,306,37725,1,2,3:2:0:0:
143,79,37868,1,10,3:2:0:0:
257,353,38011,1,2,3:2:0:0:
257,33,38154,1,2,3:2:0:0:
143,306,38297,1,2,3:2:0:0:
370,79,38440,1,10,3:2:0:0:
97,193,38582,1,2,3:2:0:0:
417,193,38725,1,2,3:2:0:0:
143,79,38868,1,2,3:2:0:0:
370,306,39011,1,14,3:2:0:0:
257,33,39154,5,2,3:2:0:0:
257,353,39297,1,2,3:2:0:0:
370,79,39440,1,2,3:2:0:0:
143,306,39583,1,10,3:2:0:0:
417,193,39726,1,2,3:2:0:0:
97,193,39868,1,2,3:2:0:0:
370,306,40011,1,2,3:2:0:0:
143,79,40154,1,10,3:2:0:0:
257,353,40297,1,2,3:2:0:0:
257,33,40440,1,2,3:2:0:0:
143,306,40583,1,2,3:2:0:0:
370,79,40726,1,10,3:2:0:0:
97,193,40868,1,2,3:2:0:0:
417,193,41011,1,2,3:2:0:0:
143,79,41154,1,2,3:2:0:0:
370,306,41297,1,10,3:2:0:0:
257,33,41440,5,6,3:2:0:0:
257,353,41583,1,2,3:2:0:0:
370,79,41726,1,2,3:2:0:0:
143,306,41869,1,10,3:2:0:0:
417,193,42012,1,2,3:2:0:0:
97,193,42154,1,2,3:2:0:0:
370,306,42297,1,2,3:2:0:0:
143,79,42440,1,10,3:2:0:0:
257,353,42583,1,2,3:2:0:0:
257,33,42726,1,2,3:2:0:0:
143,306,42869,1,2,3:2:0:0:
370,79,43012,1,10,3:2:0:0:
97,193,43154,1,2,3:2:0:0:
417,193,43297,1,6,3:2:0:0:
143,79,43440,1,2,3:2:0:0:
370,306,43583,1,10,3:2:0:0:
257,33,43726,5,2,3:2:0:0:
257,353,43869,1,6,3:2:0:0:
370,79,44012,1,2,3:2:0:0:
143,306,44155,1,10,3:2:0:0:
417,193,44298,1,0,0:0:0:0:
97,193,44440,1,6,3:2:0:0:
370,306,44583,1,2,3:2:0:0:
143,79,44726,1,10,3:2:0:0:
257,353,44869,1,2,3:2:0:0:
257,33,45012,1,6,3:2:0:0:
143,306,45155,1,2,3:2:0:0:
370,79,45298,1,0,0:0:0:0:
97,193,45440,1,2,3:2:0:0:
417,193,45583,1,6,3:2:0:0:
143,79,45726,1,2,3:2:0:0:
370,306,45869,1,14,3:2:0:0:
257,33,46011,5,2,3:2:0:0:
257,353,46154,1,2,3:2:0:0:
370,79,46297,1,2,3:2:0:0:
143,306,46440,1,10,3:2:0:0:
417,193,46583,1,2,3:2:0:0:
97,193,46725,1,2,3:2:0:0:
370,306,46868,1,2,3:2:0:0:
143,79,47011,1,10,3:2:0:0:
257,353,47154,1,2,3:2:0:0:
257,33,47297,1,2,3:2:0:0:
143,306,47440,1,2,3:2:0:0:
370,79,47583,1,10,3:2:0:0:
97,193,47725,1,2,3:2:0:0:
417,193,47868,1,2,3:2:0:0:
143,79,48011,1,2,3:2:0:0:
370,306,48154,1,14,3:2:0:0:
257,33,48297,5,2,3:2:0:0:
257,353,48440,1,2,3:2:0:0:
370,79,48583,1,2,3:2:0:0:
143,306,48726,1,10,3:2:0:0:
417,193,48869,1,2,3:2:0:0:
97,193,49011,1,2,3:2:0:0:
370,306,49154,1,2,3:2:0:0:
143,79,49297,1,10,3:2:0:0:
257,353,49440,1,2,3:2:0:0:
257,33,49583,1,2,3:2:0:0:
143,306,49726,1,2,3:2:0:0:
370,79,49869,1,10,3:2:0:0:
97,193,50011,1,2,3:2:0:0:
417,193,50154,1,2,3:2:0:0:
143,79,50297,1,2,3:2:0:0:
370,306,50440,1,14,3:2:0:0:
257,33,50583,5,2,3:2:0:0:
257,353,50726,1,2,3:2:0:0:
370,79,50869,1,2,3:2:0:0:
143,306,51012,1,10,3:2:0:0:
417,193,51155,1,2,3:2:0:0:
97,193,51297,1,2,3:2:0:0:
370,306,51440,1,2,3:2:0:0:
143,79,51583,1,10,3:2:0:0:
257,353,51726,1,2,3:2:0:0:
257,33,51869,1,2,3:2:0:0:
143,306,52012,1,2,3:2:0:0:
370,79,52155,1,10,3:2:0:0:
97,193,52297,1,2,3:2:0:0:
417,193,52440,1,2,3:2:0:0:
143,79,52583,1,2,3:2:0:0:
370,306,52726,1,14,3:2:0:0:
257,33,52869,5,10,3:2:0:0:
257,353,53012,1,10,3:2:0:0:
370,79,53155,1,10,3:2:0:0:
143,306,53298,1,0,0:0:0:0:
417,193,53441,1,0,0:0:0:0:
97,193,53583,1,10,3:2:0:0:
370,306,53726,1,10,3:2:0:0:
143,79,53869,1,10,3:2:0:0:
257,353,54012,1,10,3:2:0:0:
257,33,54155,1,10,3:2:0:0:
143,306,54298,1,0,0:0:0:0:
370,79,54441,1,0,0:0:0:0:
97,193,54583,1,10,3:2:0:0:
417,193,54726,1,10,3:2:0:0:
143,79,54869,1,10,3:2:0:0:
370,306,55012,1,10,3:2:0:0:
257,33,55154,5,6,3:2:0:0:
257,353,55297,1,2,3:2:0:0:
370,79,55440,1,2,3:2:0:0:
143,306,55583,1,10,3:2:0:0:
417,193,55726,1,2,3:2:0:0:
97,193,55868,1,2,3:2:0:0:
370,306,56011,1,2,3:2:0:0:
143,79,56154,1,10,3:2:0:0:
257,353,56297,1,2,3:2:0:0:
257,33,56440,1,2,3:2:0:0:
143,306,56583,1,2,3:2:0:0:
370,79,56726,1,10,3:2:0:0:
97,193,56868,1,2,3:2:0:0:
417,193,57011,1,2,3:2:0:0:
143,79,57154,1,2,3:2:0:0:
370,306,57297,1,10,3:2:0:0:
257,33,57440,5,6,3:2:0:0:
257,353,57583,1,2,3:2:0:0:
370,79,57726,1,2,3:2:0:0:
143,306,57869,1,10,3:2:0:0:
417,193,58012,1,2,3:2:0:0:
97,193,58154,1,2,3:2:0:0:
370,306,58297,1,2,3:2:0:0:
143,79,58440,1,10,3:2:0:0:
257,353,58583,1,2,3:2:0:0:
257,33,58726,1,2,3:2:0:0:
143,306,58869,1,2,3:2:0:0:
370,79,59012,1,10,3:2:0:0:
97,193,59154,1,2,3:2:0:0:
417,193,59297,1,2,3:2:0:0:
143,79,59440,1,2,3:2:0:0:
370,306,59583,1,10,3:2:0:0:
257,33,59726,5,6,3:2:0:0:
257,353,59869,1,2,3:2:0:0:
370,79,60012,1,2,3:2:0:0:
143,306,60155,1,10,3:2:0:0:
417,193,60298,1,0,0:0:0:0:
97,193,60440,1,2,3:2:0:0:
370,306,60583,1,2,3:2:0:0:
143,79,60726,1,10,3:2:0:0:
257,353,60869,1,2,3:2:0:0:
257,33,61012,1,2,3:2:0:0:
143,306,61155,1,2,3:2:0:0:
370,79,61298,1,0,0:0:0:0:
97,193,61440,1,2,3:2:0:0:
417,193,61583,1,2,3:2:0:0:
143,79,61726,1,2,3:2:0:0:
370,306,61869,1,10,3:2:0:0:
257,33,62012,5,14,3:2:0:0:
257,353,62155,1,10,3:2:0:0:
370,79,62298,1,0,0:0:0:0:
143,306,62441,1,0,0:0:0:0:
417,193,62584,1,0,0:0:0:0:
97,193,62726,1,10,3:2:0:0:
370,306,62869,1,10,3:2:0:0:
143,79,63012,1,10,3:2:0:0:
257,353,63155,1,14,3:2:0:0:
257,33,63298,1,0,0:0:0:0:
143,306,63441,1,0,0:0:0:0:
370,79,63584,1,0,0:0:0:0:
97,193,63726,1,14,3:2:0:0:
417,193,63869,1,10,3:2:0:0:
143,79,64012,1,10,3:2:0:0:
370,306,64155,1,10,3:2:0:0:
257,33,64297,5,6,3:2:0:0:
257,353,64440,1,2,3:2:0:0:
370,79,64583,1,2,3:2:0:0:
143,306,64726,1,10,3:2:0:0:
417,193,64869,1,2,3:2:0:0:
97,193,65011,1,2,3:2:0:0:
370,306,65154,1,2,3:2:0:0:
143,79,65297,1,10,3:2:0:0:
257,353,65440,1,2,3:2:0:0:
257,33,65582,1,2,3:2:0:0:
143,306,65726,1,2,3:2:0:0:
370,79,65869,1,10,3:2:0:0:
97,193,66011,1,2,3:2:0:0:
417,193,66154,1,2,3:2:0:0:
143,79,66297,1,2,3:2:0:0:
370,306,66440,1,10,3:2:0:0:
257,33,66583,5,2,3:2:0:0:
257,353,66726,1,2,3:2:0:0:
370,79,66869,1,2,3:2:0:0:
143,306,67012,1,10,3:2:0:0:
417,193,67155,1,2,3:2:0:0:
97,193,67297,1,2,3:2:0:0:
370,306,67440,1,2,3:2:0:0:
143,79,67583,1,10,3:2:0:0:
257,353,67726,1,2,3:2:0:0:
257,33,67869,1,2,3:2:0:0:
143,306,68012,1,2,3:2:0:0:
370,79,68155,1,10,3:2:0:0:
97,193,68297,1,2,3:2:0:0:
417,193,68440,1,2,3:2:0:0:
143,79,68583,1,2,3:2:0:0:
370,306,68726,1,10,3:2:0:0:
257,33,68869,5,6,3:2:0:0:
257,353,69012,1,2,3:2:0:0:
370,79,69155,1,2,3:2:0:0:
143,306,69298,1,0,0:0:0:0:
417,193,69441,1,0,0:0:0:0:
97,193,69583,1,2,3:2:0:0:
370,306,69726,1,2,3:2:0:0:
143,79,69869,1,10,3:2:0:0:
257,353,70012,1,2,3:2:0:0:
257,33,70155,1,2,3:2:0:0:
143,306,70298,1,0,0:0:0:0:
370,79,70441,1,0,0:0:0:0:
97,193,70583,1,2,3:2:0:0:
417,193,70726,1,2,3:2:0:0:
143,79,70869,1,2,3:2:0:0:
370,306,71012,1,10,3:2:0:0:
257,33,71155,5,2,3:2:0:0:
257,353,71298,1,0,0:0:0:0:
370,79,71441,1,0,0:0:0:0:
143,306,71584,1,0,0:0:0:0:
417,193,71727,1,0,0:0:0:0:
97,193,71869,1,2,3:2:0:0:
370,306,72012,1,2,3:2:0:0:
143,79,72155,1,10,3:2:0:0:
257,353,72298,1,0,0:0:0:0:
257,33,72441,1,0,0:0:0:0:
143,306,72584,1,0,0:0:0:0:
370,79,72727,1,0,0:0:0:0:
97,193,72869,1,2,3:2:0:0:
417,193,73012,1,2,3:2:0:0:
143,79,73155,1,2,3:2:0:0:
370,306,73298,1,0,0:0:0:0:
257,33,73440,5,2,3:2:0:0:
257,353,73583,1,2,3:2:0:0:
370,79,73726,1,2,3:2:0:0:
143,306,73869,1,10,3:2:0:0:
417,193,74012,1,2,3:2:0:0:
97,193,74154,1,2,3:2:0:0:
370,306,74297,1,2,3:2:0:0:
143,79,74440,1,10,3:2:0:0:
257,353,74583,1,2,3:2:0:0:
257,33,74726,1,2,3:2:0:0:
143,306,74869,1,2,3:2:0:0:
370,79,75012,1,10,3:2:0:0:
97,193,75154,1,2,3:2:0:0:
417,193,75297,1,2,3:2:0:0:
143,79,75440,1,2,3:2:0:0:
370,306,75583,1,10,3:2:0:0:
257,33,75726,5,2,3:2:0:0:
257,353,75869,1,10,3:2:0:0:
370,79,76012,1,2,3:2:0:0:
143,306,76155,1,10,3:2:0:0:
417,193,76298,1,0,0:0:0:0:
97,193,76440,1,10,3:2:0:0:
370,306,76583,1,2,3:2:0:0:
143,79,76726,1,10,3:2:0:0:
257,353,76869,1,2,3:2:0:0:
257,33,77012,1,10,3:2:0:0:
143,306,77155,1,2,3:2:0:0:
370,79,77298,1,0,0:0:0:0:
97,193,77440,1,2,3:2:0:0:
417,193,77583,1,10,3:2:0:0:
143,79,77726,1,2,3:2:0:0:
370,306,77869,1,10,3:2:0:0:
257,33,78012,5,10,3:2:0:0:
257,353,78155,1,10,3:2:0:0:
370,79,78298,1,0,0:0:0:0:
143,306,78441,1,0,0:0:0:0:
417,193,78584,1,0,0:0:0:0:
97,193,78726,1,10,3:2:0:0:
370,306,78869,1,10,3:2:0:0:
143,79,79012,1,10,3:2:0:0:
257,353,79155,1,10,3:2:0:0:
257,33,79298,1,0,0:0:0:0:
143,306,79441,1,0,0:0:0:0:
370,79,79584,1,0,0:0:0:0:
97,193,79726,1,10,3:2:0:0:
417,193,79868,1,14,3:2:0:0:
