osu file format v14

[General]
AudioFilename: Red Like Roses.mp3
AudioLeadIn: 0
PreviewTime: 0
Countdown: 1
SampleSet: Soft
StackLeniency: 0.7
Mode: 0
LetterboxInBreaks: 1
WidescreenStoryboard: 1

[Editor]
Bookmarks: 123597,187721
DistanceSpacing: 1.5
BeatDivisor: 4
GridSize: 4
TimelineZoom: 2

[Metadata]
Title:Red Like Roses [Hard Part Training]
TitleUnicode:Red Like Roses [Hard Part Training]
Artist:Jeff Williams
ArtistUnicode:Jeff Williams
Creator:- - Makrica - -
Version:Hard Stars
Source:RWBY
Tags:Jeff Williams Red Like Roses
BeatmapID:1414438
BeatmapSetID:668593

[Difficulty]
HPDrainRate:5
CircleSize:4
OverallDifficulty:10
ApproachRate:10
SliderMultiplier:1.9
SliderTickRate:1

[Events]
//Background and Video events
0,0,"rwby-anime-ruby_rose.jpg",0,0
//Break Periods
//Storyboard Layer 0 (Background)
//Storyboard Layer 1 (Fail)
//Storyboard Layer 2 (Pass)
//Storyboard Layer 3 (Foreground)
//Storyboard Sound Samples

[TimingPoints]
297,285.714285714286,4,2,0,70,1,0

[Colours]
Combo1 : 255,255,255
Combo2 : 223,0,5
Combo3 : 232,243,3
Combo4 : 166,171,234

[HitObjects]
257,73,18582,5,6,3:2:0:0:
257,313,18725,1,2,3:2:0:0:
341,108,18868,1,2,3:2:0:0:
172,277,19011,1,10,3:2:0:0:
377,192,19154,1,2,3:2:0:0:
137,193,19296,1,2,3:2:0:0:
341,277,19439,1,2,3:2:0:0:
172,108,19582,1,10,3:2:0:0:
257,313,19725,1,2,3:2:0:0:
257,73,19868,1,2,3:2:0:0:
172,277,20011,1,2,3:2:0:0:
341,108,20154,1,10,3:2:0:0:
137,193,20296,1,2,3:2:0:0:
376,193,20439,1,2,3:2:0:0:
172,108,20582,1,2,3:2:0:0:
341,277,20725,1,10,3:2:0:0:
257,73,20868,5,6,3:2:0:0:
257,313,21011,1,2,3:2:0:0:
341,108,21154,1,2,3:2:0:0:
172,277,21296,1,10,3:2:0:0:
377,192,21439,1,2,3:2:0:0:
137,193,21582,1,2,3:2:0:0:
341,277,21725,1,2,3:2:0:0:
172,108,21868,1,10,3:2:0:0:
257,313,22011,1,2,3:2:0:0:
257,73,22154,1,2,3:2:0:0:
172,277,22296,1,2,3:2:0:0:
341,108,22439,1,10,3:2:0:0:
137,193,22582,1,2,3:2:0:0:
376,193,22725,1,2,3:2:0:0:
172,108,22868,1,2,3:2:0:0:
341,277,23011,1,10,3:2:0:0:
257,73,23154,5,6,3:2:0:0:
257,313,23296,1,2,3:2:0:0:
341,108,23439,1,2,3:2:0:0:
172,277,23582,1,10,3:2:0:0:
377,192,23725,1,2,3:2:0:0:
137,193,23868,1,2,3:2:0:0:
341,277,24011,1,2,3:2:0:0:
172,108,24154,1,10,3:2:0:0:
257,313,24296,1,2,3:2:0:0:
257,73,24439,1,2,3:2:0:0:
172,277,24582,1,2,3:2:0:0:
341,108,24725,1,10,3:2:0:0:
137,193,24868,1,2,3:2:0:0:
376,193,25011,1,2,3:2:0:0:
172,108,25154,1,2,3:2:0:0:
341,277,25296,1,10,3:2:0:0:
257,73,25439,5,6,3:2:0:0:
257,313,25582,1,2,3:2:0:0:
341,108,25725,1,2,3:2:0:0:
172,277,25868,1,10,3:2:0:0:
377,192,26011,1,2,3:2:0:0:
137,193,26154,1,2,3:2:0:0:
341,277,26296,1,2,3:2:0:0:
172,108,26439,1,10,3:2:0:0:
257,313,26582,1,6,3:2:0:0:
257,73,26725,1,2,3:2:0:0:
172,277,26868,1,2,3:2:0:0:
341,108,27011,1,10,3:2:0:0:
137,193,27154,1,6,3:2:0:0:
376,193,27296,1,2,3:2:0:0:
172,108,27439,1,2,3:2:0:0:
341,277,27582,1,10,3:2:0:0:
257,73,27725,5,6,3:2:0:0:
257,313,27868,1,2,3:2:0:0:
341,108,28011,1,2,3:2:0:0:
172,277,28154,1,10,3:2:0:0:
377,192,28296,1,2,3:2:0:0:
137,193,28439,1,2,3:2:0:0:
341,277,28582,1,2,3:2:0:0:
172,108,28725,1,10,3:2:0:0:
257,313,28868,1,2,3:2:0:0:
257,73,29011,1,2,3:2:0:0:
172,277,29154,1,2,3:2:0:0:
341,108,29296,1,10,3:2:0:0:
137,193,29439,1,2,3:2:0:0:
376,193,29582,1,2,3:2:0:0:
172,108,29725,1,2,3:2:0:0:
341,277,29868,1,10,3:2:0:0:
257,73,30011,5,6,3:2:0:0:
257,313,30154,1,2,3:2:0:0:
341,108,30296,1,2,3:2:0:0:
172,277,30439,1,10,3:2:0:0:
377,192,30582,1,2,3:2:0:0:
137,193,30725,1,2,3:2:0:0:
341,277,30868,1,2,3:2:0:0:
172,108,31011,1,10,3:2:0:0:
257,313,31154,1,2,3:2:0:0:
257,73,31296,1,2,3:2:0:0:
172,277,31439,1,2,3:2:0:0:
341,108,31582,1,10,3:2:0:0:
137,193,31725,1,2,3:2:0:0:
376,193,31868,1,2,3:2:0:0:
172,108,32011,1,2,3:2:0:0:
341,277,32154,1,10,3:2:0:0:
257,73,32296,5,6,3:2:0:0:
257,313,32439,1,2,3:2:0:0:
341,108,32582,1,2,3:2:0:0:
172,277,32725,1,10,3:2:0:0:
377,192,32868,1,2,3:2:0:0:
137,193,33011,1,2,3:2:0:0:
341,277,33154,1,2,3:2:0:0:
172,108,33296,1,10,3:2:0:0:
257,313,33439,1,2,3:2:0:0:
257,73,33582,1,2,3:2:0:0:
172,277,33725,1,2,3:2:0:0:
341,108,33868,1,10,3:2:0:0:
137,193,34011,1,2,3:2:0:0:
376,193,34154,1,2,3:2:0:0:
172,108,34296,1,2,3:2:0:0:
341,277,34439,1,10,3:2:0:0:
257,73,34582,5,6,3:2:0:0:
257,313,34725,1,2,3:2:0:0:
341,108,34868,1,2,3:2:0:0:
172,277,35011,1,10,3:2:0:0:
377,192,35154,1,2,3:2:0:0:
137,193,35296,1,2,3:2:0:0:
341,277,35439,1,2,3:2:0:0:
172,108,35582,1,10,3:2:0:0:
257,313,35725,1,6,3:2:0:0:
257,73,35868,1,2,3:2:0:0:
172,277,36011,1,2,3:2:0:0:
341,108,36154,1,10,3:2:0:0:
137,193,36296,1,6,3:2:0:0:
376,193,36439,1,10,3:2:0:0:
172,108,36582,1,10,3:2:0:0:
341,277,36725,1,10,3:2:0:0:
257,73,36868,5,6,3:2:0:0:
257,313,37011,1,2,3:2:0:0:
341,108,37154,1,2,3:2:0:0:
172,277,37296,1,10,3:2:0:0:
377,192,37439,1,2,3:2:0:0:
137,193,37582,1,2,3:2:0:0:
341,277,37725,1,2,3:2:0:0:
172,108,37868,1,10,3:2:0:0:
257,313,38011,1,2,3:2:0:0:
257,73,38154,1,2,3:2:0:0:
172,277,38296,1,2,3:2:0:0:
341,108,38439,1,10,3:2:0:0:
137,193,38582,1,2,3:2:0:0:
376,193,38725,1,2,3:2:0:0:
172,108,38868,1,2,3:2:0:0:
341,277,39011,1,14,3:2:0:0:
257,73,39154,5,2,3:2:0:0:
257,313,39296,1,2,3:2:0:0:
341,108,39439,1,2,3:2:0:0:
172,277,39582,1,10,3:2:0:0:
377,192,39725,1,2,3:2:0:0:
137,193,39868,1,2,3:2:0:0:
341,277,40011,1,2,3:2:0:0:
172,108,40154,1,10,3:2:0:0:
257,313,40296,1,2,3:2:0:0:
257,73,40439,1,2,3:2:0:0:
172,277,40582,1,2,3:2:0:0:
341,108,40725,1,10,3:2:0:0:
137,193,40868,1,2,3:2:0:0:
376,193,41011,1,2,3:2:0:0:
172,108,41154,1,2,3:2:0:0:
341,277,41296,1,10,3:2:0:0:
257,73,41439,5,6,3:2:0:0:
257,313,41582,1,2,3:2:0:0:
341,108,41725,1,2,3:2:0:0:
172,277,41868,1,10,3:2:0:0:
377,192,42011,1,2,3:2:0:0:
137,193,42154,1,2,3:2:0:0:
341,277,42296,1,2,3:2:0:0:
172,108,42439,1,10,3:2:0:0:
257,313,42582,1,2,3:2:0:0:
257,73,42725,1,2,3:2:0:0:
172,277,42868,1,2,3:2:0:0:
341,108,43011,1,10,3:2:0:0:
137,193,43154,1,2,3:2:0:0:
376,193,43296,1,6,3:2:0:0:
172,108,43439,1,2,3:2:0:0:
341,277,43582,1,10,3:2:0:0:
257,73,43725,5,2,3:2:0:0:
257,313,43868,1,6,3:2:0:0:
341,108,44011,1,2,3:2:0:0:
172,277,44154,1,10,3:2:0:0:
377,192,44296,1,2,3:2:0:0:
137,193,44439,1,6,3:2:0:0:
341,277,44582,1,2,3:2:0:0:
172,108,44725,1,10,3:2:0:0:
257,313,44868,1,2,3:2:0:0:
257,73,45011,1,6,3:2:0:0:
172,277,45154,1,2,3:2:0:0:
341,108,45296,1,10,3:2:0:0:
137,193,45439,1,2,3:2:0:0:
376,193,45582,1,6,3:2:0:0:
172,108,45725,1,2,3:2:0:0:
341,277,45868,1,14,3:2:0:0:
257,73,46011,5,2,3:2:0:0:
257,313,46154,1,2,3:2:0:0:
341,108,46296,1,2,3:2:0:0:
172,277,46439,1,10,3:2:0:0:
377,192,46582,1,2,3:2:0:0:
137,193,46725,1,2,3:2:0:0:
341,277,46868,1,2,3:2:0:0:
172,108,47011,1,10,3:2:0:0:
257,313,47154,1,2,3:2:0:0:
257,73,47296,1,2,3:2:0:0:
172,277,47439,1,2,3:2:0:0:
341,108,47582,1,10,3:2:0:0:
137,193,47725,1,2,3:2:0:0:
376,193,47868,1,2,3:2:0:0:
172,108,48011,1,2,3:2:0:0:
341,277,48154,1,14,3:2:0:0:
257,73,48296,5,2,3:2:0:0:
257,313,48439,1,2,3:2:0:0:
341,108,48582,1,2,3:2:0:0:
172,277,48725,1,10,3:2:0:0:
377,192,48868,1,2,3:2:0:0:
137,193,49011,1,2,3:2:0:0:
341,277,49154,1,2,3:2:0:0:
172,108,49296,1,10,3:2:0:0:
257,313,49439,1,2,3:2:0:0:
257,73,49582,1,2,3:2:0:0:
172,277,49725,1,2,3:2:0:0:
341,108,49868,1,10,3:2:0:0:
137,193,50011,1,2,3:2:0:0:
376,193,50154,1,2,3:2:0:0:
172,108,50296,1,2,3:2:0:0:
341,277,50439,1,14,3:2:0:0:
257,73,50582,5,2,3:2:0:0:
257,313,50725,1,2,3:2:0:0:
341,108,50868,1,2,3:2:0:0:
172,277,51011,1,10,3:2:0:0:
377,192,51154,1,2,3:2:0:0:
137,193,51296,1,2,3:2:0:0:
341,277,51439,1,2,3:2:0:0:
172,108,51582,1,10,3:2:0:0:
257,313,51725,1,2,3:2:0:0:
257,73,51868,1,2,3:2:0:0:
172,277,52011,1,2,3:2:0:0:
341,108,52154,1,10,3:2:0:0:
137,193,52296,1,2,3:2:0:0:
376,193,52439,1,2,3:2:0:0:
172,108,52582,1,2,3:2:0:0:
341,277,52725,1,14,3:2:0:0:
257,73,52868,5,10,3:2:0:0:
257,313,53011,1,10,3:2:0:0:
341,108,53154,1,10,3:2:0:0:
172,277,53296,1,10,3:2:0:0:
377,192,53439,1,10,3:2:0:0:
137,193,53582,1,10,3:2:0:0:
341,277,53725,1,10,3:2:0:0:
172,108,53868,1,10,3:2:0:0:
257,313,54011,1,10,3:2:0:0:
257,73,54154,1,10,3:2:0:0:
172,277,54296,1,10,3:2:0:0:
341,108,54439,1,10,3:2:0:0:
137,193,54582,1,10,3:2:0:0:
376,193,54725,1,10,3:2:0:0:
172,108,54868,1,10,3:2:0:0:
341,277,55011,1,10,3:2:0:0:
257,73,55154,5,6,3:2:0:0:
257,313,55296,1,2,3:2:0:0:
341,108,55439,1,2,3:2:0:0:
172,277,55582,1,10,3:2:0:0:
377,192,55725,1,2,3:2:0:0:
137,193,55868,1,2,3:2:0:0:
341,277,56011,1,2,3:2:0:0:
172,108,56154,1,10,3:2:0:0:
257,313,56296,1,2,3:2:0:0:
257,73,56439,1,2,3:2:0:0:
172,277,56582,1,2,3:2:0:0:
341,108,56725,1,10,3:2:0:0:
137,193,56868,1,2,3:2:0:0:
376,193,57011,1,2,3:2:0:0:
172,108,57154,1,2,3:2:0:0:
341,277,57296,1,10,3:2:0:0:
257,73,57439,5,6,3:2:0:0:
257,313,57582,1,2,3:2:0:0:
341,108,57725,1,2,3:2:0:0:
172,277,57868,1,10,3:2:0:0:
377,192,58011,1,2,3:2:0:0:
137,193,58154,1,2,3:2:0:0:
341,277,58296,1,2,3:2:0:0:
172,108,58439,1,10,3:2:0:0:
257,313,58582,1,2,3:2:0:0:
257,73,58725,1,2,3:2:0:0:
172,277,58868,1,2,3:2:0:0:
341,108,59011,1,10,3:2:0:0:
137,193,59154,1,2,3:2:0:0:
376,193,59296,1,2,3:2:0:0:
172,108,59439,1,2,3:2:0:0:
341,277,59582,1,10,3:2:0:0:
257,73,59725,5,6,3:2:0:0:
257,313,59868,1,2,3:2:0:0:
341,108,60011,1,2,3:2:0:0:
172,277,60154,1,10,3:2:0:0:
377,192,60296,1,2,3:2:0:0:
137,193,60439,1,2,3:2:0:0:
341,277,60582,1,2,3:2:0:0:
172,108,60725,1,10,3:2:0:0:
257,313,60868,1,2,3:2:0:0:
257,73,61011,1,2,3:2:0:0:
172,277,61154,1,2,3:2:0:0:
341,108,61296,1,10,3:2:0:0:
137,193,61439,1,2,3:2:0:0:
376,193,61582,1,2,3:2:0:0:
172,108,61725,1,2,3:2:0:0:
341,277,61868,1,10,3:2:0:0:
257,73,62011,5,14,3:2:0:0:
257,313,62154,1,10,3:2:0:0:
341,108,62296,1,10,3:2:0:0:
172,277,62439,1,10,3:2:0:0:
377,192,62582,1,14,3:2:0:0:
137,193,62725,1,10,3:2:0:0:
341,277,62868,1,10,3:2:0:0:
172,108,63011,1,10,3:2:0:0:
257,313,63154,1,14,3:2:0:0:
257,73,63296,1,10,3:2:0:0:
172,277,63439,1,10,3:2:0:0:
341,108,63582,1,10,3:2:0:0:
137,193,63725,1,14,3:2:0:0:
376,193,63868,1,10,3:2:0:0:
172,108,64011,1,10,3:2:0:0:
341,277,64154,1,10,3:2:0:0:
257,73,64296,5,6,3:2:0:0:
257,313,64439,1,2,3:2:0:0:
341,108,64582,1,2,3:2:0:0:
172,277,64725,1,10,3:2:0:0:
377,192,64868,1,2,3:2:0:0:
137,193,65011,1,2,3:2:0:0:
341,277,65154,1,2,3:2:0:0:
172,108,65296,1,10,3:2:0:0:
257,313,65439,1,2,3:2:0:0:
257,73,65582,1,2,3:2:0:0:
172,277,65725,1,2,3:2:0:0:
341,108,65868,1,10,3:2:0:0:
137,193,66011,1,2,3:2:0:0:
376,193,66154,1,2,3:2:0:0:
172,108,66296,1,2,3:2:0:0:
341,277,66439,1,10,3:2:0:0:
257,73,66582,5,2,3:2:0:0:
257,313,66725,1,2,3:2:0:0:
341,108,66868,1,2,3:2:0:0:
172,277,67011,1,10,3:2:0:0:
377,192,67154,1,2,3:2:0:0:
137,193,67296,1,2,3:2:0:0:
341,277,67439,1,2,3:2:0:0:
172,108,67582,1,10,3:2:0:0:
257,313,67725,1,2,3:2:0:0:
257,73,67868,1,2,3:2:0:0:
172,277,68011,1,2,3:2:0:0:
341,108,68154,1,10,3:2:0:0:
137,193,68296,1,2,3:2:0:0:
376,193,68439,1,2,3:2:0:0:
172,108,68582,1,2,3:2:0:0:
341,277,68725,1,10,3:2:0:0:
257,73,68868,5,6,3:2:0:0:
257,313,69011,1,2,3:2:0:0:
341,108,69154,1,2,3:2:0:0:
172,277,69296,1,10,3:2:0:0:
377,192,69439,1,2,3:2:0:0:
137,193,69582,1,2,3:2:0:0:
341,277,69725,1,2,3:2:0:0:
172,108,69868,1,10,3:2:0:0:
257,313,70011,1,2,3:2:0:0:
257,73,70154,1,2,3:2:0:0:
172,277,70296,1,2,3:2:0:0:
341,108,70439,1,10,3:2:0:0:
137,193,70582,1,2,3:2:0:0:
376,193,70725,1,2,3:2:0:0:
172,108,70868,1,2,3:2:0:0:
341,277,71011,1,10,3:2:0:0:
257,73,71154,5,2,3:2:0:0:
257,313,71296,1,2,3:2:0:0:
341,108,71439,1,2,3:2:0:0:
172,277,71582,1,10,3:2:0:0:
377,192,71725,1,2,3:2:0:0:
137,193,71868,1,2,3:2:0:0:
341,277,72011,1,2,3:2:0:0:
172,108,72154,1,10,3:2:0:0:
257,313,72296,1,2,3:2:0:0:
257,73,72439,1,2,3:2:0:0:
172,277,72582,1,2,3:2:0:0:
341,108,72725,1,10,3:2:0:0:
137,193,72868,1,2,3:2:0:0:
376,193,73011,1,2,3:2:0:0:
172,108,73154,1,2,3:2:0:0:
341,277,73296,1,10,3:2:0:0:
257,73,73439,5,2,3:2:0:0:
257,313,73582,1,2,3:2:0:0:
341,108,73725,1,2,3:2:0:0:
172,277,73868,1,10,3:2:0:0:
377,192,74011,1,2,3:2:0:0:
137,193,74154,1,2,3:2:0:0:
341,277,74296,1,2,3:2:0:0:
172,108,74439,1,10,3:2:0:0:
257,313,74582,1,2,3:2:0:0:
257,73,74725,1,2,3:2:0:0:
172,277,74868,1,2,3:2:0:0:
341,108,75011,1,10,3:2:0:0:
137,193,75154,1,2,3:2:0:0:
376,193,75296,1,2,3:2:0:0:
172,108,75439,1,2,3:2:0:0:
341,277,75582,1,10,3:2:0:0:
257,73,75725,5,2,3:2:0:0:
257,313,75868,1,10,3:2:0:0:
341,108,76011,1,2,3:2:0:0:
172,277,76154,1,10,3:2:0:0:
377,192,76296,1,2,3:2:0:0:
137,193,76439,1,10,3:2:0:0:
341,277,76582,1,2,3:2:0:0:
172,108,76725,1,10,3:2:0:0:
257,313,76868,1,2,3:2:0:0:
257,73,77011,1,10,3:2:0:0:
172,277,77154,1,2,3:2:0:0:
341,108,77296,1,10,3:2:0:0:
137,193,77439,1,2,3:2:0:0:
376,193,77582,1,10,3:2:0:0:
172,108,77725,1,2,3:2:0:0:
341,277,77868,1,10,3:2:0:0:
257,73,78011,5,10,3:2:0:0:
257,313,78154,1,10,3:2:0:0:
341,108,78296,1,10,3:2:0:0:
172,277,78439,1,10,3:2:0:0:
377,192,78582,1,10,3:2:0:0:
137,193,78725,1,10,3:2:0:0:
341,277,78868,1,10,3:2:0:0:
172,108,79011,1,10,3:2:0:0:
257,313,79154,1,10,3:2:0:0:
257,73,79296,1,10,3:2:0:0:
172,277,79439,1,10,3:2:0:0:
341,108,79582,1,10,3:2:0:0:
137,193,79725,1,10,3:2:0:0:
376,193,79868,1,14,3:2:0:0:
