osu file format v14

[General]
AudioFilename: Red Like Roses.mp3
AudioLeadIn: 0
PreviewTime: 0
Countdown: 1
SampleSet: Soft
StackLeniency: 0.7
Mode: 0
LetterboxInBreaks: 1
WidescreenStoryboard: 1

[Editor]
Bookmarks: 123597,187721
DistanceSpacing: 1.5
BeatDivisor: 4
GridSize: 4
TimelineZoom: 2.1

[Metadata]
Title:Red Like Roses [Hard Part Training]
TitleUnicode:Red Like Roses [Hard Part Training]
Artist:Jeff Williams
ArtistUnicode:Jeff Williams
Creator:- - Makrica - -
Version:Full
Source:RWBY
Tags:Jeff Williams Red Like Roses
BeatmapID:1414404
BeatmapSetID:668593

[Difficulty]
HPDrainRate:5
CircleSize:4
OverallDifficulty:10
ApproachRate:10
SliderMultiplier:1.9
SliderTickRate:1

[Events]
//Background and Video events
0,0,"rwby-anime-ruby_rose.jpg",0,0
//Break Periods
//Storyboard Layer 0 (Background)
//Storyboard Layer 1 (Fail)
//Storyboard Layer 2 (Pass)
//Storyboard Layer 3 (Foreground)
//Storyboard Sound Samples

[TimingPoints]
297,285.714285714286,4,2,0,70,1,0

[Colours]
Combo1 : 255,255,255
Combo2 : 223,0,5
Combo3 : 232,243,3
Combo4 : 166,171,234

[HitObjects]
256,156,18582,5,6,3:2:0:0:
255,229,18725,1,2,3:2:0:0:
282,167,18868,1,2,3:2:0:0:
230,217,19011,1,10,3:2:0:0:
293,192,19154,1,2,3:2:0:0:
220,191,19297,1,2,3:2:0:0:
282,218,19439,1,2,3:2:0:0:
232,166,19582,1,10,3:2:0:0:
257,229,19725,1,2,3:2:0:0:
258,156,19868,1,2,3:2:0:0:
231,218,20011,1,2,3:2:0:0:
283,168,20154,1,10,3:2:0:0:
220,193,20297,1,2,3:2:0:0:
293,194,20440,1,2,3:2:0:0:
231,167,20582,1,2,3:2:0:0:
281,219,20725,1,10,3:2:0:0:
257,113,20868,5,6,3:2:0:0:
257,273,21011,1,2,3:2:0:0:
313,136,21154,1,2,3:2:0:0:
200,249,21297,1,10,3:2:0:0:
337,193,21439,1,2,3:2:0:0:
177,193,21582,1,2,3:2:0:0:
313,249,21725,1,2,3:2:0:0:
200,136,21868,1,10,3:2:0:0:
257,273,22011,1,2,3:2:0:0:
257,113,22154,1,2,3:2:0:0:
200,249,22297,1,2,3:2:0:0:
313,136,22440,1,10,3:2:0:0:
177,193,22582,1,2,3:2:0:0:
337,193,22725,1,2,3:2:0:0:
200,136,22868,1,2,3:2:0:0:
313,249,23011,1,10,3:2:0:0:
257,73,23154,5,6,3:2:0:0:
257,313,23297,1,2,3:2:0:0:
341,108,23439,1,2,3:2:0:0:
172,277,23582,1,10,3:2:0:0:
377,192,23725,1,2,3:2:0:0:
137,193,23868,1,2,3:2:0:0:
341,277,24011,1,2,3:2:0:0:
172,108,24154,1,10,3:2:0:0:
257,313,24297,1,2,3:2:0:0:
257,73,24440,1,2,3:2:0:0:
172,277,24582,1,2,3:2:0:0:
341,108,24725,1,10,3:2:0:0:
137,193,24868,1,2,3:2:0:0:
376,193,25011,1,2,3:2:0:0:
172,108,25154,1,2,3:2:0:0:
341,277,25297,1,10,3:2:0:0:
257,33,25439,5,6,3:2:0:0:
257,353,25582,1,2,3:2:0:0:
370,79,25725,1,2,3:2:0:0:
143,306,25868,1,10,3:2:0:0:
417,193,26011,1,2,3:2:0:0:
97,193,26154,1,2,3:2:0:0:
370,306,26297,1,2,3:2:0:0:
143,79,26440,1,10,3:2:0:0:
257,353,26582,5,6,3:2:0:0:
370,79,26725,1,2,3:2:0:0:
143,80,26868,1,2,3:2:0:0:
257,352,27011,1,10,3:2:0:0:
258,33,27154,5,6,3:2:0:0:
143,305,27297,1,2,3:2:0:0:
370,306,27439,1,2,3:2:0:0:
257,33,27582,1,10,3:2:0:0:
257,353,27725,5,6,3:2:0:0:
257,193,27868,5,2,3:2:0:0:
225,193,28011,1,2,3:2:0:0:
289,193,28154,1,10,3:2:0:0:
201,183,28297,1,2,3:2:0:0:
312,202,28439,1,2,3:2:0:0:
181,165,28582,1,2,3:2:0:0:
332,220,28725,1,10,3:2:0:0:
163,139,28868,1,2,3:2:0:0:
353,249,29011,1,2,3:2:0:0:
149,103,29154,1,2,3:2:0:0:
367,285,29297,1,10,3:2:0:0:
146,61,29439,1,2,3:2:0:0:
370,327,29582,1,2,3:2:0:0:
155,16,29725,1,2,3:2:0:0:
361,373,29868,1,10,3:2:0:0:
257,193,30011,5,6,3:2:0:0:
257,193,30154,1,2,3:2:0:0:
289,193,30297,1,2,3:2:0:0:
225,193,30440,1,10,3:2:0:0:
312,183,30583,1,2,3:2:0:0:
201,202,30725,1,2,3:2:0:0:
332,165,30868,1,2,3:2:0:0:
181,220,31011,1,10,3:2:0:0:
350,139,31154,1,2,3:2:0:0:
160,249,31297,1,2,3:2:0:0:
364,103,31440,1,2,3:2:0:0:
146,285,31583,1,10,3:2:0:0:
367,61,31725,1,2,3:2:0:0:
143,327,31868,1,2,3:2:0:0:
359,16,32011,1,2,3:2:0:0:
153,373,32154,1,10,3:2:0:0:
257,193,32296,5,6,3:2:0:0:
234,170,32439,1,2,3:2:0:0:
279,215,32581,1,2,3:2:0:0:
201,193,32724,1,10,3:2:0:0:
313,193,32867,1,2,3:2:0:0:
200,249,33010,1,2,3:2:0:0:
313,136,33153,1,2,3:2:0:0:
257,297,33296,1,10,3:2:0:0:
257,88,33439,1,2,3:2:0:0:
347,283,33581,1,2,3:2:0:0:
166,102,33724,1,2,3:2:0:0:
409,193,33867,1,10,3:2:0:0:
105,193,34010,1,2,3:2:0:0:
375,74,34153,1,2,3:2:0:0:
138,311,34296,1,2,3:2:0:0:
257,8,34439,1,10,3:2:0:0:
356,291,34582,5,6,3:2:0:0:
158,292,34725,1,2,3:2:0:0:
356,94,34868,1,2,3:2:0:0:
158,95,35011,1,10,3:2:0:0:
356,291,35154,1,2,3:2:0:0:
158,292,35297,1,2,3:2:0:0:
356,94,35439,1,2,3:2:0:0:
158,95,35582,1,10,3:2:0:0:
417,339,35725,1,6,3:2:0:0:
97,47,35868,1,2,3:2:0:0:
488,250,36011,1,2,3:2:0:0:
26,136,36154,1,10,3:2:0:0:
488,136,36297,1,6,3:2:0:0:
26,250,36439,1,10,3:2:0:0:
417,47,36582,1,10,3:2:0:0:
97,339,36726,1,10,3:2:0:0:
