osu file format v14

[General]
AudioFilename: Red Like Roses.mp3
AudioLeadIn: 0
PreviewTime: 0
Countdown: 1
SampleSet: Soft
StackLeniency: 0.7
Mode: 0
LetterboxInBreaks: 1
WidescreenStoryboard: 1

[Editor]
Bookmarks: 123597,187721
DistanceSpacing: 1.5
BeatDivisor: 4
GridSize: 4
TimelineZoom: 1.5

[Metadata]
Title:Red Like Roses [Hard Part Training]
TitleUnicode:Red Like Roses [Hard Part Training]
Artist:Jeff Williams
ArtistUnicode:Jeff Williams
Creator:- - Makrica - -
Version:Rabbit jumps
Source:RWBY
Tags:Jeff Williams Red Like Roses
BeatmapID:1414436
BeatmapSetID:668593

[Difficulty]
HPDrainRate:5
CircleSize:4
OverallDifficulty:10
ApproachRate:10
SliderMultiplier:1.9
SliderTickRate:1

[Events]
//Background and Video events
0,0,"rwby-anime-ruby_rose.jpg",0,0
//Break Periods
//Storyboard Layer 0 (Background)
//Storyboard Layer 1 (Fail)
//Storyboard Layer 2 (Pass)
//Storyboard Layer 3 (Foreground)
//Storyboard Sound Samples

[TimingPoints]
297,285.714285714286,4,2,0,70,1,0

[Colours]
Combo1 : 255,255,255
Combo2 : 223,0,5
Combo3 : 232,243,3
Combo4 : 166,171,234

[HitObjects]
255,193,18582,5,6,3:2:0:0:
255,193,18725,1,2,3:2:0:0:
223,193,18868,1,2,3:2:0:0:
287,193,19011,1,10,3:2:0:0:
200,183,19153,1,2,3:2:0:0:
311,202,19296,1,2,3:2:0:0:
180,165,19439,1,2,3:2:0:0:
331,220,19582,1,10,3:2:0:0:
162,139,19725,1,2,3:2:0:0:
352,249,19868,1,2,3:2:0:0:
148,103,20011,1,2,3:2:0:0:
366,285,20153,1,10,3:2:0:0:
145,61,20296,1,2,3:2:0:0:
369,327,20439,1,2,3:2:0:0:
153,16,20582,1,2,3:2:0:0:
359,373,20725,1,10,3:2:0:0:
257,193,20868,5,6,3:2:0:0:
257,193,21011,1,2,3:2:0:0:
289,193,21154,1,2,3:2:0:0:
225,193,21297,1,10,3:2:0:0:
312,183,21439,1,2,3:2:0:0:
201,202,21582,1,2,3:2:0:0:
332,165,21725,1,2,3:2:0:0:
181,220,21868,1,10,3:2:0:0:
350,139,22011,1,2,3:2:0:0:
160,249,22154,1,2,3:2:0:0:
364,103,22297,1,2,3:2:0:0:
146,285,22439,1,10,3:2:0:0:
367,61,22582,1,2,3:2:0:0:
143,327,22725,1,2,3:2:0:0:
359,16,22868,1,2,3:2:0:0:
153,373,23011,1,10,3:2:0:0:
255,193,23154,5,6,3:2:0:0:
255,193,23297,1,2,3:2:0:0:
223,193,23440,1,2,3:2:0:0:
287,193,23583,1,10,3:2:0:0:
200,183,23725,1,2,3:2:0:0:
311,202,23868,1,2,3:2:0:0:
180,165,24011,1,2,3:2:0:0:
331,220,24154,1,10,3:2:0:0:
162,139,24297,1,2,3:2:0:0:
352,249,24440,1,2,3:2:0:0:
148,103,24583,1,2,3:2:0:0:
366,285,24725,1,10,3:2:0:0:
145,61,24868,1,2,3:2:0:0:
369,327,25011,1,2,3:2:0:0:
153,16,25154,1,2,3:2:0:0:
359,373,25297,1,10,3:2:0:0:
257,193,25440,5,6,3:2:0:0:
257,193,25583,1,2,3:2:0:0:
289,193,25726,1,2,3:2:0:0:
225,193,25869,1,10,3:2:0:0:
312,183,26011,1,2,3:2:0:0:
201,202,26154,1,2,3:2:0:0:
332,165,26297,1,2,3:2:0:0:
181,220,26440,1,10,3:2:0:0:
350,139,26583,1,6,3:2:0:0:
160,249,26726,1,2,3:2:0:0:
364,103,26869,1,2,3:2:0:0:
146,285,27011,1,10,3:2:0:0:
367,61,27154,1,6,3:2:0:0:
143,327,27297,1,2,3:2:0:0:
359,16,27440,1,2,3:2:0:0:
153,373,27583,1,10,3:2:0:0:
255,193,27725,5,6,3:2:0:0:
255,193,27868,1,2,3:2:0:0:
223,193,28011,1,2,3:2:0:0:
287,193,28154,1,10,3:2:0:0:
200,183,28296,1,2,3:2:0:0:
311,202,28439,1,2,3:2:0:0:
180,165,28582,1,2,3:2:0:0:
331,220,28725,1,10,3:2:0:0:
162,139,28868,1,2,3:2:0:0:
352,249,29011,1,2,3:2:0:0:
148,103,29154,1,2,3:2:0:0:
366,285,29296,1,10,3:2:0:0:
145,61,29439,1,2,3:2:0:0:
369,327,29582,1,2,3:2:0:0:
153,16,29725,1,2,3:2:0:0:
359,373,29868,1,10,3:2:0:0:
257,193,30011,5,6,3:2:0:0:
257,193,30154,1,2,3:2:0:0:
289,193,30297,1,2,3:2:0:0:
225,193,30440,1,10,3:2:0:0:
312,183,30582,1,2,3:2:0:0:
201,202,30725,1,2,3:2:0:0:
332,165,30868,1,2,3:2:0:0:
181,220,31011,1,10,3:2:0:0:
350,139,31154,1,2,3:2:0:0:
160,249,31297,1,2,3:2:0:0:
364,103,31440,1,2,3:2:0:0:
146,285,31582,1,10,3:2:0:0:
367,61,31725,1,2,3:2:0:0:
143,327,31868,1,2,3:2:0:0:
359,16,32011,1,2,3:2:0:0:
153,373,32154,1,10,3:2:0:0:
255,193,32297,5,6,3:2:0:0:
255,193,32440,1,2,3:2:0:0:
223,193,32583,1,2,3:2:0:0:
287,193,32726,1,10,3:2:0:0:
200,183,32868,1,2,3:2:0:0:
311,202,33011,1,2,3:2:0:0:
180,165,33154,1,2,3:2:0:0:
331,220,33297,1,10,3:2:0:0:
162,139,33440,1,2,3:2:0:0:
352,249,33583,1,2,3:2:0:0:
148,103,33726,1,2,3:2:0:0:
366,285,33868,1,10,3:2:0:0:
145,61,34011,1,2,3:2:0:0:
369,327,34154,1,2,3:2:0:0:
153,16,34297,1,2,3:2:0:0:
359,373,34440,1,10,3:2:0:0:
257,193,34583,5,6,3:2:0:0:
257,193,34726,1,2,3:2:0:0:
289,193,34869,1,2,3:2:0:0:
225,193,35012,1,10,3:2:0:0:
312,183,35154,1,2,3:2:0:0:
201,202,35297,1,2,3:2:0:0:
332,165,35440,1,2,3:2:0:0:
181,220,35583,1,10,3:2:0:0:
350,139,35726,1,6,3:2:0:0:
160,249,35869,1,2,3:2:0:0:
364,103,36012,1,2,3:2:0:0:
146,285,36154,1,10,3:2:0:0:
367,61,36297,1,6,3:2:0:0:
143,327,36440,1,10,3:2:0:0:
359,16,36583,1,10,3:2:0:0:
153,373,36726,1,10,3:2:0:0:
255,193,36868,5,6,3:2:0:0:
255,193,37011,1,2,3:2:0:0:
223,193,37154,1,2,3:2:0:0:
287,193,37297,1,10,3:2:0:0:
200,183,37439,1,2,3:2:0:0:
311,202,37582,1,2,3:2:0:0:
180,165,37725,1,2,3:2:0:0:
331,220,37868,1,10,3:2:0:0:
162,139,38011,1,2,3:2:0:0:
352,249,38154,1,2,3:2:0:0:
148,103,38297,1,2,3:2:0:0:
366,285,38439,1,10,3:2:0:0:
145,61,38582,1,2,3:2:0:0:
369,327,38725,1,2,3:2:0:0:
153,16,38868,1,2,3:2:0:0:
359,373,39011,1,14,3:2:0:0:
257,193,39154,5,2,3:2:0:0:
257,193,39297,1,2,3:2:0:0:
289,193,39440,1,2,3:2:0:0:
225,193,39583,1,10,3:2:0:0:
312,183,39725,1,2,3:2:0:0:
201,202,39868,1,2,3:2:0:0:
332,165,40011,1,2,3:2:0:0:
181,220,40154,1,10,3:2:0:0:
350,139,40297,1,2,3:2:0:0:
160,249,40440,1,2,3:2:0:0:
364,103,40583,1,2,3:2:0:0:
146,285,40725,1,10,3:2:0:0:
367,61,40868,1,2,3:2:0:0:
143,327,41011,1,2,3:2:0:0:
359,16,41154,1,2,3:2:0:0:
153,373,41297,1,10,3:2:0:0:
255,193,41439,5,6,3:2:0:0:
255,193,41582,1,2,3:2:0:0:
223,193,41725,1,2,3:2:0:0:
287,193,41868,1,10,3:2:0:0:
200,183,42010,1,2,3:2:0:0:
311,202,42153,1,2,3:2:0:0:
180,165,42296,1,2,3:2:0:0:
331,220,42439,1,10,3:2:0:0:
162,139,42582,1,2,3:2:0:0:
352,249,42725,1,2,3:2:0:0:
148,103,42868,1,2,3:2:0:0:
366,285,43010,1,10,3:2:0:0:
145,61,43153,1,2,3:2:0:0:
369,327,43296,1,6,3:2:0:0:
153,16,43439,1,2,3:2:0:0:
359,373,43582,1,10,3:2:0:0:
257,193,43725,5,2,3:2:0:0:
257,193,43868,1,6,3:2:0:0:
289,193,44011,1,2,3:2:0:0:
225,193,44154,1,10,3:2:0:0:
312,183,44296,1,2,3:2:0:0:
201,202,44439,1,6,3:2:0:0:
332,165,44582,1,2,3:2:0:0:
181,220,44725,1,10,3:2:0:0:
350,139,44868,1,2,3:2:0:0:
160,249,45011,1,6,3:2:0:0:
364,103,45154,1,2,3:2:0:0:
146,285,45296,1,10,3:2:0:0:
367,61,45439,1,2,3:2:0:0:
143,327,45582,1,6,3:2:0:0:
359,16,45725,1,2,3:2:0:0:
153,373,45868,1,14,3:2:0:0:
255,193,46011,5,2,3:2:0:0:
255,193,46154,1,2,3:2:0:0:
223,193,46297,1,2,3:2:0:0:
287,193,46440,1,10,3:2:0:0:
200,183,46582,1,2,3:2:0:0:
311,202,46725,1,2,3:2:0:0:
180,165,46868,1,2,3:2:0:0:
331,220,47011,1,10,3:2:0:0:
162,139,47154,1,2,3:2:0:0:
352,249,47297,1,2,3:2:0:0:
148,103,47440,1,2,3:2:0:0:
366,285,47582,1,10,3:2:0:0:
145,61,47725,1,2,3:2:0:0:
369,327,47868,1,2,3:2:0:0:
153,16,48011,1,2,3:2:0:0:
359,373,48154,1,14,3:2:0:0:
257,193,48297,5,2,3:2:0:0:
257,193,48440,1,2,3:2:0:0:
289,193,48583,1,2,3:2:0:0:
225,193,48726,1,10,3:2:0:0:
312,183,48868,1,2,3:2:0:0:
201,202,49011,1,2,3:2:0:0:
332,165,49154,1,2,3:2:0:0:
181,220,49297,1,10,3:2:0:0:
350,139,49440,1,2,3:2:0:0:
160,249,49583,1,2,3:2:0:0:
364,103,49726,1,2,3:2:0:0:
146,285,49868,1,10,3:2:0:0:
367,61,50011,1,2,3:2:0:0:
143,327,50154,1,2,3:2:0:0:
359,16,50297,1,2,3:2:0:0:
153,373,50440,1,14,3:2:0:0:
255,193,50582,5,2,3:2:0:0:
255,193,50725,1,2,3:2:0:0:
223,193,50868,1,2,3:2:0:0:
287,193,51011,1,10,3:2:0:0:
200,183,51153,1,2,3:2:0:0:
311,202,51296,1,2,3:2:0:0:
180,165,51439,1,2,3:2:0:0:
331,220,51582,1,10,3:2:0:0:
162,139,51725,1,2,3:2:0:0:
352,249,51868,1,2,3:2:0:0:
148,103,52011,1,2,3:2:0:0:
366,285,52153,1,10,3:2:0:0:
145,61,52296,1,2,3:2:0:0:
369,327,52439,1,2,3:2:0:0:
153,16,52582,1,2,3:2:0:0:
359,373,52725,1,14,3:2:0:0:
257,193,52868,5,10,3:2:0:0:
257,193,53011,1,10,3:2:0:0:
289,193,53154,1,10,3:2:0:0:
225,193,53297,1,10,3:2:0:0:
312,183,53439,1,10,3:2:0:0:
201,202,53582,1,10,3:2:0:0:
332,165,53725,1,10,3:2:0:0:
181,220,53868,1,10,3:2:0:0:
350,139,54011,1,10,3:2:0:0:
160,249,54154,1,10,3:2:0:0:
364,103,54297,1,10,3:2:0:0:
146,285,54439,1,10,3:2:0:0:
367,61,54582,1,10,3:2:0:0:
143,327,54725,1,10,3:2:0:0:
359,16,54868,1,10,3:2:0:0:
153,373,55011,1,10,3:2:0:0:
255,193,55154,5,6,3:2:0:0:
255,193,55297,1,2,3:2:0:0:
223,193,55440,1,2,3:2:0:0:
287,193,55583,1,10,3:2:0:0:
200,183,55725,1,2,3:2:0:0:
311,202,55868,1,2,3:2:0:0:
180,165,56011,1,2,3:2:0:0:
331,220,56154,1,10,3:2:0:0:
162,139,56297,1,2,3:2:0:0:
352,249,56440,1,2,3:2:0:0:
148,103,56583,1,2,3:2:0:0:
366,285,56725,1,10,3:2:0:0:
145,61,56868,1,2,3:2:0:0:
369,327,57011,1,2,3:2:0:0:
153,16,57154,1,2,3:2:0:0:
359,373,57297,1,10,3:2:0:0:
257,193,57440,5,6,3:2:0:0:
257,193,57583,1,2,3:2:0:0:
289,193,57726,1,2,3:2:0:0:
225,193,57869,1,10,3:2:0:0:
312,183,58011,1,2,3:2:0:0:
201,202,58154,1,2,3:2:0:0:
332,165,58297,1,2,3:2:0:0:
181,220,58440,1,10,3:2:0:0:
350,139,58583,1,2,3:2:0:0:
160,249,58726,1,2,3:2:0:0:
364,103,58869,1,2,3:2:0:0:
146,285,59011,1,10,3:2:0:0:
367,61,59154,1,2,3:2:0:0:
143,327,59297,1,2,3:2:0:0:
359,16,59440,1,2,3:2:0:0:
153,373,59583,1,10,3:2:0:0:
255,193,59725,5,6,3:2:0:0:
255,193,59868,1,2,3:2:0:0:
223,193,60011,1,2,3:2:0:0:
287,193,60154,1,10,3:2:0:0:
200,183,60296,1,2,3:2:0:0:
311,202,60439,1,2,3:2:0:0:
180,165,60582,1,2,3:2:0:0:
331,220,60725,1,10,3:2:0:0:
162,139,60868,1,2,3:2:0:0:
352,249,61011,1,2,3:2:0:0:
148,103,61154,1,2,3:2:0:0:
366,285,61296,1,10,3:2:0:0:
145,61,61439,1,2,3:2:0:0:
369,327,61582,1,2,3:2:0:0:
153,16,61725,1,2,3:2:0:0:
359,373,61868,1,10,3:2:0:0:
257,193,62011,5,14,3:2:0:0:
257,193,62154,1,10,3:2:0:0:
289,193,62297,1,10,3:2:0:0:
225,193,62440,1,10,3:2:0:0:
312,183,62582,1,14,3:2:0:0:
201,202,62725,1,10,3:2:0:0:
332,165,62868,1,10,3:2:0:0:
181,220,63011,1,10,3:2:0:0:
350,139,63154,1,14,3:2:0:0:
160,249,63297,1,10,3:2:0:0:
364,103,63440,1,10,3:2:0:0:
146,285,63582,1,10,3:2:0:0:
367,61,63725,1,14,3:2:0:0:
143,327,63868,1,10,3:2:0:0:
359,16,64011,1,10,3:2:0:0:
153,373,64154,1,10,3:2:0:0:
255,193,64297,5,6,3:2:0:0:
255,193,64440,1,2,3:2:0:0:
223,193,64583,1,2,3:2:0:0:
287,193,64726,1,10,3:2:0:0:
200,183,64868,1,2,3:2:0:0:
311,202,65011,1,2,3:2:0:0:
180,165,65154,1,2,3:2:0:0:
331,220,65297,1,10,3:2:0:0:
162,139,65440,1,2,3:2:0:0:
352,249,65583,1,2,3:2:0:0:
148,103,65726,1,2,3:2:0:0:
366,285,65868,1,10,3:2:0:0:
145,61,66011,1,2,3:2:0:0:
369,327,66154,1,2,3:2:0:0:
153,16,66297,1,2,3:2:0:0:
359,373,66440,1,10,3:2:0:0:
257,193,66583,5,2,3:2:0:0:
257,193,66726,1,2,3:2:0:0:
289,193,66869,1,2,3:2:0:0:
225,193,67012,1,10,3:2:0:0:
312,183,67154,1,2,3:2:0:0:
201,202,67297,1,2,3:2:0:0:
332,165,67440,1,2,3:2:0:0:
181,220,67583,1,10,3:2:0:0:
350,139,67726,1,2,3:2:0:0:
160,249,67869,1,2,3:2:0:0:
364,103,68012,1,2,3:2:0:0:
146,285,68154,1,10,3:2:0:0:
367,61,68297,1,2,3:2:0:0:
143,327,68440,1,2,3:2:0:0:
359,16,68583,1,2,3:2:0:0:
153,373,68726,1,10,3:2:0:0:
255,193,68868,5,6,3:2:0:0:
255,193,69011,1,2,3:2:0:0:
223,193,69154,1,2,3:2:0:0:
287,193,69297,1,10,3:2:0:0:
200,183,69439,1,2,3:2:0:0:
311,202,69582,1,2,3:2:0:0:
180,165,69725,1,2,3:2:0:0:
331,220,69868,1,10,3:2:0:0:
162,139,70011,1,2,3:2:0:0:
352,249,70154,1,2,3:2:0:0:
148,103,70297,1,2,3:2:0:0:
366,285,70439,1,10,3:2:0:0:
145,61,70582,1,2,3:2:0:0:
369,327,70725,1,2,3:2:0:0:
153,16,70868,1,2,3:2:0:0:
359,373,71011,1,10,3:2:0:0:
257,193,71154,5,2,3:2:0:0:
257,193,71297,1,2,3:2:0:0:
289,193,71440,1,2,3:2:0:0:
225,193,71583,1,10,3:2:0:0:
312,183,71725,1,2,3:2:0:0:
201,202,71868,1,2,3:2:0:0:
332,165,72011,1,2,3:2:0:0:
181,220,72154,1,10,3:2:0:0:
350,139,72297,1,2,3:2:0:0:
160,249,72440,1,2,3:2:0:0:
364,103,72583,1,2,3:2:0:0:
146,285,72725,1,10,3:2:0:0:
367,61,72868,1,2,3:2:0:0:
143,327,73011,1,2,3:2:0:0:
359,16,73154,1,2,3:2:0:0:
153,373,73297,1,10,3:2:0:0:
255,193,73439,5,2,3:2:0:0:
255,193,73582,1,2,3:2:0:0:
223,193,73725,1,2,3:2:0:0:
287,193,73868,1,10,3:2:0:0:
200,183,74010,1,2,3:2:0:0:
311,202,74153,1,2,3:2:0:0:
180,165,74296,1,2,3:2:0:0:
331,220,74439,1,10,3:2:0:0:
162,139,74582,1,2,3:2:0:0:
352,249,74725,1,2,3:2:0:0:
148,103,74868,1,2,3:2:0:0:
366,285,75010,1,10,3:2:0:0:
145,61,75153,1,2,3:2:0:0:
369,327,75296,1,2,3:2:0:0:
153,16,75439,1,2,3:2:0:0:
359,373,75582,1,10,3:2:0:0:
257,193,75725,5,2,3:2:0:0:
257,193,75868,1,10,3:2:0:0:
289,193,76011,1,2,3:2:0:0:
225,193,76154,1,10,3:2:0:0:
312,183,76296,1,2,3:2:0:0:
201,202,76439,1,10,3:2:0:0:
332,165,76582,1,2,3:2:0:0:
181,220,76725,1,10,3:2:0:0:
350,139,76868,1,2,3:2:0:0:
160,249,77011,1,10,3:2:0:0:
364,103,77154,1,2,3:2:0:0:
146,285,77296,1,10,3:2:0:0:
367,61,77439,1,2,3:2:0:0:
143,327,77582,1,10,3:2:0:0:
359,16,77725,1,2,3:2:0:0:
153,373,77868,1,10,3:2:0:0:
255,193,78011,5,10,3:2:0:0:
255,193,78154,1,10,3:2:0:0:
223,193,78297,1,10,3:2:0:0:
287,193,78440,1,10,3:2:0:0:
200,183,78582,1,10,3:2:0:0:
311,202,78725,1,10,3:2:0:0:
180,165,78868,1,10,3:2:0:0:
331,220,79011,1,10,3:2:0:0:
162,139,79154,1,10,3:2:0:0:
352,249,79297,1,10,3:2:0:0:
148,103,79440,1,10,3:2:0:0:
366,285,79582,1,10,3:2:0:0:
145,61,79725,1,10,3:2:0:0:
369,327,79868,1,14,3:2:0:0:
