osu file format v14

[General]
AudioFilename: Red Like Roses.mp3
AudioLeadIn: 0
PreviewTime: 0
Countdown: 1
SampleSet: Soft
StackLeniency: 0.7
Mode: 0
LetterboxInBreaks: 1
WidescreenStoryboard: 1

[Editor]
Bookmarks: 123597,187721
DistanceSpacing: 1.5
BeatDivisor: 4
GridSize: 4
TimelineZoom: 2.5

[Metadata]
Title:Red Like Roses [Hard Part Training]
TitleUnicode:Red Like Roses [Hard Part Training]
Artist:Jeff Williams
ArtistUnicode:Jeff Williams
Creator:- - Makrica - -
Version:Easy Stars
Source:RWBY
Tags:Jeff Williams Red Like Roses
BeatmapID:1414437
BeatmapSetID:668593

[Difficulty]
HPDrainRate:5
CircleSize:4
OverallDifficulty:10
ApproachRate:10
SliderMultiplier:1.9
SliderTickRate:1

[Events]
//Background and Video events
0,0,"rwby-anime-ruby_rose.jpg",0,0
//Break Periods
//Storyboard Layer 0 (Background)
//Storyboard Layer 1 (Fail)
//Storyboard Layer 2 (Pass)
//Storyboard Layer 3 (Foreground)
//Storyboard Sound Samples

[TimingPoints]
297,285.714285714286,4,2,0,70,1,0

[Colours]
Combo1 : 255,255,255
Combo2 : 223,0,5
Combo3 : 232,243,3
Combo4 : 166,171,234

[HitObjects]
256,156,18582,5,6,3:2:0:0:
255,229,18725,1,2,3:2:0:0:
282,167,18868,1,2,3:2:0:0:
230,217,19011,1,10,3:2:0:0:
293,192,19154,1,2,3:2:0:0:
220,191,19296,1,2,3:2:0:0:
282,218,19439,1,2,3:2:0:0:
232,166,19582,1,10,3:2:0:0:
257,229,19725,1,2,3:2:0:0:
258,156,19868,1,2,3:2:0:0:
231,218,20011,1,2,3:2:0:0:
283,168,20154,1,10,3:2:0:0:
220,193,20296,1,2,3:2:0:0:
293,194,20439,1,2,3:2:0:0:
231,167,20582,1,2,3:2:0:0:
281,219,20725,1,10,3:2:0:0:
256,156,20868,5,6,3:2:0:0:
255,229,21011,1,2,3:2:0:0:
282,167,21154,1,2,3:2:0:0:
230,217,21296,1,10,3:2:0:0:
293,192,21439,1,2,3:2:0:0:
220,191,21582,1,2,3:2:0:0:
282,218,21725,1,2,3:2:0:0:
232,166,21868,1,10,3:2:0:0:
257,229,22011,1,2,3:2:0:0:
258,156,22154,1,2,3:2:0:0:
231,218,22296,1,2,3:2:0:0:
283,168,22439,1,10,3:2:0:0:
220,193,22582,1,2,3:2:0:0:
293,194,22725,1,2,3:2:0:0:
231,167,22868,1,2,3:2:0:0:
281,219,23011,1,10,3:2:0:0:
256,156,23154,5,6,3:2:0:0:
255,229,23296,1,2,3:2:0:0:
282,167,23439,1,2,3:2:0:0:
230,217,23582,1,10,3:2:0:0:
293,192,23725,1,2,3:2:0:0:
220,191,23868,1,2,3:2:0:0:
282,218,24011,1,2,3:2:0:0:
232,166,24154,1,10,3:2:0:0:
257,229,24296,1,2,3:2:0:0:
258,156,24439,1,2,3:2:0:0:
231,218,24582,1,2,3:2:0:0:
283,168,24725,1,10,3:2:0:0:
220,193,24868,1,2,3:2:0:0:
293,194,25011,1,2,3:2:0:0:
231,167,25154,1,2,3:2:0:0:
281,219,25296,1,10,3:2:0:0:
256,156,25439,5,6,3:2:0:0:
255,229,25582,1,2,3:2:0:0:
282,167,25725,1,2,3:2:0:0:
230,217,25868,1,10,3:2:0:0:
293,192,26011,1,2,3:2:0:0:
220,191,26154,1,2,3:2:0:0:
282,218,26296,1,2,3:2:0:0:
232,166,26439,1,10,3:2:0:0:
257,229,26582,1,6,3:2:0:0:
258,156,26725,1,2,3:2:0:0:
231,218,26868,1,2,3:2:0:0:
283,168,27011,1,10,3:2:0:0:
220,193,27154,1,6,3:2:0:0:
293,194,27296,1,2,3:2:0:0:
231,167,27439,1,2,3:2:0:0:
281,219,27582,1,10,3:2:0:0:
256,156,27725,5,6,3:2:0:0:
255,229,27868,1,2,3:2:0:0:
282,167,28011,1,2,3:2:0:0:
230,217,28154,1,10,3:2:0:0:
293,192,28296,1,2,3:2:0:0:
220,191,28439,1,2,3:2:0:0:
282,218,28582,1,2,3:2:0:0:
232,166,28725,1,10,3:2:0:0:
257,229,28868,1,2,3:2:0:0:
258,156,29011,1,2,3:2:0:0:
231,218,29154,1,2,3:2:0:0:
283,168,29296,1,10,3:2:0:0:
220,193,29439,1,2,3:2:0:0:
293,194,29582,1,2,3:2:0:0:
231,167,29725,1,2,3:2:0:0:
281,219,29868,1,10,3:2:0:0:
256,156,30011,5,6,3:2:0:0:
255,229,30154,1,2,3:2:0:0:
282,167,30296,1,2,3:2:0:0:
230,217,30439,1,10,3:2:0:0:
293,192,30582,1,2,3:2:0:0:
220,191,30725,1,2,3:2:0:0:
282,218,30868,1,2,3:2:0:0:
232,166,31011,1,10,3:2:0:0:
257,229,31154,1,2,3:2:0:0:
258,156,31296,1,2,3:2:0:0:
231,218,31439,1,2,3:2:0:0:
283,168,31582,1,10,3:2:0:0:
220,193,31725,1,2,3:2:0:0:
293,194,31868,1,2,3:2:0:0:
231,167,32011,1,2,3:2:0:0:
281,219,32154,1,10,3:2:0:0:
256,156,32296,5,6,3:2:0:0:
255,229,32439,1,2,3:2:0:0:
282,167,32582,1,2,3:2:0:0:
230,217,32725,1,10,3:2:0:0:
293,192,32868,1,2,3:2:0:0:
220,191,33011,1,2,3:2:0:0:
282,218,33154,1,2,3:2:0:0:
232,166,33296,1,10,3:2:0:0:
257,229,33439,1,2,3:2:0:0:
258,156,33582,1,2,3:2:0:0:
231,218,33725,1,2,3:2:0:0:
283,168,33868,1,10,3:2:0:0:
220,193,34011,1,2,3:2:0:0:
293,194,34154,1,2,3:2:0:0:
231,167,34296,1,2,3:2:0:0:
281,219,34439,1,10,3:2:0:0:
256,156,34582,5,6,3:2:0:0:
255,229,34725,1,2,3:2:0:0:
282,167,34868,1,2,3:2:0:0:
230,217,35011,1,10,3:2:0:0:
293,192,35154,1,2,3:2:0:0:
220,191,35296,1,2,3:2:0:0:
282,218,35439,1,2,3:2:0:0:
232,166,35582,1,10,3:2:0:0:
257,229,35725,1,6,3:2:0:0:
258,156,35868,1,2,3:2:0:0:
231,218,36011,1,2,3:2:0:0:
283,168,36154,1,10,3:2:0:0:
220,193,36296,1,6,3:2:0:0:
293,194,36439,1,10,3:2:0:0:
231,167,36582,1,10,3:2:0:0:
281,219,36725,1,10,3:2:0:0:
256,156,36868,5,6,3:2:0:0:
255,229,37011,1,2,3:2:0:0:
282,167,37154,1,2,3:2:0:0:
230,217,37296,1,10,3:2:0:0:
293,192,37439,1,2,3:2:0:0:
220,191,37582,1,2,3:2:0:0:
282,218,37725,1,2,3:2:0:0:
232,166,37868,1,10,3:2:0:0:
257,229,38011,1,2,3:2:0:0:
258,156,38154,1,2,3:2:0:0:
231,218,38296,1,2,3:2:0:0:
283,168,38439,1,10,3:2:0:0:
220,193,38582,1,2,3:2:0:0:
293,194,38725,1,2,3:2:0:0:
231,167,38868,1,2,3:2:0:0:
281,219,39011,1,14,3:2:0:0:
256,156,39154,5,2,3:2:0:0:
255,229,39296,1,2,3:2:0:0:
282,167,39439,1,2,3:2:0:0:
230,217,39582,1,10,3:2:0:0:
293,192,39725,1,2,3:2:0:0:
220,191,39868,1,2,3:2:0:0:
282,218,40011,1,2,3:2:0:0:
232,166,40154,1,10,3:2:0:0:
257,229,40296,1,2,3:2:0:0:
258,156,40439,1,2,3:2:0:0:
231,218,40582,1,2,3:2:0:0:
283,168,40725,1,10,3:2:0:0:
220,193,40868,1,2,3:2:0:0:
293,194,41011,1,2,3:2:0:0:
231,167,41154,1,2,3:2:0:0:
281,219,41296,1,10,3:2:0:0:
256,156,41439,5,6,3:2:0:0:
255,229,41582,1,2,3:2:0:0:
282,167,41725,1,2,3:2:0:0:
230,217,41868,1,10,3:2:0:0:
293,192,42011,1,2,3:2:0:0:
220,191,42154,1,2,3:2:0:0:
282,218,42296,1,2,3:2:0:0:
232,166,42439,1,10,3:2:0:0:
257,229,42582,1,2,3:2:0:0:
258,156,42725,1,2,3:2:0:0:
231,218,42868,1,2,3:2:0:0:
283,168,43011,1,10,3:2:0:0:
220,193,43154,1,2,3:2:0:0:
293,194,43296,1,6,3:2:0:0:
231,167,43439,1,2,3:2:0:0:
281,219,43582,1,10,3:2:0:0:
256,156,43725,5,2,3:2:0:0:
255,229,43868,1,6,3:2:0:0:
282,167,44011,1,2,3:2:0:0:
230,217,44154,1,10,3:2:0:0:
293,192,44296,1,2,3:2:0:0:
220,191,44439,1,6,3:2:0:0:
282,218,44582,1,2,3:2:0:0:
232,166,44725,1,10,3:2:0:0:
257,229,44868,1,2,3:2:0:0:
258,156,45011,1,6,3:2:0:0:
231,218,45154,1,2,3:2:0:0:
283,168,45296,1,10,3:2:0:0:
220,193,45439,1,2,3:2:0:0:
293,194,45582,1,6,3:2:0:0:
231,167,45725,1,2,3:2:0:0:
281,219,45868,1,14,3:2:0:0:
256,156,46011,5,2,3:2:0:0:
255,229,46154,1,2,3:2:0:0:
282,167,46296,1,2,3:2:0:0:
230,217,46439,1,10,3:2:0:0:
293,192,46582,1,2,3:2:0:0:
220,191,46725,1,2,3:2:0:0:
282,218,46868,1,2,3:2:0:0:
232,166,47011,1,10,3:2:0:0:
257,229,47154,1,2,3:2:0:0:
258,156,47296,1,2,3:2:0:0:
231,218,47439,1,2,3:2:0:0:
283,168,47582,1,10,3:2:0:0:
220,193,47725,1,2,3:2:0:0:
293,194,47868,1,2,3:2:0:0:
231,167,48011,1,2,3:2:0:0:
281,219,48154,1,14,3:2:0:0:
256,156,48296,5,2,3:2:0:0:
255,229,48439,1,2,3:2:0:0:
282,167,48582,1,2,3:2:0:0:
230,217,48725,1,10,3:2:0:0:
293,192,48868,1,2,3:2:0:0:
220,191,49011,1,2,3:2:0:0:
282,218,49154,1,2,3:2:0:0:
232,166,49296,1,10,3:2:0:0:
257,229,49439,1,2,3:2:0:0:
258,156,49582,1,2,3:2:0:0:
231,218,49725,1,2,3:2:0:0:
283,168,49868,1,10,3:2:0:0:
220,193,50011,1,2,3:2:0:0:
293,194,50154,1,2,3:2:0:0:
231,167,50296,1,2,3:2:0:0:
281,219,50439,1,14,3:2:0:0:
256,156,50582,5,2,3:2:0:0:
255,229,50725,1,2,3:2:0:0:
282,167,50868,1,2,3:2:0:0:
230,217,51011,1,10,3:2:0:0:
293,192,51154,1,2,3:2:0:0:
220,191,51296,1,2,3:2:0:0:
282,218,51439,1,2,3:2:0:0:
232,166,51582,1,10,3:2:0:0:
257,229,51725,1,2,3:2:0:0:
258,156,51868,1,2,3:2:0:0:
231,218,52011,1,2,3:2:0:0:
283,168,52154,1,10,3:2:0:0:
220,193,52296,1,2,3:2:0:0:
293,194,52439,1,2,3:2:0:0:
231,167,52582,1,2,3:2:0:0:
281,219,52725,1,14,3:2:0:0:
256,156,52868,5,10,3:2:0:0:
255,229,53011,1,10,3:2:0:0:
282,167,53154,1,10,3:2:0:0:
230,217,53296,1,10,3:2:0:0:
293,192,53439,1,10,3:2:0:0:
220,191,53582,1,10,3:2:0:0:
282,218,53725,1,10,3:2:0:0:
232,166,53868,1,10,3:2:0:0:
257,229,54011,1,10,3:2:0:0:
258,156,54154,1,10,3:2:0:0:
231,218,54296,1,10,3:2:0:0:
283,168,54439,1,10,3:2:0:0:
220,193,54582,1,10,3:2:0:0:
293,194,54725,1,10,3:2:0:0:
231,167,54868,1,10,3:2:0:0:
281,219,55011,1,10,3:2:0:0:
256,156,55154,5,6,3:2:0:0:
255,229,55296,1,2,3:2:0:0:
282,167,55439,1,2,3:2:0:0:
230,217,55582,1,10,3:2:0:0:
293,192,55725,1,2,3:2:0:0:
220,191,55868,1,2,3:2:0:0:
282,218,56011,1,2,3:2:0:0:
232,166,56154,1,10,3:2:0:0:
257,229,56296,1,2,3:2:0:0:
258,156,56439,1,2,3:2:0:0:
231,218,56582,1,2,3:2:0:0:
283,168,56725,1,10,3:2:0:0:
220,193,56868,1,2,3:2:0:0:
293,194,57011,1,2,3:2:0:0:
231,167,57154,1,2,3:2:0:0:
281,219,57296,1,10,3:2:0:0:
256,156,57439,5,6,3:2:0:0:
255,229,57582,1,2,3:2:0:0:
282,167,57725,1,2,3:2:0:0:
230,217,57868,1,10,3:2:0:0:
293,192,58011,1,2,3:2:0:0:
220,191,58154,1,2,3:2:0:0:
282,218,58296,1,2,3:2:0:0:
232,166,58439,1,10,3:2:0:0:
257,229,58582,1,2,3:2:0:0:
258,156,58725,1,2,3:2:0:0:
231,218,58868,1,2,3:2:0:0:
283,168,59011,1,10,3:2:0:0:
220,193,59154,1,2,3:2:0:0:
293,194,59296,1,2,3:2:0:0:
231,167,59439,1,2,3:2:0:0:
281,219,59582,1,10,3:2:0:0:
256,156,59725,5,6,3:2:0:0:
255,229,59868,1,2,3:2:0:0:
282,167,60011,1,2,3:2:0:0:
230,217,60154,1,10,3:2:0:0:
293,192,60296,1,2,3:2:0:0:
220,191,60439,1,2,3:2:0:0:
282,218,60582,1,2,3:2:0:0:
232,166,60725,1,10,3:2:0:0:
257,229,60868,1,2,3:2:0:0:
258,156,61011,1,2,3:2:0:0:
231,218,61154,1,2,3:2:0:0:
283,168,61296,1,10,3:2:0:0:
220,193,61439,1,2,3:2:0:0:
293,194,61582,1,2,3:2:0:0:
231,167,61725,1,2,3:2:0:0:
281,219,61868,1,10,3:2:0:0:
256,156,62011,5,14,3:2:0:0:
255,229,62154,1,10,3:2:0:0:
282,167,62296,1,10,3:2:0:0:
230,217,62439,1,10,3:2:0:0:
293,192,62582,1,14,3:2:0:0:
220,191,62725,1,10,3:2:0:0:
282,218,62868,1,10,3:2:0:0:
232,166,63011,1,10,3:2:0:0:
257,229,63154,1,14,3:2:0:0:
258,156,63296,1,10,3:2:0:0:
231,218,63439,1,10,3:2:0:0:
283,168,63582,1,10,3:2:0:0:
220,193,63725,1,14,3:2:0:0:
293,194,63868,1,10,3:2:0:0:
231,167,64011,1,10,3:2:0:0:
281,219,64154,1,10,3:2:0:0:
256,156,64296,5,6,3:2:0:0:
255,229,64439,1,2,3:2:0:0:
282,167,64582,1,2,3:2:0:0:
230,217,64725,1,10,3:2:0:0:
293,192,64868,1,2,3:2:0:0:
220,191,65011,1,2,3:2:0:0:
282,218,65154,1,2,3:2:0:0:
232,166,65296,1,10,3:2:0:0:
257,229,65439,1,2,3:2:0:0:
258,156,65582,1,2,3:2:0:0:
231,218,65725,1,2,3:2:0:0:
283,168,65868,1,10,3:2:0:0:
220,193,66011,1,2,3:2:0:0:
293,194,66154,1,2,3:2:0:0:
231,167,66296,1,2,3:2:0:0:
281,219,66439,1,10,3:2:0:0:
256,156,66582,5,2,3:2:0:0:
255,229,66725,1,2,3:2:0:0:
282,167,66868,1,2,3:2:0:0:
230,217,67011,1,10,3:2:0:0:
293,192,67154,1,2,3:2:0:0:
220,191,67296,1,2,3:2:0:0:
282,218,67439,1,2,3:2:0:0:
232,166,67582,1,10,3:2:0:0:
257,229,67725,1,2,3:2:0:0:
258,156,67868,1,2,3:2:0:0:
231,218,68011,1,2,3:2:0:0:
283,168,68154,1,10,3:2:0:0:
220,193,68296,1,2,3:2:0:0:
293,194,68439,1,2,3:2:0:0:
231,167,68582,1,2,3:2:0:0:
281,219,68725,1,10,3:2:0:0:
256,156,68868,5,6,3:2:0:0:
255,229,69011,1,2,3:2:0:0:
282,167,69154,1,2,3:2:0:0:
230,217,69296,1,10,3:2:0:0:
293,192,69439,1,2,3:2:0:0:
220,191,69582,1,2,3:2:0:0:
282,218,69725,1,2,3:2:0:0:
232,166,69868,1,10,3:2:0:0:
257,229,70011,1,2,3:2:0:0:
258,156,70154,1,2,3:2:0:0:
231,218,70296,1,2,3:2:0:0:
283,168,70439,1,10,3:2:0:0:
220,193,70582,1,2,3:2:0:0:
293,194,70725,1,2,3:2:0:0:
231,167,70868,1,2,3:2:0:0:
281,219,71011,1,10,3:2:0:0:
256,156,71154,5,2,3:2:0:0:
255,229,71296,1,2,3:2:0:0:
282,167,71439,1,2,3:2:0:0:
230,217,71582,1,10,3:2:0:0:
293,192,71725,1,2,3:2:0:0:
220,191,71868,1,2,3:2:0:0:
282,218,72011,1,2,3:2:0:0:
232,166,72154,1,10,3:2:0:0:
257,229,72296,1,2,3:2:0:0:
258,156,72439,1,2,3:2:0:0:
231,218,72582,1,2,3:2:0:0:
283,168,72725,1,10,3:2:0:0:
220,193,72868,1,2,3:2:0:0:
293,194,73011,1,2,3:2:0:0:
231,167,73154,1,2,3:2:0:0:
281,219,73296,1,10,3:2:0:0:
256,156,73439,5,2,3:2:0:0:
255,229,73582,1,2,3:2:0:0:
282,167,73725,1,2,3:2:0:0:
230,217,73868,1,10,3:2:0:0:
293,192,74011,1,2,3:2:0:0:
220,191,74154,1,2,3:2:0:0:
282,218,74296,1,2,3:2:0:0:
232,166,74439,1,10,3:2:0:0:
257,229,74582,1,2,3:2:0:0:
258,156,74725,1,2,3:2:0:0:
231,218,74868,1,2,3:2:0:0:
283,168,75011,1,10,3:2:0:0:
220,193,75154,1,2,3:2:0:0:
293,194,75296,1,2,3:2:0:0:
231,167,75439,1,2,3:2:0:0:
281,219,75582,1,10,3:2:0:0:
256,156,75725,5,2,3:2:0:0:
255,229,75868,1,10,3:2:0:0:
282,167,76011,1,2,3:2:0:0:
230,217,76154,1,10,3:2:0:0:
293,192,76296,1,2,3:2:0:0:
220,191,76439,1,10,3:2:0:0:
282,218,76582,1,2,3:2:0:0:
232,166,76725,1,10,3:2:0:0:
257,229,76868,1,2,3:2:0:0:
258,156,77011,1,10,3:2:0:0:
231,218,77154,1,2,3:2:0:0:
283,168,77296,1,10,3:2:0:0:
220,193,77439,1,2,3:2:0:0:
293,194,77582,1,10,3:2:0:0:
231,167,77725,1,2,3:2:0:0:
281,219,77868,1,10,3:2:0:0:
256,156,78011,5,10,3:2:0:0:
255,229,78154,1,10,3:2:0:0:
282,167,78296,1,10,3:2:0:0:
230,217,78439,1,10,3:2:0:0:
293,192,78582,1,10,3:2:0:0:
220,191,78725,1,10,3:2:0:0:
282,218,78868,1,10,3:2:0:0:
232,166,79011,1,10,3:2:0:0:
257,229,79154,1,10,3:2:0:0:
258,156,79296,1,10,3:2:0:0:
231,218,79439,1,10,3:2:0:0:
283,168,79582,1,10,3:2:0:0:
220,193,79725,1,10,3:2:0:0:
293,194,79868,1,14,3:2:0:0:
