osu file format v14

[General]
AudioFilename: Mirror_Mirror.mp3
AudioLeadIn: 0
PreviewTime: 20975
Countdown: 0
SampleSet: Soft
StackLeniency: 0.7
Mode: 0
LetterboxInBreaks: 0
WidescreenStoryboard: 0

[Editor]
Bookmarks: 77981
DistanceSpacing: 1
BeatDivisor: 4
GridSize: 4
TimelineZoom: 1

[Metadata]
Title:Mirror Mirror (Featuring Casey Lee Williams)
TitleUnicode:Mirror Mirror (Featuring Casey Lee Williams)
Artist:Jeff Williams
ArtistUnicode:Jeff Williams
Creator:neonat
Version:TestApple's Normal
Source:RWBY
Tags:Ruby Weiss Schnee Red Black Yellow Monty Oum Jinxyjem Jinxy Rtyzen aplstepitaslast TestApple
BeatmapID:879243
BeatmapSetID:320418

[Difficulty]
HPDrainRate:2
CircleSize:3
OverallDifficulty:2
ApproachRate:3
SliderMultiplier:1.5
SliderTickRate:1

[Events]
//Background and Video events
Video,-4900,"Mirror_Mirror_Video.avi"
0,0,"RWBY_BG_Weiss.png",0,0
//Break Periods
2,46986,51884
2,91332,104486
2,109414,111062
//Storyboard Layer 0 (Background)
//Storyboard Layer 1 (Fail)
//Storyboard Layer 2 (Pass)
//Storyboard Layer 3 (Foreground)
//Storyboard Sound Samples

[TimingPoints]
21210,827.586206896552,4,2,1,30,1,0
21313,-133.333333333333,4,2,1,30,0,0
21623,857.142857142857,4,2,1,30,1,0
23765,810.810810810811,4,2,1,30,1,0
24575,841.514726507714,4,2,1,30,1,0
25416,871.143375680581,4,2,1,30,1,0
28900,909.090909090909,4,2,1,30,1,0
29809,776.699029126214,4,2,1,30,1,0
30585,916.030534351145,4,2,1,30,1,0
31501,851.063829787234,4,2,1,30,1,0
36607,831.889081455806,4,2,1,30,1,0
39934,913.937547600914,4,2,1,30,1,0
41761,895.522388059701,4,2,1,30,1,0
42656,769.230769230769,4,2,1,30,1,0
43040,833.333333333333,4,2,1,30,1,0
43456,895.522388059701,4,2,1,30,1,0
43903,888.888888888889,4,2,1,30,1,0
44347,805.369127516779,4,2,1,30,1,0
45152,408.64860306644,4,2,1,30,1,0
53324,410.958904109589,4,1,0,40,1,0
53324,-133.333333333333,4,1,0,40,0,0
81217,-133.333333333333,4,3,0,40,0,0
81320,-133.333333333333,4,2,0,20,0,0
81628,-133.333333333333,4,3,0,40,0,0
81731,-133.333333333333,4,2,0,20,0,0
82450,-133.333333333333,4,3,0,40,0,0
82553,-133.333333333333,4,2,0,20,0,0
82861,-133.333333333333,4,3,0,40,0,0
82964,-133.333333333333,4,2,0,20,0,0
83272,-133.333333333333,4,3,0,40,0,0
83375,-133.333333333333,4,2,0,20,0,0
84094,-133.333333333333,4,3,0,40,0,0
84197,-133.333333333333,4,2,0,20,0,0
84916,-133.333333333333,4,3,0,40,0,0
85019,-133.333333333333,4,2,0,20,0,0
85738,-133.333333333333,4,3,0,40,0,0
85841,-133.333333333333,4,2,0,20,0,0
86611,-133.333333333333,4,3,0,40,0,0
86663,-133.333333333333,4,2,0,20,0,0
87433,-133.333333333333,4,3,0,40,0,0
87484,-133.333333333333,4,2,0,20,0,0
87844,-133.333333333333,4,3,0,40,0,0
105926,-166.666666666667,4,2,1,40,0,0
112296,-166.666666666667,4,1,0,40,0,0
119077,-153.846153846154,4,1,0,40,0,0
125652,-133.333333333333,4,1,0,50,0,1
151954,930.232558139535,4,2,1,30,1,0
153349,842.105263157895,4,2,1,30,1,0
153770,991.735537190083,4,2,1,30,1,0
154761,914.285714285714,4,2,1,30,1,0
155675,909.090909090909,4,2,1,30,1,0
157038,860.215053763441,4,2,1,30,1,0
157468,1034.48275862069,4,2,1,5,1,0
157985,1065.09505973408,4,2,1,30,1,0
160115,-100,4,2,1,5,0,0
161712,1363.63636363636,4,2,1,5,1,0

[Colours]
Combo1 : 255,255,0
Combo2 : 255,0,0
Combo3 : 225,225,225
Combo4 : 139,139,139

[HitObjects]
106,239,21210,6,0,L|205:235,1,75
259,230,22051,1,0,0:0:0:0:
324,184,22480,2,0,L|334:87,1,75,0|2,0:0|0:0,0:0:0:0:
408,256,23765,1,0,0:0:0:0:
276,317,24575,5,2,0:0:0:0:
140,266,25416,1,0,0:0:0:0:
23,336,26287,1,0,0:0:0:0:
48,188,27158,1,0,0:0:0:0:
23,336,28029,5,0,0:0:0:0:
88,380,28465,2,0,P|138:380|165:372,1,75
220,320,29354,2,0,P|257:316|293:323,1,75,0|2,0:0|0:0,0:0:0:0:
414,363,30585,1,0,0:0:0:0:
484,216,31501,6,0,L|448:60,1,150,2|0,0:0|0:0,0:0:0:0:
304,100,33203,2,0,P|267:91|230:93,1,75
171,144,34054,2,0,P|135:132|103:112,1,75
33,79,34905,6,0,P|17:125|58:237,2,150,2|0|2,0:0|0:0|0:0,0:0:0:0:
179,46,37438,2,0,L|259:55,1,75,0|0,0:0|0:0,0:0:0:0:
320,96,38270,6,0,P|346:158|304:252,2,150,2|0|2,0:0|0:0|0:0,0:0:0:0:
171,64,40847,1,0,0:0:0:0:
256,192,41761,5,0,0:0:0:0:
256,192,41984,12,0,46786,0:0:0:0:
202,178,53324,6,0,P|252:155|307:162,1,112.500004291535,4|8,0:0|0:0,0:0:0:0:
248,258,54145,2,0,P|197:281|142:274,1,112.500004291535,0|8,0:0|0:0,0:0:0:0:
107,229,54762,2,0,L|124:112,1,112.500004291535
135,62,55378,1,8,0:0:0:0:
246,79,55789,2,0,L|229:190,1,112.500004291535,0|8,0:0|0:0,0:0:0:0:
257,301,56611,6,0,P|311:302|370:261,1,112.500004291535,0|8,0:0|0:0,0:0:0:0:
361,160,57433,2,0,L|345:45,1,112.500004291535,0|8,0:0|0:0,0:0:0:0:
300,14,58050,2,0,P|246:13|187:54,1,112.500004291535,0|0,0:0|0:0,0:0:0:0:
221,92,58666,1,8,0:0:0:0:
176,196,59077,2,0,P|132:260|68:272,1,112.500004291535,0|8,0:0|0:0,0:0:0:0:
157,369,59899,6,0,P|211:358|266:368,1,112.500004291535,0|8,0:0|0:0,0:0:0:0:
379,373,60721,2,0,L|370:239,1,112.500004291535,0|8,0:0|0:0,0:0:0:0:
333,219,61337,1,0,0:0:0:0:
349,164,61543,2,0,P|292:151|226:173,2,112.500004291535,0|8|0,0:0|0:0|0:0,0:0:0:0:
296,263,62776,1,8,0:0:0:0:
183,260,63187,6,0,L|70:257,1,112.500004291535,0|0,0:0|0:0,0:0:0:0:
37,149,64008,2,0,L|150:152,1,112.500004291535,0|0,0:0|0:0,0:0:0:0:
237,81,64830,2,0,P|297:69|353:82,1,112.500004291535,4|0,0:0|0:0,0:0:0:0:
390,115,65447,1,0,0:0:0:0:
396,172,65652,1,0,0:0:0:0:
480,248,66063,1,0,0:0:0:0:
462,363,66474,6,0,L|332:348,1,112.500004291535,4|8,0:0|0:0,0:0:0:0:
238,334,67296,2,0,L|249:204,1,112.500004291535,0|8,0:0|0:0,0:0:0:0:
303,228,67913,2,0,P|372:235|422:197,1,112.500004291535,8|0,0:0|0:0,0:0:0:0:
450,177,68529,1,0,0:0:0:0:
484,69,68940,2,0,P|427:68|371:98,1,112.500004291535,0|8,0:0|0:0,0:0:0:0:
300,172,69762,6,0,L|172:176,1,112.500004291535,0|8,0:0|0:0,0:0:0:0:
236,276,70584,2,0,L|363:284,1,112.500004291535,0|8,0:0|0:0,0:0:0:0:
404,284,71200,6,0,L|418:141,1,112.500004291535,8|0,0:0|0:0,0:0:0:0:
392,60,72022,1,0,0:0:0:0:
340,76,72228,2,0,B|280:48|224:96|164:56,1,168.750006437302
120,56,73050,6,0,P|105:109|119:163,1,112.500004291535,4|8,0:0|0:0,0:0:0:0:
224,204,73871,2,0,L|341:206,1,112.500004291535,0|8,0:0|0:0,0:0:0:0:
361,257,74488,1,0,0:0:0:0:
334,306,74693,6,0,L|217:308,1,112.500004291535,0|8,0:0|0:0,0:0:0:0:
120,256,75515,2,0,P|112:202|134:151,1,112.500004291535,0|8,0:0|0:0,0:0:0:0:
256,192,76337,12,4,79625,0:0:0:0:
131,302,81269,6,0,P|117:246|148:166,1,112.500004291535,4|8,0:0|0:0,0:0:0:0:
233,151,82091,1,0,0:0:0:0:
345,155,82502,1,8,0:0:0:0:
424,234,82913,6,0,P|432:289|416:342,1,112.500004291535,4|8,0:0|0:0,0:0:0:0:
321,282,83734,1,0,0:0:0:0:
218,327,84145,1,8,0:0:0:0:
112,288,84556,2,0,L|117:166,1,112.500004291535,0|8,0:0|0:0,0:0:0:0:
220,132,85378,2,0,L|224:244,1,112.500004291535,0|8,0:0|0:0,0:0:0:0:
309,319,86200,6,0,P|377:317|426:282,1,112.500004291535,0|8,0:0|0:0,0:0:0:0:
445,247,86817,1,0,0:0:0:0:
442,190,87022,2,0,L|433:77,1,112.500004291535,0|8,0:0|0:0,0:0:0:0:
256,192,87844,12,0,91132,0:0:0:0:
167,132,105926,6,0,P|257:257|346:131,1,359.999989013672,4|0,0:3|0:0,0:0:0:0:
192,40,108392,1,0,0:0:0:0:
60,164,109214,5,0,0:0:0:0:
104,103,112502,6,0,L|108:206,1,89.9999972534181,4|0,0:0|0:0,0:0:0:0:
109,237,113118,1,0,0:0:0:0:
240,260,113734,2,0,L|338:267,1,89.9999972534181,0|0,0:0|0:0,0:0:0:0:
374,269,114351,1,0,0:0:0:0:
350,138,114967,2,0,L|353:68,1,44.999998626709,0|0,0:0|0:0,0:0:0:0:
354,47,115378,1,0,0:0:0:0:
264,51,115789,6,0,L|257:160,1,89.9999972534181,4|0,0:0|0:0,0:0:0:0:
252,184,116406,1,0,0:0:0:0:
380,228,117022,2,0,L|373:337,1,89.9999972534181,2|0,0:0|0:0,0:0:0:0:
370,362,117639,1,0,0:0:0:0:
236,340,118255,2,0,P|213:335|191:335,1,44.999998626709
144,348,118666,1,0,0:0:0:0:
72,280,119077,6,0,L|77:178,1,97.4999955368044,4|0,0:0|0:0,0:0:0:0:
80,132,119693,2,0,P|153:107|195:119,1,97.4999955368044
216,128,120310,2,0,L|208:232,1,97.4999955368044,2|0,0:0|0:0,0:0:0:0:
220,272,120926,1,0,0:0:0:0:
364,252,121543,2,0,L|429:261,1,48.7499977684022,0|0,0:0|0:0,0:0:0:0:
460,266,121954,1,0,0:0:0:0:
476,168,122365,6,0,L|516:128,2,48.7499977684022,4|0|8,0:0|0:0|0:0,0:0:0:0:
428,168,122981,1,0,0:0:0:0:
292,120,123597,2,0,P|269:115|245:115,2,48.7499977684022,8|0|0,0:0|0:0|0:0,0:0:0:0:
304,168,124214,2,0,P|300:203|248:256,1,97.4999955368044
244,296,124830,2,0,P|243:329|256:364,2,48.7499977684022
356,292,125652,6,0,P|388:244|384:168,1,112.500004291535,4|8,0:0|0:0,0:0:0:0:
371,138,126269,2,0,P|317:124|262:132,1,112.500004291535,0|0,0:0|0:0,0:0:0:0:
220,170,126885,1,8,0:0:0:0:
210,225,127091,2,0,L|222:347,2,112.500004291535,0|0|0,0:0|0:0|0:0,0:0:0:0:
296,153,128324,2,0,P|370:147|424:183,1,112.500004291535,0|0,0:0|0:0,0:0:0:0:
430,212,128940,6,0,L|416:326,1,112.500004291535,4|8,0:0|0:0,0:0:0:0:
371,359,129556,2,0,P|316:360|272:327,1,112.500004291535,0|0,0:0|0:0,0:0:0:0:
258,215,130378,2,0,L|288:101,1,112.500004291535,0|0,0:0|0:0,0:0:0:0:
186,54,131200,2,0,L|157:162,2,112.500004291535,0|0|0,0:0|0:0|0:0,0:0:0:0:
238,30,132228,6,0,P|293:26|343:49,1,112.500004291535,4|8,0:0|0:0,0:0:0:0:
364,102,132844,2,0,L|333:231,1,112.500004291535,0|0,0:0|0:0,0:0:0:0:
292,314,133666,2,0,P|354:325|401:301,1,112.500004291535,0|0,0:0|0:0,0:0:0:0:
425,255,134282,1,8,0:0:0:0:
447,203,134488,2,0,L|473:93,1,112.500004291535,0|0,0:0|0:0,0:0:0:0:
375,37,135310,6,0,P|303:47|265:82,1,112.500004291535
248,180,136132,2,0,L|267:306,1,112.500004291535
220,324,136748,1,8,0:0:0:0:
164,316,136954,2,0,L|147:204,1,112.500004291535
140,91,137776,2,0,P|197:38|213:153,1,225.000008583069
200,179,138803,6,0,L|334:180,1,112.500004291535,4|8,0:0|0:0,0:0:0:0:
317,292,139625,2,0,L|204:291,1,112.500004291535,0|8,0:0|0:0,0:0:0:0:
92,292,140447,6,0,P|60:248|60:176,1,112.500004291535,0|8,0:0|0:0,0:0:0:0:
128,104,141269,2,0,P|160:148|160:220,1,112.500004291535,0|8,0:0|0:0,0:0:0:0:
204,312,142091,6,0,L|332:304,1,112.500004291535,4|8,0:0|0:0,0:0:0:0:
372,208,142913,2,0,L|244:200,1,112.500004291535,0|8,0:0|0:0,0:0:0:0:
148,184,143734,2,0,P|128:128|144:64,1,112.500004291535,0|8,0:0|0:0,0:0:0:0:
236,20,144556,1,0,0:0:0:0:
348,40,144967,1,8,0:0:0:0:
368,148,145378,6,0,P|344:204|292:244,1,112.500004291535,4|8,0:0|0:0,0:0:0:0:
248,228,145995,2,0,P|188:216|124:240,1,112.500004291535
84,248,146611,2,0,L|31:132,1,112.500004291535,8|0,0:0|0:0,0:0:0:0:
11,96,147228,2,0,L|79:51,1,56.2500021457673,0|8,0:0|0:0,0:0:0:0:
164,24,147844,2,0,L|287:36,1,112.500004291535,0|8,0:0|0:0,0:0:0:0:
256,192,148666,12,6,151954,0:0:0:0:
140,152,153770,6,0,P|216:136|316:168,1,150,2|2,0:0|0:0,0:0:0:0:
388,264,155675,1,2,0:0:0:0:
108,96,157985,6,0,P|196:124|416:80,1,300,2|0,0:0|0:0,0:0:0:0:
256,192,161712,12,0,169893,0:0:0:0:
