osu file format v14

[General]
AudioFilename: Mirror_Mirror.mp3
AudioLeadIn: 0
PreviewTime: 20975
Countdown: 0
SampleSet: Soft
StackLeniency: 0.7
Mode: 0
LetterboxInBreaks: 0
WidescreenStoryboard: 0

[Editor]
Bookmarks: 143324
DistanceSpacing: 1.5
BeatDivisor: 6
GridSize: 4
TimelineZoom: 1

[Metadata]
Title:Mirror Mirror (Featuring Casey Lee Williams)
TitleUnicode:Mirror Mirror (Featuring Casey Lee Williams)
Artist:Jeff Williams
ArtistUnicode:Jeff Williams
Creator:neonat
Version:Solitude
Source:RWBY
Tags:Ruby Weiss Schnee Red Black Yellow Monty Oum Jinxyjem Jinxy Rtyzen aplstepitaslast TestApple
BeatmapID:712983
BeatmapSetID:320418

[Difficulty]
HPDrainRate:7
CircleSize:4
OverallDifficulty:8
ApproachRate:8.5
SliderMultiplier:2
SliderTickRate:1

[Events]
//Background and Video events
Video,-4900,"Mirror_Mirror_Video.avi"
0,0,"RWBY_BG_Weiss.png",0,0
//Break Periods
2,45352,49380
2,91332,105251
//Storyboard Layer 0 (Background)
//Storyboard Layer 1 (Fail)
//Storyboard Layer 2 (Pass)
//Storyboard Layer 3 (Foreground)
//Storyboard Sound Samples

[TimingPoints]
21210,827.586206896552,4,2,1,30,1,0
21623,857.142857142857,4,2,1,30,1,0
23765,810.810810810811,4,2,1,30,1,0
24575,841.514726507714,4,2,1,30,1,0
25416,871.143375680581,4,2,1,30,1,0
28900,909.090909090909,4,2,1,30,1,0
29809,776.699029126214,4,2,1,30,1,0
30585,916.030534351145,4,2,1,30,1,0
31501,851.063829787234,4,2,1,30,1,0
36607,831.889081455806,4,2,1,30,1,0
39934,913.937547600914,4,2,1,30,1,0
41761,895.522388059701,4,2,1,30,1,0
42656,769.230769230769,4,2,1,30,1,0
43040,833.333333333333,4,2,1,30,1,0
43456,895.522388059701,4,2,1,30,1,0
43903,888.888888888889,4,2,1,30,1,0
44347,805.369127516779,4,2,1,30,1,0
45152,408.64860306644,4,2,1,30,1,0
53324,410.958904109589,4,1,0,40,1,0
79728,-100,4,2,0,35,0,0
79984,-100,4,3,0,40,0,0
80087,-100,4,2,0,20,0,0
80806,-100,4,3,0,40,0,0
80909,-100,4,2,0,20,0,0
81217,-100,4,3,0,40,0,0
81320,-100,4,2,0,35,0,0
81628,-100,4,3,0,40,0,0
81731,-100,4,2,0,20,0,0
82450,-133.333333333333,4,3,0,40,0,0
82553,-133.333333333333,4,2,0,20,0,0
82861,-133.333333333333,4,3,0,40,0,0
82964,-100,4,2,0,35,0,0
83272,-100,4,3,0,40,0,0
83375,-100,4,2,0,20,0,0
84094,-100,4,3,0,40,0,0
84197,-100,4,2,0,20,0,0
84916,-100,4,3,0,40,0,0
85019,-100,4,2,0,20,0,0
85738,-100,4,3,0,40,0,0
85841,-100,4,2,0,20,0,0
86611,-100,4,3,0,40,0,0
86663,-100,4,2,0,20,0,0
87433,-100,4,3,0,40,0,0
87484,-100,4,2,0,20,0,0
87844,-100,4,3,0,40,0,0
105926,-200,4,2,0,5,0,0
106029,-200,4,2,1,30,0,0
112296,-200,4,1,0,40,0,0
122365,-133.333333333333,4,1,0,50,0,0
125652,-100,4,1,0,50,0,1
151954,930.232558139535,4,2,1,25,1,0
153349,842.105263157895,4,2,1,25,1,0
153770,991.735537190083,4,2,1,25,1,0
154761,914.285714285714,4,2,1,25,1,0
155675,909.090909090909,4,2,1,25,1,0
157038,860.215053763441,4,2,1,25,1,0
157468,1034.48275862069,4,2,1,15,1,0
157985,1065.09505973408,4,2,1,30,1,0
160115,-100,4,2,1,5,0,0
161712,1363.63636363636,4,2,1,5,1,0

[Colours]
Combo1 : 255,255,0
Combo2 : 255,0,0
Combo3 : 225,225,225
Combo4 : 139,139,139

[HitObjects]
136,152,21210,6,0,L|120:276,1,100,2|0,0:0|0:0,0:0:0:0:
184,332,22051,1,0,0:0:0:0:
276,288,22480,1,0,0:0:0:0:
368,324,22908,2,0,P|424:332|488:216,1,200,2|0,0:0|0:0,0:0:0:0:
204,200,24575,2,0,P|192:148|216:96,1,100,2|0,0:0|0:0,0:0:0:0:
304,105,25416,2,0,P|320:152|308:200,1,100,0|0,0:0|0:0,0:0:0:0:
206,284,26287,6,0,P|226:344|306:280,1,200,0|0,0:0|0:0,0:0:0:0:
256,40,28029,2,0,L|256:176,1,100,2|0,0:0|0:0,0:0:0:0:
280,236,28900,1,0,0:0:0:0:
184,268,29354,1,0,0:0:0:0:
96,216,29809,2,0,P|64:164|120:36,1,200,2|0,0:0|0:0,0:0:0:0:
300,140,31501,2,0,P|368:152|412:132,1,100,2|0,0:0|0:0,0:0:0:0:
484,92,32352,1,0,0:0:0:0:
220,72,33203,5,0,0:0:0:0:
344,184,33628,1,0,0:0:0:0:
172,244,34054,1,0,0:0:0:0:
48,132,34479,1,0,0:0:0:0:
112,300,34905,6,0,P|204:320|252:228,1,200,2|0,0:0|0:0,0:0:0:0:
184,168,36181,1,0,0:0:0:0:
332,56,36607,2,0,P|424:36|472:128,1,200,2|0,0:0|0:0,0:0:0:0:
416,196,37854,1,0,0:0:0:0:
280,300,38270,2,0,B|224:328|128:272|76:308,1,200,2|0,0:0|0:0,0:0:0:0:
40,336,39934,1,2,0:0:0:0:
80,104,40847,1,0,0:0:0:0:
256,192,41761,12,2,45152,0:0:0:0:
260,152,50055,6,0,P|296:112|296:68,2,100,2|0|0,0:0|0:0|0:0,0:0:0:0:
172,196,50668,1,0,0:0:0:0:
76,224,50873,2,0,P|40:264|40:308,2,100,2|0|0,0:0|0:0|0:0,0:0:0:0:
172,196,51486,1,0,0:0:0:0:
256,252,51690,6,0,L|364:260,1,100,2|0,0:0|0:0,0:0:0:0:
416,352,52099,2,0,L|316:344,1,100,0|0,0:0|0:0,0:0:0:0:
244,252,52507,1,2,0:0:0:0:
244,228,52609,1,0,0:0:0:0:
244,204,52711,1,0,0:0:0:0:
244,180,52814,1,0,0:0:0:0:
244,156,52916,1,2,0:0:0:0:
244,132,53018,1,0,0:0:0:0:
244,108,53120,1,0,0:0:0:0:
244,84,53222,1,0,0:0:0:0:
256,60,53324,6,0,L|392:52,1,100,4|0,0:0|0:0,0:0:0:0:
464,104,53734,1,8,0:0:0:0:
376,188,53940,1,0,0:0:0:0:
256,132,54145,2,0,L|140:136,1,100,0|0,0:0|0:0,0:0:0:0:
52,196,54556,1,8,0:0:0:0:
200,232,54762,6,0,B|280:224|280:224|312:256|312:256|400:248,2,200,0|0|0,0:0|0:0|0:0,0:0:0:0:
96,168,55789,1,0,0:0:0:0:
104,48,55995,1,0,0:0:0:0:
220,24,56200,1,8,0:0:0:0:
288,124,56406,1,0,0:0:0:0:
212,216,56611,5,0,0:0:0:0:
264,324,56817,1,0,0:0:0:0:
264,324,56919,1,0,0:0:0:0:
264,324,57022,2,0,P|332:336|372:328,1,100,8|0,0:0|0:0,0:0:0:0:
444,244,57433,2,0,L|456:140,1,100,0|0,0:0|0:0,0:0:0:0:
408,36,57844,1,8,0:0:0:0:
272,120,58050,6,0,P|212:140|92:80,1,200,0|0,0:0|0:0,0:0:0:0:
300,40,58666,2,0,P|352:88|348:152,1,100,8|0,0:0|0:0,0:0:0:0:
196,276,59077,1,0,0:0:0:0:
316,296,59282,1,0,0:0:0:0:
164,192,59488,1,8,0:0:0:0:
372,228,59693,1,0,0:0:0:0:
200,116,59899,6,0,B|140:112|72:64|72:64|80:112|64:140,1,200,0|8,0:0|0:0,0:0:0:0:
8,228,60515,1,0,0:0:0:0:
76,328,60721,2,0,P|124:312|144:248,1,100,0|0,0:0|0:0,0:0:0:0:
120,152,61132,2,0,L|224:176,1,100,8|0,0:0|0:0,0:0:0:0:
384,220,61543,6,0,P|444:212|420:100,1,200,0|8,0:0|0:0,0:0:0:0:
308,108,62159,1,0,0:0:0:0:
188,116,62365,2,0,L|84:84,1,100,0|0,0:0|0:0,0:0:0:0:
184,8,62776,2,0,L|279:37,1,100,8|0,0:0|0:0,0:0:0:0:
256,192,63187,12,4,64830,0:0:0:0:
344,140,65036,5,0,0:0:0:0:
344,140,65139,1,0,0:0:0:0:
344,140,65241,2,0,P|364:212|364:240,1,100,0|0,0:0|0:0,0:0:0:0:
304,296,65550,1,0,0:0:0:0:
304,296,65652,2,0,L|192:284,1,100,0|0,0:0|0:0,0:0:0:0:
68,228,66063,1,0,0:0:0:0:
80,200,66166,1,0,0:0:0:0:
92,172,66269,1,0,0:0:0:0:
104,144,66371,1,0,0:0:0:0:
116,116,66474,6,0,P|172:120|224:96,1,100,4|0,0:0|0:0,0:0:0:0:
300,24,66885,2,0,P|346:7|396:12,1,100,8|0,0:0|0:0,0:0:0:0:
356,124,67296,1,0,0:0:0:0:
476,104,67502,1,0,0:0:0:0:
488,128,67604,1,0,0:0:0:0:
492,152,67707,1,8,0:0:0:0:
492,176,67810,1,0,0:0:0:0:
488,200,67913,6,0,L|472:304,1,100,8|0,0:0|0:0,0:0:0:0:
316,352,68324,2,0,L|331:253,1,100,0|0,0:0|0:0,0:0:0:0:
404,160,68734,1,0,0:0:0:0:
284,180,68940,1,0,0:0:0:0:
172,140,69145,2,0,L|148:72,1,50,0|0,0:0|0:0,0:0:0:0:
132,60,69351,2,0,L|56:56,3,50,8|0|0|0,0:0|0:0|0:0|0:0,0:0:0:0:
44,64,69762,6,0,P|8:136|16:176,1,100,0|0,0:0|0:0,0:0:0:0:
32,328,70173,2,0,P|68:256|60:216,1,100,8|0,0:0|0:0,0:0:0:0:
128,136,70584,1,0,0:0:0:0:
232,196,70789,2,0,L|244:260,2,50,0|0|8,0:0|0:0|0:0,0:0:0:0:
268,56,71200,6,0,L|376:32,1,100,8|0,0:0|0:0,0:0:0:0:
292,144,71611,2,0,L|194:165,1,100,0|0,0:0|0:0,0:0:0:0:
76,140,72022,1,0,0:0:0:0:
120,272,72228,2,0,P|152:312|212:320,1,100,0|0,0:0|0:0,0:0:0:0:
344,236,72639,1,8,0:0:0:0:
184,180,72844,1,0,0:0:0:0:
312,344,73050,6,0,P|456:240|332:120,1,400,4|0,0:0|0:0,0:0:0:0:
88,120,74282,2,0,P|80:184|100:240,1,100,8|0,0:0|0:0,0:0:0:0:
204,252,74693,6,0,L|272:152,1,100,0|0,0:0|0:0,0:0:0:0:
380,168,75104,2,0,L|436:250,1,100,8|0,0:0|0:0,0:0:0:0:
388,360,75515,1,0,0:0:0:0:
276,320,75721,1,0,0:0:0:0:
164,360,75926,1,8,0:0:0:0:
52,312,76132,1,0,0:0:0:0:
92,200,76337,5,0,0:0:0:0:
208,168,76543,2,0,L|264:180,1,50,0|0,0:0|0:0,0:0:0:0:
292,176,76748,2,0,L|360:160,3,50,0|0|0|0,0:0|0:0|0:0|0:0,0:0:0:0:
376,160,77159,2,0,L|452:192,3,50,0|0|0|0,0:0|0:0|0:0|0:0,0:0:0:0:
456,176,77570,2,0,L|504:144,3,50,0|0|0|0,0:0|0:0|0:0|0:0,0:0:0:0:
504,112,77981,5,0,0:0:0:0:
480,88,78084,1,0,0:0:0:0:
448,76,78187,1,0,0:0:0:0:
412,72,78289,1,0,0:0:0:0:
376,76,78392,1,0,0:0:0:0:
344,92,78495,1,0,0:0:0:0:
316,112,78597,1,0,0:0:0:0:
296,140,78700,1,0,0:0:0:0:
272,168,78803,2,0,P|252:188|216:196,3,50,0|0|0|0,0:0|0:0|0:0|0:0,0:0:0:0:
196,192,79214,2,0,L|140:156,3,50,0|0|0|0,0:0|0:0|0:0|0:0,0:0:0:0:
128,144,79625,5,4,0:0:0:0:
64,24,79830,1,0,0:0:0:0:
88,24,79933,1,0,0:0:0:0:
113,24,80036,1,8,0:0:0:0:
138,24,80139,1,0,0:0:0:0:
160,24,80241,1,0,0:0:0:0:
185,24,80344,1,0,0:0:0:0:
210,24,80447,1,0,0:0:0:0:
234,24,80550,1,0,0:0:0:0:
256,24,80652,1,0,0:0:0:0:
281,24,80755,1,0,0:0:0:0:
306,24,80858,1,8,0:0:0:0:
328,24,80960,1,0,0:0:0:0:
353,24,81063,1,0,0:0:0:0:
377,24,81166,1,0,0:0:0:0:
400,24,81269,5,4,0:0:0:0:
448,112,81474,1,0,0:0:0:0:
452,140,81577,1,0,0:0:0:0:
452,172,81680,1,8,0:0:0:0:
448,200,81782,1,0,0:0:0:0:
440,228,81885,1,0,0:0:0:0:
424,252,81988,1,0,0:0:0:0:
400,272,82091,1,0,0:0:0:0:
372,280,82193,1,0,0:0:0:0:
340,280,82296,1,0,0:0:0:0:
312,272,82399,1,0,0:0:0:0:
288,260,82502,2,0,P|240:208|244:128,1,150.000005722046,8|4,0:0|0:0,0:0:0:0:
184,32,83118,5,0,0:0:0:0:
156,36,83221,1,0,0:0:0:0:
132,52,83324,1,8,0:0:0:0:
116,76,83426,1,0,0:0:0:0:
108,104,83529,1,0,0:0:0:0:
112,132,83632,1,0,0:0:0:0:
124,160,83734,1,0,0:0:0:0:
148,180,83837,1,0,0:0:0:0:
176,188,83940,1,0,0:0:0:0:
204,184,84043,1,0,0:0:0:0:
232,176,84145,2,0,P|260:160|284:124,3,50,8|0|0|0,0:0|0:0|0:0|0:0,0:0:0:0:
352,104,84556,5,0,0:0:0:0:
384,136,84659,1,0,0:0:0:0:
396,180,84762,1,0,0:0:0:0:
396,224,84865,1,0,0:0:0:0:
380,264,84967,2,0,P|376:288|384:332,3,50,8|0|0|0,0:0|0:0|0:0|0:0,0:0:0:0:
476,344,85378,1,0,0:0:0:0:
496,304,85481,1,0,0:0:0:0:
500,260,85584,1,0,0:0:0:0:
492,216,85687,1,0,0:0:0:0:
472,176,85789,2,0,P|464:152|468:108,3,50,8|0|0|0,0:0|0:0|0:0|0:0,0:0:0:0:
468,44,86200,6,0,L|424:32,5,33.3333333333333
412,32,86611,2,0,L|376:44,5,33.3333333333333,8|0|0|0|0|0,0:0|0:0|0:0|0:0|0:0|0:0,0:0:0:0:
324,100,87022,1,0,0:0:0:0:
284,116,87125,1,0,0:0:0:0:
240,120,87228,1,0,0:0:0:0:
196,108,87330,1,0,0:0:0:0:
164,76,87433,2,0,L|96:56,1,50,8|0,0:0|0:0,0:0:0:0:
12,120,87639,2,0,L|59:134,1,50
152,212,87844,1,4,0:0:0:0:
256,192,87947,12,4,91132,0:0:0:0:
380,144,105926,6,0,P|392:208|376:256,1,100,4|0,0:0|0:0,0:0:0:0:
200,300,106543,1,0,0:0:0:0:
200,300,106645,1,0,0:0:0:0:
200,300,106748,2,0,P|152:292|96:300,1,100,0|0,0:0|0:0,0:0:0:0:
156,176,107365,1,0,0:0:0:0:
156,176,107467,1,0,0:0:0:0:
156,176,107570,6,0,L|168:72,1,100,0|0,0:0|0:0,0:0:0:0:
356,208,108187,1,0,0:0:0:0:
356,208,108289,1,0,0:0:0:0:
356,208,108392,2,0,L|344:312,1,100,0|0,0:0|0:0,0:0:0:0:
256,148,109008,1,0,0:0:0:0:
256,148,109111,1,0,0:0:0:0:
256,148,109214,1,0,0:0:0:0:
256,192,109317,12,0,112091,0:0:0:0:
216,136,112502,6,0,L|328:136,1,100,4|0,0:0|0:0,0:0:0:0:
240,288,113118,2,0,L|140:288,1,100,0|0,0:0|0:0,0:0:0:0:
320,228,113734,2,0,L|420:228,1,100,0|0,0:0|0:0,0:0:0:0:
224,176,114351,2,0,P|208:136|228:72,1,100,0|0,0:0|0:0,0:0:0:0:
416,124,114967,1,0,0:0:0:0:
416,124,115173,1,0,0:0:0:0:
328,44,115378,1,0,0:0:0:0:
292,40,115481,1,0,0:0:0:0:
256,36,115584,1,0,0:0:0:0:
220,32,115687,1,0,0:0:0:0:
184,28,115789,6,0,P|148:56|136:120,1,100,4|0,0:0|0:0,0:0:0:0:
316,216,116406,2,0,L|324:328,1,100,0|0,0:0|0:0,0:0:0:0:
196,168,117022,2,0,L|188:56,1,100,2|0,0:0|0:0,0:0:0:0:
380,152,117639,2,0,P|416:140|448:72,1,100,0|0,0:0|0:0,0:0:0:0:
288,140,118255,1,0,0:0:0:0:
288,140,118460,1,0,0:0:0:0:
152,104,118666,1,0,0:0:0:0:
128,132,118769,1,0,0:0:0:0:
124,168,118871,1,0,0:0:0:0:
136,200,118974,1,0,0:0:0:0:
156,228,119077,6,0,P|176:268|176:328,1,100,4|0,0:0|0:0,0:0:0:0:
84,292,119693,1,0,0:0:0:0:
256,280,119899,2,0,L|320:284,1,50,0|0,0:0|0:0,0:0:0:0:
480,216,120310,2,0,L|424:212,1,50,2|0,0:0|0:0,0:0:0:0:
292,152,120721,1,0,0:0:0:0:
456,128,120926,6,0,P|472:100|476:72,1,50,0|0,0:0|0:0,0:0:0:0:
376,200,121337,1,0,0:0:0:0:
404,40,121543,1,0,0:0:0:0:
376,200,121748,1,0,0:0:0:0:
316,60,121954,1,0,0:0:0:0:
208,164,122159,1,0,0:0:0:0:
172,176,122262,1,0,0:0:0:0:
140,180,122365,6,0,P|96:172|64:136,1,75.0000028610231,4|0,0:0|0:0,0:0:0:0:
156,64,122776,1,8,0:0:0:0:
248,264,122981,2,0,P|256:316|240:356,1,75.0000028610231
140,300,123392,1,0,0:0:0:0:
296,188,123597,6,0,L|388:192,2,75.0000028610231,8|0|0,0:0|0:0|0:0,0:0:0:0:
104,152,124214,2,0,P|92:96|104:68,1,75.0000028610231,0|8,0:0|0:0,0:0:0:0:
328,116,124625,1,0,0:0:0:0:
128,228,124830,1,0,0:0:0:0:
296,48,125036,1,0,0:0:0:0:
192,272,125241,1,8,0:0:0:0:
224,20,125447,1,0,0:0:0:0:
268,280,125652,6,0,L|272:384,2,100,4|0|8,0:0|0:0|0:0,0:0:0:0:
328,116,126269,2,0,P|388:108|436:120,2,100
204,208,126885,1,8,0:0:0:0:
168,204,126988,1,0,0:0:0:0:
132,200,127091,1,0,0:0:0:0:
96,196,127193,1,0,0:0:0:0:
60,192,127296,6,0,P|36:236|44:304,2,100,0|0|8,0:0|0:0|0:0,0:0:0:0:
204,112,127913,1,0,0:0:0:0:
368,120,128118,2,0,P|396:68|392:24,2,100,0|0|8,0:0|0:0|0:0,0:0:0:0:
344,148,128632,1,0,0:0:0:0:
332,180,128734,1,0,0:0:0:0:
332,216,128837,1,0,0:0:0:0:
348,248,128940,6,0,P|364:308|348:360,2,100,4|0|8,0:0|0:0|0:0,0:0:0:0:
160,180,129556,2,0,L|52:220,2,100
356,128,130173,1,8,0:0:0:0:
368,96,130276,1,0,0:0:0:0:
368,60,130378,1,0,0:0:0:0:
356,28,130481,1,0,0:0:0:0:
332,4,130584,6,0,P|300:12|268:12,3,50
184,96,130995,2,0,P|160:104|112:100,3,50,8|0|0|0,0:0|0:0|0:0|0:0,0:0:0:0:
100,100,131406,1,0,0:0:0:0:
68,88,131508,1,0,0:0:0:0:
36,100,131611,1,0,0:0:0:0:
12,128,131714,1,0,0:0:0:0:
4,164,131817,1,12,0:0:0:0:
8,200,131919,1,0,0:0:0:0:
24,232,132022,1,0,0:0:0:0:
52,252,132125,1,0,0:0:0:0:
88,248,132228,6,0,B|144:244|144:244|208:248,1,100,4|0,0:0|0:0,0:0:0:0:
332,344,132639,2,0,B|375:346|375:346|431:342,1,100,8|0,0:0|0:0,0:0:0:0:
488,180,133050,1,0,0:0:0:0:
340,264,133255,1,0,0:0:0:0:
344,96,133460,1,8,0:0:0:0:
316,76,133563,1,0,0:0:0:0:
280,72,133666,1,0,0:0:0:0:
244,76,133769,1,0,0:0:0:0:
212,92,133871,6,0,P|160:108|104:88,1,100
300,180,134282,1,8,0:0:0:0:
308,216,134385,1,0,0:0:0:0:
304,252,134488,1,0,0:0:0:0:
132,296,134693,2,0,P|120:236|132:192,1,100
300,180,135104,1,8,0:0:0:0:
328,160,135207,1,0,0:0:0:0:
356,140,135310,1,0,0:0:0:0:
384,120,135413,1,0,0:0:0:0:
412,100,135515,6,0,P|424:44|404:8,1,100,4|0,0:0|0:0,0:0:0:0:
248,96,135926,2,0,P|188:104|144:88,1,100,8|0,0:0|0:0,0:0:0:0:
300,180,136337,2,0,L|312:284,1,100
384,120,136748,1,8,0:0:0:0:
376,84,136851,1,0,0:0:0:0:
404,64,136954,1,0,0:0:0:0:
432,84,137056,1,0,0:0:0:0:
420,116,137159,6,0,L|464:232,1,100,4|0,0:0|0:0,0:0:0:0:
384,372,137570,2,0,L|340:256,1,100,8|0,0:0|0:0,0:0:0:0:
500,188,137981,1,0,0:0:0:0:
348,160,138187,1,0,0:0:0:0:
320,152,138289,1,0,0:0:0:0:
292,148,138392,1,8,0:0:0:0:
260,148,138495,1,0,0:0:0:0:
232,152,138597,1,0,0:0:0:0:
204,156,138700,1,0,0:0:0:0:
176,164,138803,6,0,P|104:160|80:44,1,200,4|8,0:0|0:0,0:0:0:0:
216,56,139419,2,0,P|280:68|416:32,1,200,0|0,0:0|0:0,0:0:0:0:
360,216,140036,2,0,P|296:204|160:240,1,200,8|0,0:0|0:0,0:0:0:0:
44,104,140652,6,0,P|96:144|132:44,1,200,0|0,0:0|0:0,0:0:0:0:
0,188,141269,1,0,0:0:0:0:
0,188,141474,1,0,0:0:0:0:
152,244,141680,1,8,0:0:0:0:
188,248,141782,1,0,0:0:0:0:
220,240,141885,1,0,0:0:0:0:
248,220,141988,1,0,0:0:0:0:
272,196,142091,6,0,P|332:176|468:196,1,200,4|8,0:0|0:0,0:0:0:0:
376,344,142707,1,0,0:0:0:0:
248,220,142913,2,0,L|216:84,1,100
380,36,143324,2,0,L|357:133,1,100,8|0,0:0|0:0,0:0:0:0:
216,48,143734,5,0,0:0:0:0:
328,204,143940,1,0,0:0:0:0:
136,212,144145,1,8,0:0:0:0:
232,60,144351,1,0,0:0:0:0:
320,220,144556,1,0,0:0:0:0:
124,224,144762,1,0,0:0:0:0:
271,135,144967,1,8,0:0:0:0:
308,132,145070,1,0,0:0:0:0:
344,128,145173,1,0,0:0:0:0:
380,124,145276,1,0,0:0:0:0:
416,120,145378,6,0,P|456:152|464:216,1,100,4|0,0:0|0:0,0:0:0:0:
323,213,145789,2,0,P|283:181|275:117,1,100,8|0,0:0|0:0,0:0:0:0:
400,244,146200,2,0,P|412:300|376:356,1,100,0|0,0:0|0:0,0:0:0:0:
120,336,146611,2,0,P|108:280|144:224,1,100,8|0,0:0|0:0,0:0:0:0:
388,72,147022,6,0,P|402:119|385:165,1,100
116,144,147433,2,0,L|36:72,1,100,8|0,0:0|0:0,0:0:0:0:
396,240,147844,2,0,L|476:312,1,100,0|0,0:0|0:0,0:0:0:0:
144,248,148255,1,8,0:0:0:0:
368,136,148460,1,0,0:0:0:0:
116,144,148666,5,0,0:0:0:0:
80,152,148769,1,0,0:0:0:0:
52,172,148871,1,0,0:0:0:0:
36,204,148974,1,0,0:0:0:0:
32,240,149077,2,0,L|28:320,1,50,8|0,0:0|0:0,0:0:0:0:
124,360,149282,2,0,L|121:310,1,50,0|0,0:0|0:0,0:0:0:0:
168,224,149488,1,0,0:0:0:0:
200,208,149591,1,0,0:0:0:0:
236,204,149693,1,0,0:0:0:0:
272,212,149796,1,0,0:0:0:0:
304,224,149899,2,0,L|360:236,3,50,8|0|0|0,0:0|0:0|0:0|0:0,0:0:0:0:
448,200,150310,5,0,0:0:0:0:
472,175,150412,1,0,0:0:0:0:
483,142,150515,1,0,0:0:0:0:
477,108,150618,1,0,0:0:0:0:
455,81,150720,1,8,0:0:0:0:
420,88,150824,1,0,0:0:0:0:
384,92,150926,1,0,0:0:0:0:
348,92,151029,1,0,0:0:0:0:
316,84,151132,2,0,L|240:104,1,50,0|0,0:0|0:0,0:0:0:0:
300,176,151337,2,0,L|224:196,1,50,0|0,0:0|0:0,0:0:0:0:
116,184,151543,2,0,L|164:171,1,50,8|0,0:0|0:0,0:0:0:0:
120,96,151748,2,0,L|168:83,1,50,0|0,0:0|0:0,0:0:0:0:
252,40,151954,6,0,P|296:72|444:80,1,200,6|0,0:0|0:0,0:0:0:0:
500,172,153349,1,2,0:0:0:0:
444,236,153770,2,0,L|312:232,1,100,2|0,0:0|0:0,0:0:0:0:
240,200,154761,2,0,L|120:196,1,100,2|0,0:0|0:0,0:0:0:0:
48,156,155675,6,0,P|44:104|184:72,1,200,2|0,0:0|0:0,0:0:0:0:
264,84,157038,2,0,L|376:96,1,100,0|2,0:0|0:0,0:0:0:0:
444,152,157985,2,0,B|424:208|424:268|464:316|464:316|368:268|288:312|288:312|272:260,1,400,2|0,0:0|0:0,0:0:0:0:
256,192,161712,12,0,169893,0:0:0:0:
