osu file format v14

[General]
AudioFilename: Mirror_Mirror.mp3
AudioLeadIn: 0
PreviewTime: 20975
Countdown: 0
SampleSet: Soft
StackLeniency: 0.7
Mode: 0
LetterboxInBreaks: 0
WidescreenStoryboard: 0

[Editor]
DistanceSpacing: 2
BeatDivisor: 6
GridSize: 32
TimelineZoom: 2

[Metadata]
Title:Mirror Mirror (Featuring Casey Lee Williams)
TitleUnicode:Mirror Mirror (Featuring Casey Lee Williams)
Artist:Jeff Williams
ArtistUnicode:Jeff Williams
Creator:neonat
Version:Rtyzen's Hard
Source:RWBY
Tags:Ruby Weiss Schnee Red Black Yellow Monty Oum Jinxyjem Jinxy Rtyzen aplstepitaslast TestApple
BeatmapID:712986
BeatmapSetID:320418

[Difficulty]
HPDrainRate:5
CircleSize:4
OverallDifficulty:6
ApproachRate:7
SliderMultiplier:1.8
SliderTickRate:1

[Events]
//Background and Video events
Video,-4900,"Mirror_Mirror_Video.avi"
0,0,"RWBY_BG_Weiss.png",0,0
//Break Periods
2,41961,46141
2,97085,109958
//Storyboard Layer 0 (Background)
//Storyboard Layer 1 (Fail)
//Storyboard Layer 2 (Pass)
//Storyboard Layer 3 (Foreground)
//Storyboard Sound Samples

[TimingPoints]
21210,827.586206896552,4,2,1,30,1,0
21623,857.142857142857,4,2,1,30,1,0
23765,810.810810810811,4,2,1,30,1,0
24575,841.514726507714,4,2,1,30,1,0
25416,871.143375680581,4,2,1,30,1,0
28900,909.090909090909,4,2,1,30,1,0
29809,776.699029126214,4,2,1,30,1,0
30585,916.030534351145,4,2,1,30,1,0
31501,851.063829787234,4,2,1,30,1,0
36607,831.889081455806,4,2,1,30,1,0
39934,913.937547600914,4,2,1,30,1,0
41761,895.522388059701,4,2,1,30,1,0
42656,769.230769230769,4,2,1,30,1,0
43040,833.333333333333,4,2,1,30,1,0
43456,895.522388059701,4,2,1,30,1,0
43903,888.888888888889,4,2,1,30,1,0
44347,805.369127516779,4,2,1,30,1,0
45152,408.64860306644,4,2,1,30,1,0
53324,410.958904109589,4,1,0,40,1,0
79728,-100,4,2,0,35,0,0
79984,-100,4,3,0,40,0,0
80087,-100,4,2,0,20,0,0
80806,-100,4,3,0,40,0,0
80909,-100,4,2,0,20,0,0
81217,-100,4,3,0,40,0,0
81320,-100,4,2,0,35,0,0
81628,-100,4,3,0,40,0,0
81731,-100,4,2,0,20,0,0
82450,-100,4,3,0,40,0,0
82553,-100,4,2,0,20,0,0
82861,-100,4,3,0,40,0,0
82964,-100,4,2,0,35,0,0
83272,-100,4,3,0,40,0,0
83375,-100,4,2,0,20,0,0
84094,-100,4,3,0,40,0,0
84197,-100,4,2,0,20,0,0
84916,-100,4,3,0,40,0,0
85019,-100,4,2,0,20,0,0
85738,-100,4,3,0,40,0,0
85841,-100,4,2,0,20,0,0
86611,-100,4,3,0,40,0,0
86663,-100,4,2,0,20,0,0
87433,-100,4,3,0,40,0,0
87484,-100,4,2,0,20,0,0
87844,-133.333333333333,4,3,0,40,0,0
106029,-200,4,2,1,30,0,0
112296,-200,4,1,0,40,0,0
113118,-100,4,1,0,40,0,0
122365,-100,4,1,0,50,0,0
125652,-80,4,1,0,50,0,1
151954,930.232558139535,4,2,1,30,1,0
153349,842.105263157895,4,2,1,30,1,0
153770,991.735537190083,4,2,1,30,1,0
154761,914.285714285714,4,2,1,30,1,0
155675,909.090909090909,4,2,1,30,1,0
157038,860.215053763441,4,2,1,30,1,0
157468,1034.48275862069,4,2,1,5,1,0
157985,1065.09505973408,4,2,1,30,1,0
160115,-100,4,2,1,5,0,0
161712,1363.63636363636,4,2,1,5,1,0

[Colours]
Combo1 : 255,255,0
Combo2 : 255,0,0
Combo3 : 225,225,225
Combo4 : 139,139,139

[HitObjects]
448,64,21210,22,0,L|358:57,1,90,2|0,0:0|0:0,0:0:0:0:
251,44,22051,1,0,0:0:0:0:
156,96,22480,1,0,0:0:0:0:
208,192,22908,2,0,P|224:244|112:324,1,180,2|0,0:0|0:0,0:0:0:0:
96,124,24575,2,0,L|288:96,1,180,2|0,0:0|0:0,0:0:0:0:
396,276,26287,2,0,P|344:304|304:300,1,90,0|0,0:0|0:0,0:0:0:0:
244,236,27158,2,0,P|296:208|336:212,1,90
220,320,28029,6,0,P|169:288|153:252,1,90,2|0,0:0|0:0,0:0:0:0:
192,160,28900,2,0,P|208:96|196:60,1,90,0|0,0:0|0:0,0:0:0:0:
120,204,29809,2,0,P|168:240|276:176,1,180,2|0,0:0|0:0,0:0:0:0:
412,180,31501,2,0,P|428:232|416:284,1,90,2|0,0:0|0:0,0:0:0:0:
336,232,32352,2,0,B|276:204|220:260|156:224,1,180
76,160,33628,1,0,0:0:0:0:
144,76,34054,1,0,0:0:0:0:
204,164,34479,1,0,0:0:0:0:
200,324,34905,38,0,P|140:332|56:252,1,180,2|0,0:0|0:0,0:0:0:0:
184,76,36607,1,2,0:0:0:0:
352,212,37438,2,0,L|360:304,1,90,0|0,0:0|0:0,0:0:0:0:
252,280,38270,2,0,P|188:264|104:332,1,180,2|0,0:0|0:0,0:0:0:0:
60,140,39934,2,0,P|124:156|208:88,1,180,2|0,0:0|0:0,0:0:0:0:
392,208,41761,5,0,0:0:0:0:
256,192,47041,12,0,49647,0:0:0:0:
256,96,50055,5,2,0:0:0:0:
176,136,50260,2,0,P|96:128|64:128,2,90
336,136,50873,2,0,P|416:128|448:128,2,90,2|0|0,0:0|0:0|0:0,0:0:0:0:
256,192,51486,1,0,0:0:0:0:
208,280,51690,2,0,L|148:268,6,45,2|0|0|0|0|0|0,0:0|0:0|0:0|0:0|0:0|0:0|0:0,0:0:0:0:
304,280,52507,2,0,L|364:268,6,45,2|0|0|0|2|0|0,0:0|0:0|0:0|0:0|0:0|0:0|0:0,0:0:0:0:
399,207,53324,6,0,P|387:151|275:127,1,180,4|8,0:0|0:0,0:0:0:0:
244,216,53940,1,0,0:0:0:0:
304,280,54145,2,0,P|324:228|312:184,1,90
279,124,54556,1,8,0:0:0:0:
204,152,54762,2,0,B|148:152|148:152|92:184|92:184|20:184,1,180,0|0,0:0|0:0,0:0:0:0:
124,248,55378,2,0,B|168:224|168:224|232:224,1,90,8|0,0:0|0:0,0:0:0:0:
304,224,55789,2,0,B|344:224|344:224|388:248,1,90,0|0,0:0|0:0,0:0:0:0:
316,336,56200,2,0,P|264:344|200:328,1,90,8|0,0:0|0:0,0:0:0:0:
148,264,56611,6,0,B|116:200|176:140|128:68,1,180,0|8,0:0|0:0,0:0:0:0:
46,115,57228,1,0,0:0:0:0:
88,199,57433,2,0,P|148:207|236:127,1,180,0|8,0:0|0:0,0:0:0:0:
308,83,58050,2,0,B|432:63|432:63|352:115,1,180
312,171,58666,2,0,P|264:159|220:111,1,90,8|0,0:0|0:0,0:0:0:0:
192,28,59077,1,0,0:0:0:0:
120,108,59282,1,0,0:0:0:0:
145,213,59488,1,8,0:0:0:0:
241,260,59693,1,0,0:0:0:0:
348,244,59899,6,0,P|392:192|352:88,1,180,0|8,0:0|0:0,0:0:0:0:
253,79,60515,1,0,0:0:0:0:
149,111,60721,2,0,P|105:163|145:267,1,180,0|8,0:0|0:0,0:0:0:0:
222,284,61337,1,0,0:0:0:0:
285,215,61543,2,0,B|290:169|290:169|270:129,1,90
136,261,61954,2,0,B|130:306|130:306|150:346,1,90,8|0,0:0|0:0,0:0:0:0:
218,245,62365,2,0,P|158:182|76:205,1,180,0|8,0:0|0:0,0:0:0:0:
23,277,62981,1,0,0:0:0:0:
92,340,63187,6,0,L|135:260,1,90
229,261,63597,2,0,L|277:173,1,90,8|0,0:0|0:0,0:0:0:0:
260,92,64008,2,0,P|320:56|416:112,1,180,0|8,0:0|0:0,0:0:0:0:
352,192,64625,2,0,L|172:204,1,180,0|0,0:0|0:0,0:0:0:0:
116,208,65139,1,0,0:0:0:0:
116,208,65241,2,0,P|88:152|100:112,1,90
168,52,65652,2,0,L|268:64,1,90,0|0,0:0|0:0,0:0:0:0:
276,157,66063,2,0,L|365:167,1,90
394,171,66371,1,0,0:0:0:0:
423,175,66474,6,0,B|407:51|407:51|377:110,1,180,4|8,0:0|0:0,0:0:0:0:
326,193,67091,1,0,0:0:0:0:
316,287,67296,2,0,P|348:331|392:343,1,90
466,278,67707,1,8,0:0:0:0:
394,173,67913,2,0,P|310:145|222:193,1,180,8|0,0:0|0:0,0:0:0:0:
118,153,68529,2,0,P|106:81|122:45,1,90,8|0,0:0|0:0,0:0:0:0:
223,95,68940,2,0,P|235:167|219:203,1,90
341,218,69351,2,0,P|333:145|343:115,1,90,8|0,0:0|0:0,0:0:0:0:
432,193,69762,6,0,P|424:262|330:313,1,180,0|8,0:0|0:0,0:0:0:0:
240,285,70378,1,0,0:0:0:0:
162,198,70584,2,0,L|350:218,1,180,0|8,0:0|0:0,0:0:0:0:
268,121,71200,2,0,B|184:113|184:113|156:61|196:21,1,180,8|0,0:0|0:0,0:0:0:0:
339,92,71817,2,0,P|345:135|325:175,1,90,8|0,0:0|0:0,0:0:0:0:
228,204,72228,2,0,L|128:196,1,90,0|0,0:0|0:0,0:0:0:0:
64,276,72639,2,0,L|164:284,1,90,8|0,0:0|0:0,0:0:0:0:
308,280,73050,6,0,B|340:248|336:180|336:180|424:156,1,180,4|8,0:0|0:0,0:0:0:0:
504,152,73666,1,0,0:0:0:0:
440,80,73871,2,0,P|388:76|338:105,1,90
406,240,74282,2,0,P|458:244|506:212,1,90,8|0,0:0|0:0,0:0:0:0:
321,181,74693,2,0,P|244:196|195:290,1,180,0|8,0:0|0:0,0:0:0:0:
252,344,75310,1,0,0:0:0:0:
364,312,75515,2,0,L|280:260,1,90
404,204,75926,2,0,L|488:256,1,90,8|0,0:0|0:0,0:0:0:0:
364,312,76337,6,0,B|324:332|284:324|260:304|260:304|184:332,1,180
97,275,76954,1,0,0:0:0:0:
144,172,77159,2,0,P|144:144|136:112,3,45,0|0|0|0,0:0|0:0|0:0|0:0,0:0:0:0:
100,92,77570,2,0,P|96:69|96:47,3,45,0|0|0|0,0:0|0:0|0:0|0:0,0:0:0:0:
144,24,77981,2,0,L|252:32,1,90,0|0,0:0|0:0,0:0:0:0:
328,84,78392,2,0,L|436:92,1,90,0|0,0:0|0:0,0:0:0:0:
392,196,78803,2,0,P|356:208|336:224,3,45,0|0|0|0,0:0|0:0|0:0|0:0,0:0:0:0:
324,260,79214,2,0,P|304:270|282:275,3,45,0|0|0|0,0:0|0:0|0:0|0:0,0:0:0:0:
232,256,79625,5,4,0:0:0:0:
132,216,79830,1,0,0:0:0:0:
132,216,79933,1,0,0:0:0:0:
132,216,80036,2,0,L|112:168,3,45,8|0|0|0,0:0|0:0|0:0|0:0,0:0:0:0:
112,120,80447,2,0,L|124:60,3,45,0|0|0|0,0:0|0:0|0:0|0:0,0:0:0:0:
164,44,80858,2,0,P|196:36|264:60,1,90,8|0,0:0|0:0,0:0:0:0:
304,224,81269,5,4,0:0:0:0:
364,88,81474,1,0,0:0:0:0:
364,88,81577,1,0,0:0:0:0:
364,88,81680,2,0,L|416:120,3,45,8|0|0|0,0:0|0:0|0:0|0:0,0:0:0:0:
428,160,82091,2,0,L|432:216,3,45,0|0|0|0,0:0|0:0|0:0|0:0,0:0:0:0:
416,256,82502,2,0,P|384:300|236:308,1,180,8|4,0:0|0:0,0:0:0:0:
144,232,83118,5,0,0:0:0:0:
144,232,83221,1,0,0:0:0:0:
144,232,83324,2,0,L|152:168,3,45,8|0|0|0,0:0|0:0|0:0|0:0,0:0:0:0:
159,134,83734,2,0,P|172:118|207:98,3,45
244,114,84145,2,0,P|272:114|309:99,3,45,8|0|0|0,0:0|0:0|0:0|0:0,0:0:0:0:
374,130,84556,6,0,L|379:207,3,45
371,228,84967,2,0,L|302:231,1,45,8|0,0:0|0:0,0:0:0:0:
278,257,85173,2,0,L|204:258,1,45
157,219,85378,2,0,L|102:218,3,45
57,220,85789,2,0,P|43:200|38:157,1,45,8|0,0:0|0:0,0:0:0:0:
63,132,85995,2,0,P|67:108|64:71,1,45
15,22,86200,6,0,L|68:16,5,30
87,17,86611,2,0,L|131:24,5,30,8|0|0|0|0|0,0:0|0:0|0:0|0:0|0:0|0:0,0:0:0:0:
156,35,87022,2,0,L|213:37,3,45
254,25,87433,2,0,L|311:27,3,45
338,36,87844,6,0,P|350:100|306:168,1,135.000005149842,4|8,0:0|0:0,0:0:0:0:
139,239,88460,2,0,L|131:99,1,135.000005149842,8|8,0:0|0:0,0:0:0:0:
234,42,89077,2,0,L|239:143,1,101.250003862381,8|8,0:0|0:0,0:0:0:0:
254,174,89488,2,0,P|298:170|326:150,1,67.5000025749208,8|8,0:0|0:0,0:0:0:0:
326,34,89899,1,0,0:0:0:0:
454,38,90104,1,0,0:0:0:0:
427,145,90310,2,0,B|318:159|318:159|351:178,1,135.000005149842,8|0,0:0|0:0,0:0:0:0:
436,265,90926,1,0,0:0:0:0:
304,296,91132,6,0,P|240:308|196:296,1,101.250003862381,4|0,0:0|0:0,0:0:0:0:
184,272,91543,2,0,P|188:224|188:196,1,67.5000025749208,0|0,0:0|0:0,0:0:0:0:
177,96,91954,2,0,L|129:100,1,33.7500012874604
120,120,92159,2,0,L|72:124,1,33.7500012874604,0|0,0:0|0:0,0:0:0:0:
48,159,92365,2,0,P|112:151|156:159,1,101.250003862381,4|0,0:0|0:0,0:0:0:0:
176,184,92776,1,0,0:0:0:0:
204,212,92878,1,0,0:0:0:0:
236,232,92981,2,0,P|276:240|316:232,1,67.5000025749208,4|0,0:0|0:0,0:0:0:0:
392,148,93392,1,0,0:0:0:0:
392,280,93597,2,0,P|392:328|396:356,1,67.5000025749208,8|0,0:0|0:0,0:0:0:0:
480,172,94008,2,0,P|480:124|476:96,1,67.5000025749208,0|0,0:0|0:0,0:0:0:0:
328,72,94419,38,0,P|304:108|308:204,1,135.000005149842,4|8,0:0|0:0,0:0:0:0:
400,256,95036,1,8,0:0:0:0:
480,172,95241,1,0,0:0:0:0:
480,172,95344,1,0,0:0:0:0:
480,172,95447,1,0,0:0:0:0:
400,256,95652,2,0,P|400:304|416:356,1,101.250003862381,8|8,0:0|0:0,0:0:0:0:
427,372,96063,2,0,P|367:357|352:359,1,67.5000025749208,8|8,0:0|0:0,0:0:0:0:
249,361,96474,1,0,0:0:0:0:
249,361,96577,1,0,0:0:0:0:
249,361,96680,1,0,0:0:0:0:
219,250,96885,1,4,0:0:0:0:
256,192,110858,12,4,112502,0:0:0:0:
80,120,113118,5,0,0:0:0:0:
292,308,113734,2,0,P|348:308|412:200,1,180,0|0,0:0|0:0,0:0:0:0:
384,104,114351,2,0,P|300:104|204:56,1,180,0|0,0:0|0:0,0:0:0:0:
140,164,114967,2,0,P|160:192|180:248,1,90,0|0,0:0|0:0,0:0:0:0:
124,351,115378,2,0,L|80:348,3,45
164,360,115789,38,0,P|208:364|352:348,1,180,4|0,0:0|0:0,0:0:0:0:
392,256,116406,2,0,P|348:260|204:244,1,180,0|0,0:0|0:0,0:0:0:0:
172,164,117022,1,2,0:0:0:0:
172,164,117639,6,0,P|172:224|280:264,1,180
352,208,118255,2,0,P|356:160|356:112,1,90,0|0,0:0|0:0,0:0:0:0:
264,48,118666,2,0,L|200:56,3,45,0|0|0|0,0:0|0:0|0:0|0:0,0:0:0:0:
184,60,119077,38,0,B|56:76|56:76|116:92,1,180,4|0,0:0|0:0,0:0:0:0:
317,138,119693,2,0,B|445:122|445:122|385:106,1,180
226,62,120310,2,0,L|234:158,2,90,2|0|0,0:0|0:0|0:0,0:0:0:0:
152,72,120926,2,0,L|168:252,1,180,0|0,0:0|0:0,0:0:0:0:
252,316,121543,2,0,P|296:320|340:312,1,90,0|0,0:0|0:0,0:0:0:0:
400,220,121954,2,0,L|384:160,3,45,0|0|0|0,0:0|0:0|0:0|0:0,0:0:0:0:
368,124,122365,6,0,P|283:86|206:125,1,180,4|8,0:0|0:0,0:0:0:0:
208,313,122981,2,0,P|283:258|288:172,1,180
124,79,123597,2,0,P|133:171|205:218,1,180,8|0,0:0|0:0,0:0:0:0:
289,177,124214,1,0,0:0:0:0:
209,120,124419,1,8,0:0:0:0:
200,217,124625,1,0,0:0:0:0:
305,259,124830,2,0,L|316:215,3,45
289,177,125241,2,0,L|303:129,3,45,8|0|0|0,0:0|0:0|0:0|0:0,0:0:0:0:
345,114,125652,6,0,P|341:66|213:106,1,225,4|8,0:0|0:0,0:0:0:0:
192,208,126269,2,0,P|196:256|324:216,1,225,0|0,0:0|0:0,0:0:0:0:
301,133,126885,1,8,0:0:0:0:
212,88,127091,2,0,P|108:84|-8:157,1,225,0|2,0:0|0:0,0:0:0:0:
50,227,127707,1,2,0:0:0:0:
128,288,127913,2,0,L|368:272,1,225,0|2,0:0|0:0,0:0:0:0:
392,176,128529,2,0,L|272:184,1,112.5
290,353,128940,6,0,P|402:362|450:259,1,225,4|8,0:0|0:0,0:0:0:0:
392,176,129556,2,0,P|380:132|392:52,1,112.5,0|0,0:0|0:0,0:0:0:0:
280,16,129967,2,0,P|292:60|280:140,1,112.5,0|8,0:0|0:0,0:0:0:0:
172,196,130378,2,0,P|224:200|232:348,1,225,0|2,0:0|0:0,0:0:0:0:
152,344,130995,1,8,0:0:0:0:
200,272,131200,2,0,P|317:260|436:264,1,225,0|2,0:0|0:0,0:0:0:0:
440,147,131817,2,0,L|420:87,3,56.25,4|0|0|0,0:0|0:0|0:0|0:0,0:0:0:0:
384,48,132228,38,0,P|324:56|292:200,1,225,4|8,0:0|0:0,0:0:0:0:
368,256,132844,1,0,0:0:0:0:
476,204,133050,2,0,L|480:80,1,112.5,0|0,0:0|0:0,0:0:0:0:
368,160,133460,1,8,0:0:0:0:
280,264,133666,2,0,P|308:316|452:288,1,225,0|2,0:0|0:0,0:0:0:0:
476,204,134282,1,2,0:0:0:0:
368,160,134488,2,0,L|144:176,1,225,0|2,0:0|0:0,0:0:0:0:
80,92,135104,2,0,L|209:84,1,112.5,8|0,0:0|0:0,0:0:0:0:
308,80,135515,5,4,0:0:0:0:
368,160,135721,1,0,0:0:0:0:
416,76,135926,1,8,0:0:0:0:
440,200,136132,2,0,P|376:240|288:144,1,225,0|0,0:0|0:0,0:0:0:0:
328,44,136748,1,8,0:0:0:0:
368,160,136954,2,0,P|364:236|340:384,1,225,0|0,0:0|0:0,0:0:0:0:
452,343,137570,2,0,P|452:279|460:219,1,112.5,8|0,0:0|0:0,0:0:0:0:
480,128,137981,1,0,0:0:0:0:
408,64,138187,1,0,0:0:0:0:
368,160,138392,1,8,0:0:0:0:
408,64,138597,1,0,0:0:0:0:
288,96,138803,38,0,P|185:108|52:112,1,225,4|8,0:0|0:0,0:0:0:0:
180,200,139419,2,0,P|282:187|416:184,1,225,0|0,0:0|0:0,0:0:0:0:
448,114,140036,2,0,B|440:74|415:41|415:41|387:109|407:201,1,225,8|0,0:0|0:0,0:0:0:0:
440,284,140652,2,0,B|448:324|473:357|473:357|501:289|481:197,1,225,0|0,0:0|0:0,0:0:0:0:
448,114,141269,2,0,P|384:114|332:122,1,112.5,0|0,0:0|0:0,0:0:0:0:
220,124,141680,2,0,P|176:112|152:96,3,56.25,8|0|0|0,0:0|0:0|0:0|0:0,0:0:0:0:
151,54,142091,6,0,L|159:278,1,225,0|8,0:0|0:0,0:0:0:0:
296,336,142707,2,0,L|304:112,1,225
236,40,143324,2,0,P|168:48|4:32,1,225,8|0,0:0|0:0,0:0:0:0:
52,128,143940,2,0,P|108:144|128:304,1,225,0|0,0:0|0:0,0:0:0:0:
56,232,144556,1,0,0:0:0:0:
56,340,144762,1,0,0:0:0:0:
188,344,144967,2,0,L|256:344,3,56.25,8|0|0|0,0:0|0:0|0:0|0:0,0:0:0:0:
304,344,145378,38,0,B|364:348|464:312|464:312|380:304,1,225,4|8,0:0|0:0,0:0:0:0:
272,248,145995,2,0,B|212:244|112:280|112:280|196:288,1,225,0|0,0:0|0:0,0:0:0:0:
304,344,146611,2,0,P|300:216|312:96,1,225,8|0,0:0|0:0,0:0:0:0:
180,112,147228,2,0,P|184:240|172:360,1,225,0|0,0:0|0:0,0:0:0:0:
64,264,147844,2,0,P|64:208|68:152,1,112.5,0|0,0:0|0:0,0:0:0:0:
88,48,148255,1,8,0:0:0:0:
180,112,148460,1,0,0:0:0:0:
256,40,148666,6,0,L|328:36,7,56.25,0|0|0|0|8|0|0|0,0:0|0:0|0:0|0:0|0:0|0:0|0:0|0:0,0:0:0:0:
360,72,149488,2,0,L|440:72,7,56.25,0|0|0|0|8|0|0|0,0:0|0:0|0:0|0:0|0:0|0:0|0:0|0:0,0:0:0:0:
408,156,150310,38,0,L|336:152,3,56.25
304,188,150721,2,0,L|224:188,3,56.25,8|0|0|0,0:0|0:0|0:0|0:0,0:0:0:0:
220,148,151132,2,0,L|148:144,3,56.25,0|0|0|0,0:0|0:0|0:0|0:0,0:0:0:0:
116,180,151543,2,0,L|36:180,3,56.25,0|0|0|0,0:0|0:0|0:0|0:0,0:0:0:0:
24,144,151954,22,0,P|53:61|214:91,1,270
244,196,153770,2,0,P|292:208|400:144,1,180
228,0,155675,2,0,L|236:276,1,270,2|0,0:0|0:0,0:0:0:0:
240,360,157468,1,2,0:0:0:0:
256,192,157985,12,2,160115,0:0:0:0:
256,192,161712,12,0,169893,0:0:0:0:
