osu file format v14

[General]
AudioFilename: Mirror_Mirror.mp3
AudioLeadIn: 0
PreviewTime: 20975
Countdown: 0
SampleSet: Soft
StackLeniency: 0.7
Mode: 0
LetterboxInBreaks: 0
WidescreenStoryboard: 0

[Editor]
DistanceSpacing: 1.4
BeatDivisor: 4
GridSize: 4
TimelineZoom: 1

[Metadata]
Title:Mirror Mirror (Featuring Casey Lee Williams)
TitleUnicode:Mirror Mirror (Featuring Casey Lee Williams)
Artist:Jeff Williams
ArtistUnicode:Jeff Williams
Creator:neonat
Version:Jinxy's Insane
Source:RWBY
Tags:Ruby Weiss Schnee Red Black Yellow Monty Oum Jinxyjem Jinxy Rtyzen aplstepitaslast TestApple
BeatmapID:712984
BeatmapSetID:320418

[Difficulty]
HPDrainRate:6
CircleSize:4
OverallDifficulty:7
ApproachRate:8
SliderMultiplier:1.8
SliderTickRate:1

[Events]
//Background and Video events
Video,-4900,"Mirror_Mirror_Video.avi"
0,0,"RWBY_BG_Weiss.png",0,0
//Break Periods
2,45352,52574
2,91332,99012
//Storyboard Layer 0 (Background)
//Storyboard Layer 1 (Fail)
//Storyboard Layer 2 (Pass)
//Storyboard Layer 3 (Foreground)
//Storyboard Sound Samples

[TimingPoints]
21210,827.586206896552,4,2,1,30,1,0
21623,857.142857142857,4,2,1,30,1,0
23765,810.810810810811,4,2,1,30,1,0
24575,841.514726507714,4,2,1,30,1,0
25416,871.143375680581,4,2,1,30,1,0
28900,909.090909090909,4,2,1,30,1,0
29809,776.699029126214,4,2,1,30,1,0
30585,916.030534351145,4,2,1,30,1,0
31501,851.063829787234,4,2,1,30,1,0
36607,831.889081455806,4,2,1,30,1,0
39934,913.937547600914,4,2,1,30,1,0
41761,895.522388059701,4,2,1,30,1,0
42656,769.230769230769,4,2,1,30,1,0
43040,833.333333333333,4,2,1,30,1,0
43456,895.522388059701,4,2,1,30,1,0
43903,888.888888888889,4,2,1,30,1,0
44347,805.369127516779,4,2,1,30,1,0
45152,408.64860306644,4,2,1,30,1,0
53324,410.958904109589,4,1,0,40,1,0
79728,-100,4,2,0,35,0,0
79984,-100,4,3,0,40,0,0
80087,-100,4,2,0,20,0,0
80806,-100,4,3,0,40,0,0
80909,-100,4,2,0,20,0,0
81217,-100,4,3,0,40,0,0
81320,-100,4,2,0,35,0,0
81628,-100,4,3,0,40,0,0
81731,-100,4,2,0,20,0,0
82450,-100,4,3,0,40,0,0
82553,-100,4,2,0,20,0,0
82861,-100,4,3,0,40,0,0
82964,-100,4,2,0,35,0,0
83272,-100,4,3,0,40,0,0
83375,-100,4,2,0,20,0,0
84094,-100,4,3,0,40,0,0
84197,-100,4,2,0,20,0,0
84916,-100,4,3,0,40,0,0
85019,-100,4,2,0,20,0,0
85738,-100,4,3,0,40,0,0
85841,-100,4,2,0,20,0,0
86611,-100,4,3,0,40,0,0
86663,-100,4,2,0,20,0,0
87433,-100,4,3,0,40,0,0
87484,-100,4,2,0,20,0,0
87844,-100,4,3,0,40,0,0
105926,-100,4,2,0,5,0,0
106029,-200,4,2,1,30,0,0
112296,-200,4,1,0,40,0,0
122365,-100,4,1,0,50,0,0
125652,-100,4,1,0,50,0,1
151954,930.232558139535,4,2,1,30,1,0
153349,842.105263157895,4,2,1,30,1,0
153770,991.735537190083,4,2,1,30,1,0
154761,914.285714285714,4,2,1,30,1,0
155675,909.090909090909,4,2,1,30,1,0
157038,860.215053763441,4,2,1,30,1,0
157468,1034.48275862069,4,2,1,5,1,0
157985,1065.09505973408,4,2,1,30,1,0
160115,-100,4,2,1,5,0,0
161712,1363.63636363636,4,2,1,5,1,0

[Colours]
Combo1 : 255,255,0
Combo2 : 255,0,0
Combo3 : 225,225,225
Combo4 : 139,139,139

[HitObjects]
216,48,21209,6,0,P|152:44|96:68,1,90,2|0,0:0|0:0,0:0:0:0:
56,104,22051,1,0,0:0:0:0:
28,192,22480,1,0,0:0:0:0:
56,276,22908,2,0,P|144:336|216:336,1,180,2|0,0:0|0:0,0:0:0:0:
384,296,24575,1,2,0:0:0:0:
476,148,25416,1,0,0:0:0:0:
328,48,26287,6,0,P|240:40|168:92,2,180,0|0|2,0:0|0:0|0:0,0:0:0:0:
368,128,28465,1,0,0:0:0:0:
344,212,28900,1,0,0:0:0:0:
256,236,29354,1,0,0:0:0:0:
176,312,29809,2,0,P|256:348|336:312,1,180,2|0,0:0|0:0,0:0:0:0:
336,120,31501,2,0,P|256:84|176:120,1,180,2|0,0:0|0:0,0:0:0:0:
268,272,33203,6,0,P|308:248|320:204,1,90
232,192,34054,2,0,P|192:216|180:260,1,90
236,328,34905,2,0,P|320:320|380:248,2,180,2|0|0,0:0|0:0|0:0,0:0:0:0:
236,328,37438,1,0,0:0:0:0:
64,260,38270,2,0,P|132:100|304:44,1,360,2|0,0:0|0:0,0:0:0:0:
452,144,40847,1,0,0:0:0:0:
256,192,41761,12,2,45152,0:0:0:0:
52,36,53324,6,0,L|4:120,1,90
80,140,53734,2,0,L|128:224,1,90,8|0,0:0|0:0,0:0:0:0:
52,248,54145,2,0,P|40:300|64:344,1,90
140,360,54556,1,8,0:0:0:0:
232,356,54762,2,0,P|344:324|392:276,1,180
440,208,55378,1,8,0:0:0:0:
292,108,55789,6,0,L|204:48,1,90
144,108,56200,2,0,P|108:124|68:180,1,90,8|0,0:0|0:0,0:0:0:0:
160,200,56611,2,0,P|148:288|52:320,2,180,0|8|0,0:0|0:0|0:0,0:0:0:0:
75,161,57639,1,0,0:0:0:0:
140,100,57844,1,8,0:0:0:0:
212,44,58050,2,0,L|396:44,1,180
460,108,58666,1,8,0:0:0:0:
432,284,59077,5,0,0:0:0:0:
348,312,59282,1,0,0:0:0:0:
260,288,59488,1,8,0:0:0:0:
176,316,59693,1,0,0:0:0:0:
92,344,59899,2,0,P|24:296|0:196,2,180,0|8|0,0:0|0:0|0:0,0:0:0:0:
240,240,61132,1,8,0:0:0:0:
284,160,61337,1,0,0:0:0:0:
296,68,61543,2,0,P|376:32|456:68,2,180,0|8|0,0:0|0:0|0:0,0:0:0:0:
376,228,62776,1,8,0:0:0:0:
256,192,63187,12,4,64830,0:0:0:0:
428,208,65036,6,0,L|460:176,2,45
360,264,65447,1,0,0:0:0:0:
360,264,65550,1,0,0:0:0:0:
360,264,65652,2,0,P|320:292|276:312,1,90
200,344,66063,2,0,P|156:356|84:348,1,90
88,340,66371,1,0,0:0:0:0:
72,316,66474,5,4,0:0:0:0:
102,231,66680,1,0,0:0:0:0:
181,272,66885,1,8,0:0:0:0:
211,187,67091,1,0,0:0:0:0:
290,228,67296,1,0,0:0:0:0:
321,143,67502,1,0,0:0:0:0:
352,59,67707,2,8,P|389:34|440:32,1,90
220,36,68324,2,0,P|148:84|96:164,2,180
312,36,69351,2,0,L|404:16,2,90,8|0|0,0:0|0:0|0:0,0:0:0:0:
300,128,69967,5,0,0:0:0:0:
268,212,70173,1,8,0:0:0:0:
204,276,70378,1,0,0:0:0:0:
124,316,70584,2,0,P|81:300|47:272,1,90,0|0,0:0|0:0,0:0:0:0:
52,180,70995,1,8,0:0:0:0:
88,96,71200,2,0,P|160:48|232:96,2,180,8|0|0,0:0|0:0|0:0,0:0:0:0:
144,168,72228,5,0,0:0:0:0:
128,284,72433,1,0,0:0:0:0:
224,204,72639,1,0,0:0:0:0:
228,340,72844,1,0,0:0:0:0:
336,248,73050,2,0,P|492:196|468:20,1,360,4|0,0:0|0:0,0:0:0:0:
256,92,74282,1,8,0:0:0:0:
160,84,74488,1,0,0:0:0:0:
79,47,74693,2,0,P|64:216|220:268,1,360,0|0,0:0|0:0,0:0:0:0:
256,92,75926,1,8,0:0:0:0:
256,192,76337,12,0,79214,0:0:0:0:
120,84,79625,5,4,0:0:0:0:
204,52,79830,1,0,0:0:0:0:
228,60,79933,1,0,0:0:0:0:
248,80,80036,1,8,0:0:0:0:
264,104,80139,1,0,0:0:0:0:
268,132,80241,1,0,0:0:0:0:
264,160,80344,1,0,0:0:0:0:
256,184,80447,1,0,0:0:0:0:
252,212,80550,1,0,0:0:0:0:
256,240,80652,1,0,0:0:0:0:
268,264,80755,1,0,0:0:0:0:
292,276,80858,2,0,P|324:280|352:272,3,45
364,272,81269,1,0,0:0:0:0:
324,352,81474,5,0,0:0:0:0:
296,356,81577,1,0,0:0:0:0:
268,356,81680,1,8,0:0:0:0:
240,356,81782,1,0,0:0:0:0:
212,352,81885,1,0,0:0:0:0:
185,345,81988,1,0,0:0:0:0:
163,328,82091,1,0,0:0:0:0:
146,306,82193,1,0,0:0:0:0:
139,279,82296,1,0,0:0:0:0:
138,251,82399,1,0,0:0:0:0:
142,224,82502,2,0,P|168:124|235:59,1,180,8|4,0:0|0:0,0:0:0:0:
312,68,83118,5,0,0:0:0:0:
328,88,83221,1,0,0:0:0:0:
312,112,83324,1,8,0:0:0:0:
328,132,83426,1,0,0:0:0:0:
312,156,83529,1,0,0:0:0:0:
332,176,83632,1,0,0:0:0:0:
312,196,83734,1,0,0:0:0:0:
332,212,83837,1,0,0:0:0:0:
312,232,83940,1,0,0:0:0:0:
332,252,84043,1,0,0:0:0:0:
312,272,84145,1,8,0:0:0:0:
332,292,84248,1,0,0:0:0:0:
312,312,84351,1,0,0:0:0:0:
332,328,84454,1,0,0:0:0:0:
312,344,84556,6,0,L|268:344,3,45
228,320,84967,1,8,0:0:0:0:
204,280,85070,1,0,0:0:0:0:
204,236,85173,1,0,0:0:0:0:
180,196,85276,1,0,0:0:0:0:
136,196,85378,2,0,L|84:196,3,45
56,168,85789,1,8,0:0:0:0:
24,136,85892,1,0,0:0:0:0:
24,92,85995,1,0,0:0:0:0:
56,60,86097,1,0,0:0:0:0:
104,40,86200,6,0,L|104:70,11,30
124,100,87022,1,0,0:0:0:0:
160,128,87125,1,0,0:0:0:0:
200,148,87228,1,0,0:0:0:0:
244,156,87330,1,0,0:0:0:0:
288,156,87433,2,0,L|340:152,3,45,8|0|0|0,0:0|0:0|0:0|0:0,0:0:0:0:
376,148,87844,1,8,0:0:0:0:
256,192,87913,12,4,91132,0:0:0:0:
256,192,99762,12,4,105926,0:0:0:0:
192,80,106543,5,0,0:0:0:0:
192,80,106645,1,0,0:0:0:0:
192,80,106748,2,0,P|160:136|164:168,1,90
168,244,107365,1,0,0:0:0:0:
168,244,107467,1,0,0:0:0:0:
168,244,107570,2,0,B|188:292|216:252|236:300,1,90
312,336,108187,1,0,0:0:0:0:
312,336,108289,1,0,0:0:0:0:
312,336,108392,2,0,P|356:336|408:312,1,90
436,244,109008,1,0,0:0:0:0:
436,244,109111,1,0,0:0:0:0:
436,244,109214,1,0,0:0:0:0:
256,192,109317,12,0,111680,0:0:0:0:
296,24,112502,6,0,P|224:28|164:56,1,135,4|0,0:0|0:0,0:0:0:0:
344,164,113734,2,0,P|282:190|215:193,1,135
60,176,114762,1,0,0:0:0:0:
72,248,114967,1,0,0:0:0:0:
112,308,115173,1,0,0:0:0:0:
176,340,115378,1,0,0:0:0:0:
196,340,115481,1,0,0:0:0:0:
216,340,115584,1,0,0:0:0:0:
236,340,115687,1,0,0:0:0:0:
256,340,115789,6,0,L|392:340,1,135,4|0,0:0|0:0,0:0:0:0:
508,280,117022,2,0,P|456:324|392:340,1,135,2|0,0:0|0:0,0:0:0:0:
248,324,118050,1,0,0:0:0:0:
192,280,118255,2,0,L|156:240,1,45
136,180,118666,1,0,0:0:0:0:
148,164,118769,1,0,0:0:0:0:
164,148,118871,1,0,0:0:0:0:
184,140,118974,1,0,0:0:0:0:
204,136,119077,6,0,P|283:142|325:187,1,135,4|0,0:0|0:0,0:0:0:0:
396,276,120310,2,0,P|316:269|274:224,1,135,2|0,0:0|0:0,0:0:0:0:
308,100,121337,2,0,L|308:52,1,45
244,28,121748,1,0,0:0:0:0:
176,16,121954,1,0,0:0:0:0:
108,28,122159,1,0,0:0:0:0:
44,56,122365,5,0,0:0:0:0:
44,56,122570,1,0,0:0:0:0:
44,56,122776,1,8,0:0:0:0:
92,152,122981,1,0,0:0:0:0:
92,152,123187,1,0,0:0:0:0:
92,152,123392,1,0,0:0:0:0:
200,152,123597,5,8,0:0:0:0:
200,152,123803,1,0,0:0:0:0:
200,152,124008,1,0,0:0:0:0:
248,56,124214,1,0,0:0:0:0:
288,176,124419,1,8,0:0:0:0:
320,56,124625,1,0,0:0:0:0:
356,196,124830,1,0,0:0:0:0:
392,56,125036,1,0,0:0:0:0:
424,216,125241,1,8,0:0:0:0:
464,56,125447,1,0,0:0:0:0:
492,236,125652,6,0,P|448:332|383:352,1,180,4|8,0:0|0:0,0:0:0:0:
129,352,126269,2,0,P|64:332|20:236,2,180
256,336,127296,5,0,0:0:0:0:
295,216,127502,1,2,0:0:0:0:
192,289,127707,1,2,0:0:0:0:
318,292,127913,1,0,0:0:0:0:
215,217,128118,1,2,0:0:0:0:
104,156,128324,1,2,0:0:0:0:
216,96,128529,1,0,0:0:0:0:
244,92,128632,1,0,0:0:0:0:
268,80,128734,1,0,0:0:0:0:
292,64,128837,1,0,0:0:0:0:
308,44,128940,6,0,P|372:112|468:136,1,180,4|8,0:0|0:0,0:0:0:0:
452,264,129556,2,0,P|370:288|306:356,1,180
204,264,130173,1,8,0:0:0:0:
328,212,130378,1,0,0:0:0:0:
352,196,130481,1,0,0:0:0:0:
368,172,130584,5,2,0:0:0:0:
372,144,130687,1,0,0:0:0:0:
364,120,130789,1,2,0:0:0:0:
268,52,130995,2,0,P|220:64|148:36,1,90,8|2,0:0|0:0,0:0:0:0:
72,12,131406,1,0,0:0:0:0:
52,16,131508,1,0,0:0:0:0:
32,28,131611,1,2,0:0:0:0:
16,44,131714,1,0,0:0:0:0:
8,64,131817,1,4,0:0:0:0:
40,264,132228,6,0,P|84:332|180:344,1,180,4|8,0:0|0:0,0:0:0:0:
335,345,132844,2,0,P|428:332|472:264,2,180
220,292,133871,5,0,0:0:0:0:
132,203,134077,1,2,0:0:0:0:
165,81,134282,1,2,0:0:0:0:
287,48,134488,1,0,0:0:0:0:
376,138,134693,1,0,0:0:0:0:
343,261,134899,1,2,0:0:0:0:
256,352,135104,1,10,0:0:0:0:
256,352,135207,1,0,0:0:0:0:
256,352,135310,6,0,P|156:320|160:256,1,180
408,76,136132,2,0,P|430:178|372:207,1,180
92,80,136954,2,0,P|168:8|232:56,2,180
96,208,137981,2,0,P|148:296|220:320,1,180,0|12,0:0|0:0,0:0:0:0:
420,324,138803,6,0,P|456:244|420:164,2,180,4|8|0,0:0|0:0|0:0,0:0:0:0:
92,324,140036,2,0,P|56:244|92:164,2,180,8|0|8,0:0|0:0|0:0,0:0:0:0:
256,192,141269,1,0,0:0:0:0:
420,60,141680,1,8,0:0:0:0:
420,60,141782,1,0,0:0:0:0:
420,60,141885,1,0,0:0:0:0:
420,60,141988,1,0,0:0:0:0:
420,60,142091,6,0,L|480:128,1,90,4|0,0:0|0:0,0:0:0:0:
424,212,142502,2,0,L|424:312,1,90,8|0,0:0|0:0,0:0:0:0:
328,332,142913,2,0,L|328:236,1,90
284,152,143324,2,0,L|224:64,1,90,8|0,0:0|0:0,0:0:0:0:
136,104,143734,6,0,L|24:60,1,90,4|0,0:0|0:0,0:0:0:0:
64,168,144145,2,0,P|24:204|4:268,1,90,8|0,0:0|0:0,0:0:0:0:
136,244,144556,1,0,0:0:0:0:
52,336,144762,1,0,0:0:0:0:
176,340,144967,1,8,0:0:0:0:
196,320,145070,1,0,0:0:0:0:
208,296,145173,1,0,0:0:0:0:
216,268,145276,1,0,0:0:0:0:
220,240,145378,1,4,0:0:0:0:
256,120,145584,5,0,0:0:0:0:
372,36,145789,2,0,L|324:116,1,90,8|0,0:0|0:0,0:0:0:0:
140,36,146200,2,0,L|188:116,1,90
292,240,146611,1,8,0:0:0:0:
296,268,146714,1,0,0:0:0:0:
304,296,146817,1,0,0:0:0:0:
316,320,146919,1,0,0:0:0:0:
336,340,147022,1,4,0:0:0:0:
428,252,147228,5,0,0:0:0:0:
448,100,147433,2,0,L|356:100,1,90,8|0,0:0|0:0,0:0:0:0:
156,8,147844,2,0,L|156:100,1,90
64,284,148255,2,0,L|164:284,1,90,8|0,0:0|0:0,0:0:0:0:
356,376,148666,6,0,B|356:296|356:296|368:288,1,90
384,276,148974,1,0,0:0:0:0:
408,264,149077,2,0,B|408:184|408:184|396:176,1,90,8|0,0:0|0:0,0:0:0:0:
380,164,149385,1,0,0:0:0:0:
352,164,149488,2,0,B|332:180|332:180|260:164,1,90
244,160,149796,1,0,0:0:0:0:
220,144,149899,2,0,L|220:100,3,45,8|0|0|0,0:0|0:0|0:0|0:0,0:0:0:0:
236,76,150310,5,0,0:0:0:0:
256,56,150413,1,0,0:0:0:0:
280,44,150515,1,0,0:0:0:0:
308,36,150618,1,0,0:0:0:0:
336,36,150721,1,8,0:0:0:0:
364,44,150824,1,0,0:0:0:0:
388,56,150926,1,0,0:0:0:0:
408,76,151029,1,0,0:0:0:0:
420,100,151132,1,0,0:0:0:0:
256,192,151234,12,4,151953,0:0:0:0:
80,102,153349,5,2,0:0:0:0:
136,156,153770,2,0,P|192:216|136:276,1,180,2|0,0:0|0:0,0:0:0:0:
68,108,155675,2,0,P|160:24|252:108,1,270,2|0,0:0|0:0,0:0:0:0:
272,264,157985,2,0,P|392:376|512:264,1,360,2|0,0:0|0:0,0:0:0:0:
256,192,161712,12,0,169893,0:0:0:0:
