osu file format v14

[General]
AudioFilename: Mirror_Mirror.mp3
AudioLeadIn: 0
PreviewTime: 20975
Countdown: 0
SampleSet: Normal
StackLeniency: 0.7
Mode: 0
LetterboxInBreaks: 0
WidescreenStoryboard: 0

[Editor]
Bookmarks: 77981,142707
DistanceSpacing: 1.3
BeatDivisor: 4
GridSize: 4
TimelineZoom: 1

[Metadata]
Title:Mirror Mirror (Featuring Casey Lee Williams)
TitleUnicode:Mirror Mirror (Featuring Casey Lee Williams)
Artist:Jeff Williams
ArtistUnicode:Jeff Williams
Creator:neonat
Version:Advanced
Source:RWBY
Tags:Ruby Weiss Schnee Red Black Yellow Monty Oum Jinxyjem Jinxy Rtyzen aplstepitaslast TestApple
BeatmapID:712985
BeatmapSetID:320418

[Difficulty]
HPDrainRate:3
CircleSize:3.2
OverallDifficulty:3
ApproachRate:5
SliderMultiplier:1.5
SliderTickRate:1

[Events]
//Background and Video events
Video,-4900,"Mirror_Mirror_Video.avi"
0,0,"RWBY_BG_Weiss.png",0,0
//Break Periods
2,45352,52124
2,91332,104726
//Storyboard Layer 0 (Background)
//Storyboard Layer 1 (Fail)
//Storyboard Layer 2 (Pass)
//Storyboard Layer 3 (Foreground)
//Storyboard Sound Samples

[TimingPoints]
21210,827.586206896552,4,2,1,30,1,0
21623,857.142857142857,4,2,1,30,1,0
23765,810.810810810811,4,2,1,30,1,0
24575,841.514726507714,4,2,1,30,1,0
25416,871.143375680581,4,2,1,30,1,0
28900,909.090909090909,4,2,1,30,1,0
29809,776.699029126214,4,2,1,30,1,0
30585,916.030534351145,4,2,1,30,1,0
31501,851.063829787234,4,2,1,30,1,0
36607,831.889081455806,4,2,1,30,1,0
39934,913.937547600914,4,2,1,30,1,0
41761,895.522388059701,4,2,1,30,1,0
42656,769.230769230769,4,2,1,30,1,0
43040,833.333333333333,4,2,1,30,1,0
43456,895.522388059701,4,2,1,30,1,0
43903,888.888888888889,4,2,1,30,1,0
44347,805.369127516779,4,2,1,30,1,0
45152,408.64860306644,4,2,1,30,1,0
53324,410.958904109589,4,1,0,40,1,0
79728,-100,4,2,0,35,0,0
79984,-100,4,3,0,40,0,0
80087,-100,4,2,0,20,0,0
80806,-100,4,3,0,40,0,0
80909,-100,4,2,0,20,0,0
81217,-100,4,3,0,40,0,0
81320,-100,4,2,0,35,0,0
81628,-100,4,3,0,40,0,0
81731,-100,4,2,0,20,0,0
82450,-100,4,3,0,40,0,0
82553,-100,4,2,0,20,0,0
82861,-100,4,3,0,40,0,0
82964,-100,4,2,0,35,0,0
83272,-100,4,3,0,40,0,0
83375,-100,4,2,0,20,0,0
84094,-100,4,3,0,40,0,0
84197,-100,4,2,0,20,0,0
84916,-100,4,3,0,40,0,0
85019,-100,4,2,0,20,0,0
85738,-100,4,3,0,40,0,0
85841,-100,4,2,0,20,0,0
86611,-100,4,3,0,40,0,0
86663,-100,4,2,0,20,0,0
87433,-100,4,3,0,40,0,0
87484,-100,4,2,0,20,0,0
87844,-100,4,3,0,40,0,0
105926,-200,4,2,0,5,0,0
106029,-200,4,2,1,30,0,0
112296,-100,4,1,0,40,0,0
122365,-100,4,1,0,50,0,0
125652,-100,4,1,0,50,0,1
151954,930.232558139535,4,2,1,30,1,0
153349,842.105263157895,4,2,1,30,1,0
153770,991.735537190083,4,2,1,30,1,0
154761,914.285714285714,4,2,1,30,1,0
155675,909.090909090909,4,2,1,30,1,0
157038,860.215053763441,4,2,1,30,1,0
157468,1034.48275862069,4,2,1,5,1,0
157985,1065.09505973408,4,2,1,30,1,0
160115,-100,4,2,1,5,0,0
161712,1363.63636363636,4,2,1,5,1,0

[Colours]
Combo1 : 255,255,0
Combo2 : 255,0,0
Combo3 : 225,225,225
Combo4 : 139,139,139

[HitObjects]
140,216,21210,6,0,P|156:248|216:284,1,75,2|0,0:0|0:0,0:0:0:0:
276,308,22051,1,0,0:0:0:0:
360,256,22480,1,0,0:0:0:0:
312,172,22908,2,0,L|340:16,1,150,2|0,0:0|0:0,0:0:0:0:
496,128,24575,6,0,L|469:275,1,150,2|0,0:0|0:0,0:0:0:0:
276,284,26287,2,0,P|208:280|120:284,2,150,0|0|2,0:0|0:0|0:0,0:0:0:0:
364,328,28465,5,0,0:0:0:0:
448,288,28900,2,0,P|476:236|476:192,1,75,0|0,0:0|0:0,0:0:0:0:
420,124,29809,2,0,P|320:112|248:136,1,150,2|0,0:0|0:0,0:0:0:0:
112,260,31501,6,0,L|84:112,1,150,2|0,0:0|0:0,0:0:0:0:
280,92,33203,2,0,L|372:100,1,75,0|0,0:0|0:0,0:0:0:0:
372,196,34054,2,0,L|276:188,1,75,0|0,0:0|0:0,0:0:0:0:
200,192,34905,6,0,P|164:232|180:348,1,150,2|0,0:0|0:0,0:0:0:0:
360,348,36607,2,0,P|396:308|380:192,1,150,2|0,0:0|0:0,0:0:0:0:
308,172,37854,1,0,0:0:0:0:
216,208,38270,6,0,L|60:204,1,150,2|0,0:0|0:0,0:0:0:0:
28,32,39934,1,2,0:0:0:0:
196,128,40847,1,0,0:0:0:0:
256,192,41761,12,2,45152,0:0:0:0:
360,240,53324,6,0,P|384:188|348:88,1,150,4|8,0:0|0:0,0:0:0:0:
176,164,54145,2,0,P|116:160|52:92,1,150,0|8,0:0|0:0,0:0:0:0:
148,64,54762,2,0,B|200:68|200:68|244:48|244:48|324:52,2,150,0|0|0,0:0|0:0|0:0,0:0:0:0:
54,99,55789,2,0,L|42:271,1,150,0|8,0:0|0:0,0:0:0:0:
236,292,56611,6,0,B|292:304|332:276|408:300,1,150,0|8,0:0|0:0,0:0:0:0:
476,328,57228,1,0,0:0:0:0:
464,232,57433,2,0,B|460:180|428:152|428:152|452:120|460:84,1,150,0|8,0:0|0:0,0:0:0:0:
380,36,58050,2,0,B|296:36|296:36|216:64,1,150,0|0,0:0|0:0,0:0:0:0:
224,156,58666,2,0,L|308:124,1,75,8|0,0:0|0:0,0:0:0:0:
380,172,59077,2,0,P|396:216|392:260,1,75,0|0,0:0|0:0,0:0:0:0:
332,316,59488,1,8,0:0:0:0:
236,328,59693,1,0,0:0:0:0:
148,284,59899,6,0,B|101:249|98:181|137:141|137:141|129:97|129:97|189:109|222:93,1,300,0|0,0:0|0:0,0:0:0:0:
372,220,61132,2,0,L|288:256,1,75,8|0,0:0|0:0,0:0:0:0:
352,336,61543,2,0,B|384:319|444:331|444:331|436:287|436:287|476:248|472:179|424:143,1,300,0|0,0:0|0:0,0:0:0:0:
264,256,62776,1,8,0:0:0:0:
244,60,63187,6,0,B|169:96|101:60|101:60|97:140|25:180|25:180|45:244|45:244|61:280|117:288|117:288|205:228|153:144,1,600,0|4,0:0|0:0,0:0:0:0:
260,152,65036,2,0,L|324:148,2,37.5,0|0|0,0:0|0:0|0:0,0:0:0:0:
312,236,65447,2,0,L|368:236,2,37.5,0|0|0,0:0|0:0|0:0,0:0:0:0:
248,308,65858,1,0,0:0:0:0:
152,300,66063,2,0,L|56:292,1,75,0|0,0:0|0:0,0:0:0:0:
8,224,66474,6,0,P|8:160|56:72,1,150,4|8,0:0|0:0,0:0:0:0:
144,96,67091,1,0,0:0:0:0:
240,120,67296,2,0,P|304:120|344:108,2,75,0|0|8,0:0|0:0|0:0,0:0:0:0:
268,28,67913,2,0,L|436:40,1,150,8|0,0:0|0:0,0:0:0:0:
480,224,68734,2,0,L|312:236,1,150
232,236,69351,2,0,P|226:199|234:162,1,75,8|0,0:0|0:0,0:0:0:0:
328,140,69762,6,0,B|407:134|407:134|492:72,1,150,0|8,0:0|0:0,0:0:0:0:
504,4,70378,1,0,0:0:0:0:
408,20,70584,2,0,B|356:36|312:4|244:32,1,150,0|8,0:0|0:0,0:0:0:0:
188,92,71200,2,0,P|116:100|28:60,1,150,8|0,0:0|0:0,0:0:0:0:
176,220,72022,2,0,P|248:212|336:252,1,150,0|0,0:0|0:0,0:0:0:0:
364,328,72639,2,0,P|404:292|416:268,1,75,8|0,0:0|0:0,0:0:0:0:
400,176,73050,6,0,B|384:100|384:100|412:28,1,150,4|8,0:0|0:0,0:0:0:0:
312,48,73666,1,0,0:0:0:0:
220,20,73871,2,0,P|168:16|60:24,1,150,0|8,0:0|0:0,0:0:0:0:
40,116,74488,1,0,0:0:0:0:
80,204,74693,2,0,P|88:256|40:364,2,150,0|8|0,0:0|0:0|0:0,0:0:0:0:
40,116,75721,1,0,0:0:0:0:
120,60,75926,2,0,L|220:60,1,75,8|0,0:0|0:0,0:0:0:0:
256,192,76337,12,0,78187,2:0:0:0:
96,144,79625,5,4,0:0:0:0:
96,48,79830,1,0,0:0:0:0:
192,28,80036,2,0,L|240:16,2,37.5,8|0|0,0:0|0:0|0:0,0:0:0:0:
196,124,80447,2,0,L|244:136,2,37.5,0|0|0,0:0|0:0|0:0,0:0:0:0:
164,216,80858,2,0,P|160:280|168:324,1,75,8|0,0:0|0:0,0:0:0:0:
244,344,81269,5,4,0:0:0:0:
316,280,81474,1,0,0:0:0:0:
316,184,81680,2,0,L|308:120,2,37.5,8|0|0,0:0|0:0|0:0,0:0:0:0:
412,184,82091,2,0,L|420:120,2,37.5,0|0|0,0:0|0:0|0:0,0:0:0:0:
416,280,82502,2,0,P|380:360|304:384,1,150,8|4,0:0|0:0,0:0:0:0:
236,348,83118,5,0,0:0:0:0:
140,332,83324,2,0,L|92:336,2,37.5,8|0|0,0:0|0:0|0:0,0:0:0:0:
208,260,83734,2,0,L|245:256,2,37.5,0|0|0,0:0|0:0|0:0,0:0:0:0:
124,212,84145,2,0,L|112:112,1,75,8|0,0:0|0:0,0:0:0:0:
184,72,84556,6,0,L|192:24,2,37.5,0|0|0,0:0|0:0|0:0,0:0:0:0:
248,144,84967,2,0,L|254:180,2,37.5,8|0|0,0:0|0:0|0:0,0:0:0:0:
288,56,85378,2,0,L|316:32,2,37.5,0|0|0,0:0|0:0|0:0,0:0:0:0:
344,136,85789,2,0,P|384:192|396:220,1,75,8|0,0:0|0:0,0:0:0:0:
352,288,86200,6,0,L|336:352,2,37.5,0|0|0,0:0|0:0|0:0,0:0:0:0:
256,300,86611,2,0,L|240:364,2,37.5,8|0|0,0:0|0:0|0:0,0:0:0:0:
252,204,87022,2,0,L|200:124,1,75,0|0,0:0|0:0,0:0:0:0:
120,108,87433,1,8,0:0:0:0:
72,192,87639,1,0,0:0:0:0:
92,288,87844,1,0,0:0:0:0:
256,192,87947,12,4,91132,0:0:0:0:
140,104,105926,6,0,P|128:152|152:260,1,150,4|0,0:0|0:0,0:0:0:0:
240,276,107159,1,0,0:0:0:0:
332,240,107570,2,0,P|344:192|320:84,1,150,0|0,0:0|0:0,0:0:0:0:
240,48,108803,1,0,0:0:0:0:
256,192,109214,12,4,112502,0:0:0:0:
38,82,113734,6,0,L|252:152,1,225
480,336,114967,1,0,0:0:0:0:
308,244,115378,1,0,0:0:0:0:
492,184,115789,6,0,P|504:110|388:28,2,225,4|0|2,0:0|0:0|0:0,0:0:0:0:
240,336,117639,2,0,P|145:286|144:179,1,225,0|0,0:0|0:0,0:0:0:0:
284,44,118666,1,0,0:0:0:0:
456,136,119077,6,0,P|472:204|456:312,1,150,4|0,0:0|0:0,0:0:0:0:
276,336,119899,2,0,P|260:268|276:160,1,150,0|2,0:0|0:0,0:0:0:0:
424,72,120721,1,0,0:0:0:0:
232,96,121132,1,0,0:0:0:0:
40,60,121543,1,0,0:0:0:0:
188,188,121954,1,0,0:0:0:0:
256,192,122365,12,4,125652,0:0:0:0:
200,72,126474,5,0,0:0:0:0:
136,256,126885,1,8,0:0:0:0:
220,308,127091,2,0,L|376:292,2,150
164,120,128324,1,0,0:0:0:0:
256,148,128529,2,0,L|356:136,1,75,8|0,0:0|0:0,0:0:0:0:
428,160,128940,6,0,P|460:216|440:320,1,150,4|8,0:0|0:0,0:0:0:0:
356,292,129556,2,0,P|300:276|196:308,1,150
72,160,130378,2,0,P|128:176|232:144,1,150
368,32,131200,1,0,0:0:0:0:
436,104,131406,2,0,L|440:204,1,75,0|0,0:0|0:0,0:0:0:0:
348,208,131817,2,0,L|340:304,1,75,12|0,0:0|0:0,0:0:0:0:
260,340,132228,6,0,P|212:360|96:340,1,150,4|8,0:0|0:0,0:0:0:0:
108,252,132844,2,0,L|152:104,1,150,0|0,0:0|0:0,0:0:0:0:
248,88,133460,1,8,0:0:0:0:
320,156,133666,2,0,P|372:176|480:140,1,150,0|0,0:0|0:0,0:0:0:0:
288,248,134488,2,0,P|236:228|128:264,1,150,0|0,0:0|0:0,0:0:0:0:
320,340,135310,6,0,P|364:312|372:208,1,150,0|0,0:0|0:0,0:0:0:0:
192,156,136132,2,0,P|148:184|140:288,1,150,0|0,0:0|0:0,0:0:0:0:
284,152,136954,2,0,L|336:0,2,150,0|0|0,0:0|0:0|0:0,0:0:0:0:
244,240,137981,2,0,P|240:296|252:344,1,75,0|0,0:0|0:0,0:0:0:0:
332,356,138392,2,0,P|335:318|330:281,1,75,8|0,0:0|0:0,0:0:0:0:
244,240,138803,6,0,P|184:240|88:192,1,150,4|8,0:0|0:0,0:0:0:0:
36,132,139419,2,0,L|72:308,1,150,0|0,0:0|0:0,0:0:0:0:
144,336,140036,2,0,P|196:356|320:332,1,150,8|0,0:0|0:0,0:0:0:0:
360,280,140652,2,0,L|329:133,1,150,0|0,0:0|0:0,0:0:0:0:
248,80,141269,2,0,L|168:80,1,75,0|0,0:0|0:0,0:0:0:0:
76,92,141680,2,0,L|24:44,2,37.5,8|0|0,0:0|0:0|0:0,0:0:0:0:
124,176,142091,6,0,P|140:216|96:336,1,150,4|8,0:0|0:0,0:0:0:0:
16,316,142707,2,0,P|0:276|44:156,1,150,0|0,0:0|0:0,0:0:0:0:
124,176,143324,2,0,P|192:184|280:176,1,150,8|0,0:0|0:0,0:0:0:0:
316,88,143940,2,0,P|384:80|472:88,1,150,0|0,0:0|0:0,0:0:0:0:
496,180,144556,2,0,L|472:264,1,75,0|0,0:0|0:0,0:0:0:0:
376,248,144967,2,0,L|360:204,2,37.5,8|0|0,0:0|0:0|0:0,0:0:0:0:
360,344,145378,6,0,B|288:372|288:372|212:356,1,150,4|8,0:0|0:0,0:0:0:0:
152,284,145995,2,0,B|148:224|148:224|196:136,1,150
288,128,146611,1,8,0:0:0:0:
472,188,147022,1,0,0:0:0:0:
396,8,147433,1,8,0:0:0:0:
364,200,147844,1,0,0:0:0:0:
216,76,148255,2,0,L|144:132,1,75,8|0,0:0|0:0,0:0:0:0:
256,192,148666,12,6,151954,0:0:0:0:
176,92,153349,5,2,0:0:0:0:
112,148,153770,2,0,P|104:184|144:304,1,150,2|2,0:0|0:0,0:0:0:0:
328,268,155675,6,0,P|336:232|240:76,1,225,2|0,0:0|0:0,0:0:0:0:
168,112,157468,1,2,0:0:0:0:
80,116,157985,2,0,B|104:184|104:184|80:252|80:252|172:260|204:368,1,300,2|0,0:0|0:0,0:0:0:0:
256,192,161712,12,0,169893,0:0:0:0:
