osu file format v14

[General]
AudioFilename: audio.mp3
AudioLeadIn: 0
PreviewTime: 44258
Countdown: 0
SampleSet: Soft
StackLeniency: 0.5
Mode: 0
LetterboxInBreaks: 0
EpilepsyWarning: 1
WidescreenStoryboard: 1

[Editor]
Bookmarks: 285,10390,19232,24285,34232,44337,54442,64548,74811,84916,93758,98811,108758,118863,128969,139074,149179,161811,164337,171916,182021,189600,192127
DistanceSpacing: 1
BeatDivisor: 4
GridSize: 16
TimelineZoom: 1.8

[Metadata]
Title:Die (feat. Casey Lee Williams)
TitleUnicode:Die (feat. Casey Lee Williams)
Artist:Jeff Williams
ArtistUnicode:Jeff Williams
Creator:Ohwow
Version:Normal
Source:RWBY
Tags:rooster teeth ruby rose weiss schnee yang xiao long blake belladonna red white black yellow monty oum
BeatmapID:1461034
BeatmapSetID:690319

[Difficulty]
HPDrainRate:4
CircleSize:3.6
OverallDifficulty:4
ApproachRate:5
SliderMultiplier:1.1
SliderTickRate:1

[Events]
//Background and Video events
0,0,"bg.jpg",0,0
//Break Periods
2,75011,83716
2,116537,117663
2,139274,147979
//Storyboard Layer 0 (Background)
//Storyboard Layer 1 (Fail)
//Storyboard Layer 2 (Pass)
//Storyboard Layer 3 (Foreground)
//Storyboard Sound Samples

[TimingPoints]
285,315.789473684211,4,2,1,70,1,0
44337,-100,4,2,1,80,0,1
64548,-100,4,2,1,70,0,0
128969,-100,4,2,1,80,0,1
139074,-100,4,2,1,70,0,0
161811,-100,4,2,1,5,0,0
164337,-100,4,2,1,80,0,1
182021,-100,4,2,1,70,0,0

[Colours]
Combo1 : 134,0,185
Combo2 : 182,196,228
Combo3 : 191,0,0
Combo4 : 218,236,0

[HitObjects]
111,61,285,6,0,P|161:41|214:51,1,110,10|2,0:0|0:0,0:0:0:0:
304,116,916,2,0,P|357:126|408:106,1,110,2|2,0:0|0:0,0:0:0:0:
457,81,1390,1,0,0:0:0:0:
457,81,1548,2,0,L|469:204,1,110,2|2,0:0|0:0,0:0:0:0:
506,293,2179,2,0,L|383:281,1,110,2|2,0:0|0:0,0:0:0:0:
372,332,2653,1,0,0:0:0:0:
372,332,2811,6,0,P|294:351|252:336,1,110,2|2,0:0|0:0,0:0:0:0:
160,315,3442,2,0,P|106:307|55:326,1,110,2|2,0:0|0:0,0:0:0:0:
96,224,4074,2,0,B|114:184|114:184|103:99,1,110,2|2,0:0|0:0,0:0:0:0:
123,65,4548,2,0,P|169:36|227:42,1,110,0|0,0:0|0:0,0:0:0:0:
269,71,5021,1,2,0:0:0:0:
263,181,5337,6,0,L|275:290,1,110,10|2,0:0|0:0,0:0:0:0:
365,226,5969,2,0,L|378:110,1,110,2|2,0:0|0:0,0:0:0:0:
382,61,6442,1,0,0:0:0:0:
382,61,6600,2,0,P|324:31|261:44,1,110,2|2,0:0|0:0,0:0:0:0:
209,119,7232,2,0,P|162:146|108:145,1,110,2|2,0:0|0:0,0:0:0:0:
54,133,7706,1,8,0:0:0:0:
54,133,7863,6,0,P|26:179|27:233,1,110,10|2,0:0|0:0,0:0:0:0:
117,297,8495,2,0,L|238:288,1,110,2|2,0:0|0:0,0:0:0:0:
319,349,9127,1,10,0:0:0:0:
419,299,9442,1,2,0:0:0:0:
425,187,9758,2,0,L|445:117,2,55,10|0|10,0:0|0:0|0:0,0:0:0:0:
336,252,10390,6,0,L|211:243,1,110,6|8,0:0|0:0,0:0:0:0:
171,243,10863,2,0,P|134:278|54:288,1,110,0|2,0:0|0:0,0:0:0:0:
81,181,11495,2,0,B|104:126|104:126|94:21,1,165,0|8,0:0|0:0,0:0:0:0:
143,48,12127,2,0,P|196:56|256:38,1,110,2|2,0:0|0:0,0:0:0:0:
355,15,12758,6,0,B|333:67|333:67|364:113|359:175,1,165,2|8,0:0|0:0,0:0:0:0:
406,200,13390,2,0,P|433:251|430:308,1,110,0|2,0:0|0:0,0:0:0:0:
328,333,14021,2,0,L|200:318,1,110,0|2,0:0|0:0,0:0:0:0:
185,214,14653,2,0,L|294:226,1,110,2|2,0:0|0:0,0:0:0:0:
351,132,15285,1,2,0:0:0:0:
351,132,15442,6,0,L|223:117,1,110,6|8,0:0|0:0,0:0:0:0:
204,77,15916,2,0,P|158:56|83:67,1,110,2|2,0:0|0:0,0:0:0:0:
27,144,16548,2,0,L|40:269,1,110,2|2,0:0|0:0,0:0:0:0:
143,220,17179,2,0,L|156:345,1,110,2|2,0:0|0:0,0:0:0:0:
262,307,17811,6,0,P|311:280|379:292,1,110,2|2,0:0|0:0,0:0:0:0:
413,307,18285,1,8,0:0:0:0:
413,307,18442,2,0,L|443:192,1,110,2|2,0:0|0:0,0:0:0:0:
456,147,18916,1,8,0:0:0:0:
374,73,19232,5,4,0:0:0:0:
238,223,20495,1,0,0:0:0:0:
420,316,21758,6,0,L|294:306,1,110,8|2,0:0|0:0,0:0:0:0:
264,336,22232,2,0,L|138:326,1,110,8|2,0:0|0:0,0:0:0:0:
108,356,22706,1,8,0:0:0:0:
72,252,23021,2,0,B|-7:235|-26:123|52:86|52:86|105:120|173:100,1,330,8|8,0:0|0:0,0:0:0:0:
233,23,24285,6,0,P|287:10|340:20,1,110,6|8,0:0|0:0,0:0:0:0:
420,94,24916,2,0,L|494:86,2,55,2|0|8,0:0|0:0|0:0,0:0:0:0:
414,204,25548,2,0,B|443:246|443:246|445:304,1,110,0|8,0:0|0:0,0:0:0:0:
338,333,26179,2,0,B|308:290|308:290|306:232,1,110,2|8,0:0|0:0,0:0:0:0:
271,190,26653,6,0,P|261:151|189:107,1,110,6|2,0:0|0:0,0:0:0:0:
152,112,27127,1,8,0:0:0:0:
70,185,27442,2,0,L|15:181,2,55,2|2|8,0:0|0:0|0:0,0:0:0:0:
101,290,28074,2,0,L|210:283,1,110,0|8,0:0|0:0,0:0:0:0:
299,349,28706,2,0,P|349:371|420:353,1,110,2|8,0:0|0:0,0:0:0:0:
439,322,29179,6,0,P|433:268|400:225,1,110,6|2,0:0|0:0,0:0:0:0:
348,209,29653,1,8,0:0:0:0:
407,116,29969,2,0,L|484:108,2,55,2|2|8,0:0|0:0|0:0,0:0:0:0:
358,90,30442,2,0,L|248:78,1,110,2|2,0:0|0:0,0:0:0:0:
157,18,31074,2,0,P|110:46|56:51,1,110,2|2,0:0|0:0,0:0:0:0:
133,130,31706,6,0,P|161:176|166:230,1,110,6|2,0:0|0:0,0:0:0:0:
157,285,32179,1,8,0:0:0:0:
262,317,32495,2,0,L|269:381,2,55,2|2|8,0:0|0:0|0:0,0:0:0:0:
248,207,33127,1,2,0:0:0:0:
337,140,33442,1,8,0:0:0:0:
439,183,33758,2,0,L|427:292,1,110,2|8,0:0|0:0,0:0:0:0:
396,338,34232,6,0,P|348:318|269:324,1,110,6|2,0:0|0:0,0:0:0:0:
239,339,34706,1,8,0:0:0:0:
154,268,35021,2,0,B|169:229|169:229|160:161,1,110,2|8,0:0|0:0,0:0:0:0:
138,110,35495,2,0,P|92:95|31:119,1,110,2|2,0:0|0:0,0:0:0:0:
14,165,35969,1,8,0:0:0:0:
14,165,36127,2,0,B|27:274,1,110,2|2,0:0|0:0,0:0:0:0:
113,343,36758,6,0,P|161:318|216:320,1,110,6|2,0:0|0:0,0:0:0:0:
266,343,37232,1,8,0:0:0:0:
266,343,37390,2,0,P|320:344|369:320,1,110,0|2,0:0|0:0,0:0:0:0:
397,273,37863,1,8,0:0:0:0:
339,179,38179,2,0,L|346:124,2,55,2|2|8,0:0|0:0|0:0,0:0:0:0:
296,214,38653,1,2,0:0:0:0:
296,214,38811,2,0,L|187:199,1,110,2|8,0:0|0:0,0:0:0:0:
135,176,39285,6,0,P|87:199|32:198,2,110,6|2|2,0:0|0:0|0:0,0:0:0:0:
184,77,40232,1,2,0:0:0:0:
292,94,40548,1,2,0:0:0:0:
292,94,40706,2,0,L|400:110,1,110,8|8,0:0|0:0,0:0:0:0:
471,195,41337,2,0,L|362:211,1,110,8|8,0:0|0:0,0:0:0:0:
306,221,41811,6,0,P|324:282|307:331,1,110,6|2,0:0|0:0,0:0:0:0:
201,325,42442,2,0,P|187:273|205:221,1,110,2|2,0:0|0:0,0:0:0:0:
256,124,43074,1,2,0:0:0:0:
256,124,43232,2,0,L|145:112,1,110,8|8,0:0|0:0,0:0:0:0:
57,177,43863,2,0,L|1:171,2,55,12|12|12,0:0|0:0|0:0,0:0:0:0:
106,198,44337,6,0,P|129:252|122:307,1,110,6|2,0:0|0:0,0:0:0:0:
102,354,44811,1,8,0:0:0:0:
211,359,45127,2,0,B|246:343|246:343|340:347,1,110,2|8,0:0|0:0,0:0:0:0:
427,350,45758,2,0,L|481:352,2,55,2|2|8,0:0|0:0|0:0,0:0:0:0:
399,301,46232,2,0,L|403:191,1,110,2|2,0:0|0:0,0:0:0:0:
467,101,46863,6,0,P|416:80|362:87,1,110,6|2,0:0|0:0,0:0:0:0:
316,118,47337,1,8,0:0:0:0:
274,220,47653,2,0,B|239:204|239:204|145:208,1,110,2|8,0:0|0:0,0:0:0:0:
75,148,48285,2,0,L|20:150,2,55,2|2|8,0:0|0:0|0:0,0:0:0:0:
93,96,48758,2,0,P|141:71|195:73,1,110,2|2,0:0|0:0,0:0:0:0:
294,122,49390,6,0,L|403:126,1,110,6|2,0:0|0:0,0:0:0:0:
450,97,49863,1,8,0:0:0:0:
498,195,50179,2,0,P|508:248|483:296,1,110,2|8,0:0|0:0,0:0:0:0:
375,273,50811,2,0,P|325:256|253:270,1,110,2|8,0:0|0:0,0:0:0:0:
231,303,51285,2,0,P|176:309|125:292,1,110,0|2,0:0|0:0,0:0:0:0:
56,206,51916,6,0,B|91:184|91:184|106:117,1,110,6|2,0:0|0:0,0:0:0:0:
119,63,52390,1,8,0:0:0:0:
229,61,52706,2,0,B|241:7,2,55,2|2|8,0:0|0:0|0:0,0:0:0:0:
217,114,53179,1,8,0:0:0:0:
217,114,53337,2,0,B|237:183|186:241|186:241|260:292|335:241,1,275,2|2,0:0|0:0,0:0:0:0:
373,158,54442,6,0,P|412:200|423:273,1,110,6|2,0:0|0:0,0:0:0:0:
413,304,54916,1,8,0:0:0:0:
317,358,55232,1,8,0:0:0:0:
264,261,55548,1,8,0:0:0:0:
168,315,55863,2,0,L|164:369,2,55,8|2|8,0:0|0:0|0:0,0:0:0:0:
120,286,56337,2,0,P|83:246|72:192,1,110,2|2,0:0|0:0,0:0:0:0:
64,83,56969,6,0,L|180:74,1,110,6|2,0:0|0:0,0:0:0:0:
227,62,57442,1,8,0:0:0:0:
319,121,57758,1,8,0:0:0:0:
242,199,58074,1,8,0:0:0:0:
334,258,58390,2,0,L|389:254,2,55,8|2|8,0:0|0:0|0:0,0:0:0:0:
310,307,58863,2,0,L|201:314,1,110,2|2,0:0|0:0,0:0:0:0:
111,379,59495,5,6,0:0:0:0:
46,290,59811,1,2,0:0:0:0:
135,225,60127,2,0,P|144:198|136:119,1,110,2|2,0:0|0:0,0:0:0:0:
61,37,60758,1,2,0:0:0:0:
168,12,61074,1,2,0:0:0:0:
242,93,61390,2,0,L|365:76,1,110,2|2,0:0|0:0,0:0:0:0:
439,143,62021,6,0,P|433:221|344:269,1,165,6|8,0:0|0:0,0:0:0:0:
284,195,62811,1,8,0:0:0:0:
211,278,63127,1,8,0:0:0:0:
128,205,63442,2,0,B|147:164|147:164|138:78,1,110,8|8,0:0|0:0,0:0:0:0:
61,21,64074,2,0,L|172:17,1,110,8|8,0:0|0:0,0:0:0:0:
226,16,64548,5,6,0:0:0:0:
266,118,64863,1,0,0:0:0:0:
266,118,65021,2,0,L|276:229,1,110,8|8,0:0|0:0,0:0:0:0:
234,329,65653,1,8,0:0:0:0:
343,316,65969,2,0,L|454:306,1,110,8|8,0:0|0:0,0:0:0:0:
458,196,66600,2,0,L|513:201,2,55,8|8|8,0:0|0:0|0:0,0:0:0:0:
403,189,67074,5,6,0:0:0:0:
330,105,67390,1,2,0:0:0:0:
330,105,67548,2,0,L|220:114,1,110,8|8,0:0|0:0,0:0:0:0:
131,49,68179,1,8,0:0:0:0:
81,147,68495,2,0,L|72:257,1,110,8|8,0:0|0:0,0:0:0:0:
54,366,69127,2,0,L|0:364,2,55,8|8|0,0:0|0:0|0:0,0:0:0:0:
107,369,69600,5,6,0:0:0:0:
197,305,69916,1,2,0:0:0:0:
197,305,70074,2,0,P|218:255|214:201,1,110,8|8,0:0|0:0,0:0:0:0:
191,93,70706,1,8,0:0:0:0:
290,139,71021,2,0,P|344:142|394:121,1,110,8|8,0:0|0:0,0:0:0:0:
498,83,71653,2,0,L|511:20,2,55,8|8|8,0:0|0:0|0:0,0:0:0:0:
487,137,72127,1,8,0:0:0:0:
486,137,72285,6,0,P|466:187|476:240,1,110,12|2,0:0|0:0,0:0:0:0:
464,349,72916,2,0,P|430:306|379:288,1,110,12|2,0:0|0:0,0:0:0:0:
291,223,73548,2,0,P|344:215|385:180,1,110,12|2,0:0|0:0,0:0:0:0:
298,112,74179,2,0,L|225:102,1,55,12|8,0:0|0:0,0:0:0:0:
197,135,74495,2,0,L|124:125,1,55,8|8,0:0|0:0,0:0:0:0:
96,158,74811,5,12,0:0:0:0:
214,111,84916,6,0,B|287:113|287:113|332:89,1,110,6|8,0:0|0:0,0:0:0:0:
358,56,85390,2,0,P|391:42|461:64,1,110,2|2,0:0|0:0,0:0:0:0:
400,155,86021,2,0,B|393:182|379:207|379:207|376:260|413:323,1,165,2|8,0:0|0:0,0:0:0:0:
427,362,86653,2,0,P|375:343|321:343,1,110,2|2,0:0|0:0,0:0:0:0:
236,271,87285,6,0,B|221:250|220:222|220:222|241:193|246:152|232:114,1,165,2|8,0:0|0:0,0:0:0:0:
198,72,87916,2,0,P|143:50|77:62,1,110,2|2,0:0|0:0,0:0:0:0:
22,140,88548,2,0,L|130:157,1,110,2|2,0:0|0:0,0:0:0:0:
181,254,89179,2,0,L|72:236,1,110,2|2,0:0|0:0,0:0:0:0:
4,323,89811,1,2,0:0:0:0:
4,323,89969,6,0,L|112:340,1,110,6|8,0:0|0:0,0:0:0:0:
166,350,90442,2,0,P|215:324|269:323,1,110,2|2,0:0|0:0,0:0:0:0:
378,338,91074,2,0,L|365:213,1,110,2|2,0:0|0:0,0:0:0:0:
476,235,91705,2,0,L|463:110,1,110,2|2,0:0|0:0,0:0:0:0:
360,87,92337,6,0,P|305:90|258:64,1,110,2|2,0:0|0:0,0:0:0:0:
220,23,92811,1,8,0:0:0:0:
220,23,92969,2,0,L|103:37,1,110,2|2,0:0|0:0,0:0:0:0:
56,45,93442,1,8,0:0:0:0:
15,147,93758,5,6,0:0:0:0:
217,245,95021,1,0,0:0:0:0:
42,372,96285,6,0,L|32:246,1,110,8|2,0:0|0:0,0:0:0:0:
62,216,96759,2,0,L|52:90,1,110,8|2,0:0|0:0,0:0:0:0:
82,60,97233,1,8,0:0:0:0:
163,133,97548,2,0,P|226:138|278:104,1,110,8|2,0:0|0:0,0:0:0:0:
299,73,98021,1,2,0:0:0:0:
299,73,98179,2,0,L|292:10,2,55,2|2|8,0:0|0:0|0:0,0:0:0:0:
358,165,98811,6,0,L|345:274,1,110,6|8,0:0|0:0,0:0:0:0:
236,287,99442,2,0,L|181:296,2,55,2|2|8,0:0|0:0|0:0,0:0:0:0:
245,177,100074,2,0,L|136:196,1,110,0|8,0:0|0:0,0:0:0:0:
46,259,100706,2,0,P|35:312|55:362,1,110,2|8,0:0|0:0,0:0:0:0:
109,373,101179,6,0,B|161:355|161:355|237:364,1,110,6|2,0:0|0:0,0:0:0:0:
269,372,101653,1,8,0:0:0:0:
361,312,101969,2,0,B|415:305,2,55,2|2|8,0:0|0:0|0:0,0:0:0:0:
263,260,102600,2,0,P|239:211|246:157,1,110,0|8,0:0|0:0,0:0:0:0:
336,92,103232,2,0,B|445:106,1,110,2|8,0:0|0:0,0:0:0:0:
486,151,103706,5,6,0:0:0:0:
486,151,103863,2,0,B|472:260,1,110,0|8,0:0|0:0,0:0:0:0:
384,326,104495,2,0,B|391:380,2,55,2|2|8,0:0|0:0|0:0,0:0:0:0:
376,271,104969,2,0,B|267:257,1,110,2|2,0:0|0:0,0:0:0:0:
164,297,105600,2,0,P|158:240|180:189,1,110,0|2,0:0|0:0,0:0:0:0:
287,175,106232,6,0,B|396:161,1,110,6|2,0:0|0:0,0:0:0:0:
431,118,106706,1,8,0:0:0:0:
341,54,107021,2,0,B|334:0,2,55,2|2|8,0:0|0:0|0:0,0:0:0:0:
245,108,107653,1,2,0:0:0:0:
154,45,107969,1,8,0:0:0:0:
87,132,108285,2,0,B|101:241,1,110,2|8,0:0|0:0,0:0:0:0:
87,294,108758,6,0,P|137:272|192:276,1,110,6|2,0:0|0:0,0:0:0:0:
243,298,109232,1,8,0:0:0:0:
323,372,109548,2,0,P|377:376|427:354,1,110,2|8,0:0|0:0,0:0:0:0:
460,310,110021,2,0,L|449:180,1,110,2|2,0:0|0:0,0:0:0:0:
361,135,110653,2,0,L|351:244,1,110,0|2,0:0|0:0,0:0:0:0:
246,277,111285,6,0,B|225:242|225:242|138:227,1,110,6|2,0:0|0:0,0:0:0:0:
102,225,111758,1,8,0:0:0:0:
102,225,111916,2,0,P|77:183|86:109,1,110,0|2,0:0|0:0,0:0:0:0:
119,85,112390,1,8,0:0:0:0:
229,83,112706,2,0,L|232:28,2,55,2|2|8,0:0|0:0|0:0,0:0:0:0:
261,127,113179,1,2,0:0:0:0:
261,127,113337,2,0,L|370:119,1,110,2|8,0:0|0:0,0:0:0:0:
419,92,113811,6,0,L|411:201,2,110,6|0|2,0:0|0:0|0:0,0:0:0:0:
479,0,114758,1,2,0:0:0:0:
368,1,115074,1,2,0:0:0:0:
368,1,115232,2,0,P|325:35|271:46,1,110,8|8,0:0|0:0,0:0:0:0:
162,32,115863,2,0,P|108:42|65:76,1,110,8|8,0:0|0:0,0:0:0:0:
43,126,116337,1,6,0:0:0:0:
26,48,118863,6,0,B|80:41|80:41|135:48|135:48|189:41,1,165,6|8,0:0|0:0,0:0:0:0:
243,137,119653,2,0,L|133:150,1,110,2|8,0:0|0:0,0:0:0:0:
28,183,120285,2,0,P|11:234|27:286,1,110,2|8,0:0|0:0,0:0:0:0:
116,352,120916,2,0,B|167:332|167:332|222:336,1,110,2|8,0:0|0:0,0:0:0:0:
308,267,121548,6,0,B|390:273,2,82.5,2|0|2,0:0|0:0|0:0,0:0:0:0:
285,216,122179,2,0,B|202:209,2,82.5,2|0|2,0:0|0:0|0:0,0:0:0:0:
318,171,122811,2,0,B|343:134|343:134|337:49,1,110,0|8,0:0|0:0,0:0:0:0:
442,36,123442,2,0,B|449:146,1,110,2|8,0:0|0:0,0:0:0:0:
422,193,123916,6,0,B|397:230|397:230|401:295,1,110,6|2,0:0|0:0,0:0:0:0:
407,350,124390,1,8,0:0:0:0:
305,306,124706,2,0,B|300:240,2,55,2|2|8,0:0|0:0|0:0,0:0:0:0:
313,360,125179,1,2,0:0:0:0:
313,360,125337,2,0,B|281:358|256:368|256:368|228:355|188:356,1,110,2|8,0:0|0:0,0:0:0:0:
95,360,125969,2,0,L|35:377,2,55,2|2|8,0:0|0:0|0:0,0:0:0:0:
118,310,126442,6,0,B|130:276|130:276|118:242|118:203,1,110,6|2,0:0|0:0,0:0:0:0:
133,149,126916,1,8,0:0:0:0:
218,80,127232,2,0,L|276:88,1,55,2|2,0:0|0:0,0:0:0:0:
311,126,127548,2,0,L|369:118,1,55,8|2,0:0|0:0,0:0:0:0:
408,84,127863,2,0,L|423:192,1,110,0|2,0:0|0:0,0:0:0:0:
495,278,128495,2,0,P|445:301|391:299,1,110,2|2,0:0|0:0,0:0:0:0:
337,309,128969,5,6,0:0:0:0:
277,215,129285,1,2,0:0:0:0:
277,215,129442,2,0,P|288:161|274:106,1,110,8|8,0:0|0:0,0:0:0:0:
179,53,130074,1,8,0:0:0:0:
122,147,130390,2,0,L|2:162,1,110,8|8,0:0|0:0,0:0:0:0:
62,258,131021,2,0,L|182:273,1,110,8|8,0:0|0:0,0:0:0:0:
226,278,131495,1,2,0:0:0:0:
226,278,131653,6,0,P|258:242|337:235,1,110,12|8,0:0|0:0,0:0:0:0:
426,234,132285,2,0,P|462:202|469:123,1,110,8|8,0:0|0:0,0:0:0:0:
395,66,132916,2,0,L|405:-11,2,55,8|0|8,0:0|0:0|0:0,0:0:0:0:
385,120,133390,1,0,0:0:0:0:
385,120,133548,1,8,0:0:0:0:
274,119,133863,6,0,P|223:99|170:109,1,110,12|8,0:0|0:0,0:0:0:0:
129,212,134495,2,0,P|179:192|232:202,1,110,12|8,0:0|0:0,0:0:0:0:
274,305,135127,2,0,P|223:285|170:295,1,110,12|8,0:0|0:0,0:0:0:0:
127,329,135600,1,2,0:0:0:0:
127,329,135758,2,0,L|113:213,1,110,8|8,0:0|0:0,0:0:0:0:
44,134,136390,1,8,0:0:0:0:
127,61,136706,6,0,P|170:92|229:86,1,110,12|8,0:0|0:0,0:0:0:0:
271,58,137179,1,2,0:0:0:0:
271,58,137337,2,0,P|314:89|373:83,1,110,12|8,0:0|0:0,0:0:0:0:
415,55,137811,1,2,0:0:0:0:
415,55,137969,2,0,L|432:168,1,110,12|8,0:0|0:0,0:0:0:0:
449,272,138600,2,0,L|505:263,2,55,8|8|8,0:0|0:0|0:0,0:0:0:0:
394,282,139074,5,12,0:0:0:0:
110,61,149179,6,0,L|118:196,1,110,2|2,0:0|0:0,0:0:0:0:
120,226,149653,1,8,0:0:0:0:
79,328,149969,2,0,L|24:331,2,55,2|2|8,0:0|0:0|0:0,0:0:0:0:
133,325,150442,2,0,P|181:348|234:338,1,110,2|2,0:0|0:0,0:0:0:0:
276,302,150916,1,8,0:0:0:0:
311,197,151232,2,0,P|331:179|357:169,2,55,2|2|8,0:0|0:0|0:0,0:0:0:0:
255,195,151706,6,0,B|232:163|232:163|238:91,1,110,2|2,0:0|0:0,0:0:0:0:
242,37,152179,1,8,0:0:0:0:
348,64,152495,2,0,P|387:53|462:81,1,110,2|8,0:0|0:0,0:0:0:0:
479,120,152969,1,2,0:0:0:0:
479,120,153127,2,0,P|459:170|470:223,1,110,0|8,0:0|0:0,0:0:0:0:
441,330,153758,2,0,P|411:340|366:336,1,55,2|2,0:0|0:0,0:0:0:0:
333,331,154074,1,8,0:0:0:0:
234,281,154390,6,0,L|158:295,2,55,2|2|8,0:0|0:0|0:0,0:0:0:0:
298,192,155021,2,0,L|352:182,2,55,2|2|8,0:0|0:0|0:0,0:0:0:0:
191,163,155653,2,0,L|115:177,2,55,2|2|8,0:0|0:0|0:0,0:0:0:0:
255,74,156284,2,0,L|309:64,2,55,2|2|8,0:0|0:0|0:0,0:0:0:0:
205,50,156758,5,6,0:0:0:0:
256,192,156916,12,0,161811,0:0:0:0:
204,50,164337,6,0,P|251:22|306:24,1,110,6|2,0:0|0:0,0:0:0:0:
354,50,164811,1,8,0:0:0:0:
282,133,165127,2,0,B|274:175|274:175|289:246,1,110,2|8,0:0|0:0,0:0:0:0:
370,313,165758,2,0,B|423:301,2,55,2|2|8,0:0|0:0|0:0,0:0:0:0:
332,354,166232,2,0,P|278:343|225:355,1,110,2|2,0:0|0:0,0:0:0:0:
115,362,166863,6,0,P|127:308|116:255,1,110,6|2,0:0|0:0,0:0:0:0:
82,211,167337,1,8,0:0:0:0:
165,139,167653,2,0,L|274:128,1,110,2|8,0:0|0:0,0:0:0:0:
320,227,168285,2,0,P|358:266|412:271,1,110,2|8,0:0|0:0,0:0:0:0:
457,240,168758,2,0,P|471:188|449:139,1,110,0|0,0:0|0:0,0:0:0:0:
369,62,169390,6,0,B|337:83|337:83|252:76,1,110,6|2,0:0|0:0,0:0:0:0:
210,72,169863,1,8,0:0:0:0:
118,133,170179,2,0,B|63:137,2,55,0|2|8,0:0|0:0|0:0,0:0:0:0:
164,163,170653,1,8,0:0:0:0:
164,163,170811,2,0,B|215:211|201:289|201:289|262:247|332:263,1,275,8|2,0:0|0:0,0:0:0:0:
421,329,171916,6,0,P|378:363|325:372,1,110,6|2,0:0|0:0,0:0:0:0:
270,361,172390,1,8,0:0:0:0:
221,262,172706,1,8,0:0:0:0:
120,306,173021,1,8,0:0:0:0:
71,207,173337,2,0,L|-3:197,2,55,8|2|8,0:0|0:0|0:0,0:0:0:0:
105,163,173811,2,0,P|152:136|207:139,1,110,2|2,0:0|0:0,0:0:0:0:
304,190,174442,6,0,B|330:159|330:159|323:89,1,110,6|2,0:0|0:0,0:0:0:0:
316,34,174916,1,8,0:0:0:0:
207,13,175232,1,8,0:0:0:0:
228,121,175548,1,8,0:0:0:0:
119,100,175863,2,0,L|43:87,2,55,8|2|8,0:0|0:0|0:0,0:0:0:0:
121,155,176337,2,0,L|128:282,1,110,2|2,0:0|0:0,0:0:0:0:
211,336,176969,5,6,0:0:0:0:
257,236,177285,1,2,0:0:0:0:
333,315,177600,2,0,L|457:296,1,110,2|2,0:0|0:0,0:0:0:0:
506,208,178232,1,2,0:0:0:0:
460,108,178548,1,2,0:0:0:0:
384,187,178863,2,0,P|355:140|354:82,1,110,0|0,0:0|0:0,0:0:0:0:
259,27,179495,6,0,B|202:16|154:47|154:47|147:79|125:93,1,165,2|8,0:0|0:0,0:0:0:0:
25,139,180285,1,8,0:0:0:0:
72,239,180600,1,8,0:0:0:0:
172,192,180916,2,0,P|220:176|279:184,1,110,8|8,0:0|0:0,0:0:0:0:
365,251,181548,2,0,L|377:139,1,110,8|8,0:0|0:0,0:0:0:0:
384,87,182021,6,0,B|355:54|305:56|305:56|270:73|229:58,1,165,6|8,0:0|0:0,0:0:0:0:
139,121,182811,2,0,L|143:234,1,110,8|8,0:0|0:0,0:0:0:0:
146,340,183442,1,8,0:0:0:0:
240,284,183758,1,8,0:0:0:0:
338,338,184074,2,0,L|401:373,2,55,8|8|8,0:0|0:0|0:0,0:0:0:0:
334,282,184548,6,0,B|354:241|402:229|402:229|430:201|418:158,1,165,6|8,0:0|0:0,0:0:0:0:
361,64,185337,2,0,P|311:47|256:56,1,110,8|8,0:0|0:0,0:0:0:0:
180,136,185969,1,8,0:0:0:0:
98,62,186285,1,8,0:0:0:0:
54,162,186600,2,0,L|0:172,2,55,8|8|2,0:0|0:0|0:0,0:0:0:0:
104,183,187074,6,0,B|123:204|126:233|126:233|113:287|113:287|118:316|141:331,1,165,6|8,0:0|0:0,0:0:0:0:
248,353,187863,2,0,P|299:336|353:345,1,110,8|8,0:0|0:0,0:0:0:0:
463,340,188495,1,8,0:0:0:0:
404,246,188811,1,8,0:0:0:0:
475,162,189127,2,0,L|529:170,2,55,8|8|8,0:0|0:0|0:0,0:0:0:0:
432,127,189600,6,0,B|378:139|378:139|323:130,1,110,2|0,0:0|0:0,0:0:0:0:
224,79,190232,2,0,L|227:188,1,110,10|0,0:0|0:0,0:0:0:0:
279,287,190863,2,0,B|225:275|225:275|170:283,1,110,10|0,0:0|0:0,0:0:0:0:
73,335,191495,2,0,L|76:225,1,110,10|4,0:0|0:3,0:0:0:0:
79,114,192127,5,6,0:0:0:0:
