osu file format v14

[General]
AudioFilename: Die - RWBY Volume 2 Soundtrack - Feat. Jeff Williams & Casey Lee Williams.mp3
AudioLeadIn: 0
PreviewTime: 53969
Countdown: 0
SampleSet: Normal
StackLeniency: 0.7
Mode: 0
LetterboxInBreaks: 0
WidescreenStoryboard: 1

[Editor]
Bookmarks: 52863
DistanceSpacing: 0.8
BeatDivisor: 4
GridSize: 4
TimelineZoom: 1.6

[Metadata]
Title:Die (feat. Casey Lee Williams)
TitleUnicode:Die (feat. Casey Lee Williams)
Artist:Jeff Williams
ArtistUnicode:Jeff Williams
Creator:LunarFox
Version:Another
Source:RWBY
Tags:rwby rooster teeth ruby yang weiss blake indeed xlolicore puxtu ambient EmeliaK -kyu olegase nyantiaz
BeatmapID:933666
BeatmapSetID:288824

[Difficulty]
HPDrainRate:7
CircleSize:4
OverallDifficulty:8.5
ApproachRate:9.5
SliderMultiplier:1.8
SliderTickRate:2

[Events]
//Background and Video events
0,0,"4191504-rwby_by_xtacyoverdose-d6un3y1.png",0,0
//Break Periods
2,67274,74602
2,139274,148496
//Storyboard Layer 0 (Background)
//Storyboard Layer 1 (Fail)
//Storyboard Layer 2 (Pass)
//Storyboard Layer 3 (Foreground)
//Storyboard Sound Samples

[TimingPoints]
285,315.789702970297,4,1,0,50,1,0
285,-100,4,1,0,50,0,0
5021,-100,4,1,0,100,0,0
5179,-100,4,1,0,50,0,0
43706,-100,4,1,0,100,0,0
44179,-100,4,1,0,50,0,0
44337,-100,4,1,0,50,0,1
54916,-83.3333333333333,4,1,0,50,0,1
64548,-100,4,1,0,50,0,0
84285,-200,4,1,0,50,0,0
84758,-100,4,1,0,50,0,0
118864,-100,4,1,0,50,0,1
138127,-200,4,1,0,50,0,1
138916,-100,4,1,0,50,0,0
164337,-83.3333333333333,4,1,0,50,0,1
182021,-83.3333333333333,4,1,0,50,0,0
191811,-83.3333333333333,4,1,0,100,0,0

[Colours]
Combo1 : 255,128,64
Combo2 : 128,0,0
Combo3 : 255,255,0
Combo4 : 192,192,192

[HitObjects]
472,72,285,22,0,L|420:176,1,90
376,224,600,1,0,0:0:0:0:
292,188,758,1,0,0:0:0:0:
211,231,916,2,0,L|171:147,1,90
173,150,1232,1,0,0:0:0:0:
173,150,1390,2,0,B|213:114|213:114|339:114,1,180
428,136,1863,1,0,0:0:0:0:
400,224,2021,1,0,0:0:0:0:
312,228,2179,1,0,0:0:0:0:
312,228,2337,2,0,L|276:312,1,90
400,224,2653,5,0,0:0:0:0:
348,148,2811,2,0,B|304:120|304:120|240:120,1,90
312,228,3127,1,0,0:0:0:0:
232,184,3285,1,0,0:0:0:0:
144,188,3442,2,0,L|80:104,1,90
40,40,3758,1,0,0:0:0:0:
16,124,3915,1,0,0:0:0:0:
24,172,3995,1,0,0:0:0:0:
32,212,4074,6,0,B|44:256|44:256|88:292,1,90
164,256,4390,1,0,0:0:0:0:
232,184,4548,1,0,0:0:0:0:
276,272,4706,2,0,B|316:248|316:248|332:196,1,90
396,116,5021,5,0,0:0:0:0:
480,48,5179,1,0,0:0:0:0:
488,224,5337,2,0,B|488:272|488:272|452:312,1,90
336,292,5653,5,0,0:0:0:0:
264,236,5811,1,0,0:0:0:0:
312,160,5969,2,0,L|256:80,1,90
200,160,6285,1,0,0:0:0:0:
136,100,6442,1,0,0:0:0:0:
100,180,6600,6,0,B|80:224|80:224|96:280,1,90
180,272,6916,1,0,0:0:0:0:
240,196,7074,1,0,0:0:0:0:
300,272,7232,1,0,0:0:0:0:
364,196,7390,1,0,0:0:0:0:
300,120,7548,1,0,0:0:0:0:
240,196,7706,6,0,B|196:168|196:168|180:108,1,90
232,44,8021,1,0,0:0:0:0:
300,120,8179,2,0,B|344:148|344:148|360:208,1,90
276,244,8495,1,0,0:0:0:0:
192,208,8653,1,0,0:0:0:0:
116,252,8811,2,0,B|136:300|136:300|192:316,1,90
260,332,9127,5,0,0:0:0:0:
384,344,9285,1,0,0:0:0:0:
312,248,9442,1,0,0:0:0:0:
436,256,9600,1,0,0:0:0:0:
380,156,9758,1,0,0:0:0:0:
504,168,9916,1,0,0:0:0:0:
312,144,10074,6,0,B|288:172|288:172|264:172|264:172|288:192|288:192|260:196|260:196|208:252,1,180
128,324,10548,1,0,0:0:0:0:
128,324,10706,1,0,0:0:0:0:
244,328,10863,1,0,0:0:0:0:
332,248,11021,1,0,0:0:0:0:
248,172,11179,1,0,0:0:0:0:
160,96,11337,1,0,0:0:0:0:
100,196,11495,1,0,0:0:0:0:
100,196,11653,6,0,B|64:236|64:236|72:296,1,90
188,332,11969,1,0,0:0:0:0:
188,332,12127,1,0,0:0:0:0:
216,216,12285,1,0,0:0:0:0:
308,288,12442,1,0,0:0:0:0:
332,172,12600,1,0,0:0:0:0:
436,248,12758,1,0,0:0:0:0:
436,248,12916,6,0,B|436:296|436:296|388:352,1,90
308,288,13232,1,0,0:0:0:0:
308,288,13390,1,0,0:0:0:0:
216,216,13548,1,0,0:0:0:0:
332,172,13706,1,0,0:0:0:0:
224,108,13863,1,0,0:0:0:0:
334,84,14021,6,0,B|314:124|354:124|326:184,1,90
412,216,14337,1,0,0:0:0:0:
412,216,14495,1,0,0:0:0:0:
432,304,14653,1,0,0:0:0:0:
344,328,14811,1,0,0:0:0:0:
244,340,14969,2,0,P|184:320|148:280,1,90
172,184,15285,2,0,P|214:234|324:256,1,180
316,140,15758,5,0,0:0:0:0:
412,84,15916,1,0,0:0:0:0:
316,140,16074,1,0,0:0:0:0:
280,28,16232,1,0,0:0:0:0:
200,108,16390,1,0,0:0:0:0:
96,56,16548,1,0,0:0:0:0:
96,56,16706,1,0,0:0:0:0:
88,172,16863,5,0,0:0:0:0:
88,172,17021,2,0,B|132:200|192:172,1,90
244,276,17337,1,0,0:0:0:0:
244,276,17495,2,0,B|304:264|340:296,1,90
424,152,17811,2,0,P|364:108|360:80,1,90
456,352,18127,1,0,0:0:0:0:
392,256,18285,1,0,0:0:0:0:
332,344,18442,1,0,0:0:0:0:
268,256,18600,1,0,0:0:0:0:
268,256,18758,2,0,B|160:256|160:256|116:184,1,180
68,100,19232,6,0,L|156:24,1,90
208,168,19548,2,0,L|320:200,1,90
412,108,19863,1,0,0:0:0:0:
412,108,20021,2,0,L|308:36,1,90
192,72,20337,5,0,0:0:0:0:
192,72,20495,2,0,L|116:152,1,90
192,268,20811,2,0,L|276:184,1,90
348,92,21127,1,0,0:0:0:0:
348,92,21285,2,0,L|348:192,1,90
444,288,21600,1,0,0:0:0:0:
448,144,21758,5,0,0:0:0:0:
352,292,21916,1,0,0:0:0:0:
280,136,22074,1,0,0:0:0:0:
204,292,22232,1,0,0:0:0:0:
112,144,22390,1,0,0:0:0:0:
92,292,22548,1,0,0:0:0:0:
176,212,22706,5,0,0:0:0:0:
276,352,22863,1,0,0:0:0:0:
444,288,23021,1,0,0:0:0:0:
444,244,23100,1,0,0:0:0:0:
436,200,23179,1,0,0:0:0:0:
408,164,23258,1,0,0:0:0:0:
372,136,23337,1,0,0:0:0:0:
328,128,23416,1,0,0:0:0:0:
280,136,23495,1,0,0:0:0:0:
332,232,23652,5,0,0:0:0:0:
208,200,23811,5,0,0:0:0:0:
208,248,23890,1,0,0:0:0:0:
224,296,23969,1,0,0:0:0:0:
256,328,24048,1,0,0:0:0:0:
296,344,24127,1,0,0:0:0:0:
344,352,24206,1,0,0:0:0:0:
384,344,24285,1,0,0:0:0:0:
256,192,24363,12,0,25232,0:0:0:0:
440,72,25548,6,0,B|388:132|388:132|460:220|344:292,1,270
316,300,26100,1,0,0:0:0:0:
284,308,26179,1,0,0:0:0:0:
168,304,26337,1,0,0:0:0:0:
63,219,26495,1,0,0:0:0:0:
192,174,26653,5,0,0:0:0:0:
192,174,26732,1,0,0:0:0:0:
192,174,26811,2,0,L|276:138,1,90
180,40,27127,2,0,L|64:40,1,90
5,151,27442,2,0,L|71:229,1,90
156,304,27758,5,0,0:0:0:0:
296,296,27916,1,0,0:0:0:0:
296,296,27995,1,0,0:0:0:0:
296,296,28074,2,0,P|340:248|344:196,1,90
296,68,28390,1,0,0:0:0:0:
436,192,28548,5,0,0:0:0:0:
436,192,28706,2,0,L|392:112,1,90
296,68,29021,1,0,0:0:0:0:
296,68,29100,1,0,0:0:0:0:
296,68,29179,2,0,P|224:124|220:220,1,180
324,248,29653,5,0,0:0:0:0:
240,332,29811,1,0,0:0:0:0:
124,332,29969,1,0,0:0:0:0:
76,224,30128,1,0,0:0:0:0:
76,224,30207,1,0,0:0:0:0:
76,224,30285,1,0,0:0:0:0:
184,160,30442,5,0,0:0:0:0:
184,160,30600,1,0,0:0:0:0:
324,248,30758,2,0,B|290:272|290:272|242:264,1,90
324,120,31074,2,0,B|372:112|372:112|405:136,1,90
484,252,31390,5,0,0:0:0:0:
484,252,31548,1,0,0:0:0:0:
392,328,31706,2,0,P|330:358|220:322,1,180
232,216,32179,5,0,0:0:0:0:
368,216,32337,1,0,0:0:0:0:
304,96,32495,1,0,0:0:0:0:
256,280,32653,5,0,0:0:0:0:
120,280,32811,1,0,0:0:0:0:
184,160,32969,1,0,0:0:0:0:
256,280,33127,6,0,P|292:332|344:348,1,90
104,336,33442,1,0,0:0:0:0:
84,304,33521,1,0,0:0:0:0:
72,272,33600,1,0,0:0:0:0:
68,236,33679,1,0,0:0:0:0:
76,200,33758,1,0,0:0:0:0:
104,164,33837,5,0,0:0:0:0:
136,196,33916,1,0,0:0:0:0:
172,220,33995,1,0,0:0:0:0:
216,232,34074,1,0,0:0:0:0:
260,240,34153,1,0,0:0:0:0:
304,236,34232,1,0,0:0:0:0:
420,224,34390,1,0,0:0:0:0:
476,120,34548,1,0,0:0:0:0:
388,44,34706,1,0,0:0:0:0:
352,156,34863,5,0,0:0:0:0:
352,156,34942,1,0,0:0:0:0:
352,156,35021,2,0,L|276:64,1,90
216,160,35337,1,0,0:0:0:0:
140,72,35495,1,0,0:0:0:0:
104,184,35653,2,0,L|176:272,1,90
280,244,35969,5,0,0:0:0:0:
352,156,36127,1,0,0:0:0:0:
456,96,36285,1,0,0:0:0:0:
460,228,36442,1,0,0:0:0:0:
460,228,36600,2,0,P|444:276|388:324,1,90
304,324,36916,1,0,0:0:0:0:
188,328,37074,1,0,0:0:0:0:
72,320,37232,2,0,P|44:285|31:243,1,90
188,180,37548,5,0,0:0:0:0:
304,180,37706,1,0,0:0:0:0:
248,84,37863,1,0,0:0:0:0:
188,180,38021,5,0,0:0:0:0:
304,180,38179,1,0,0:0:0:0:
248,84,38337,1,0,0:0:0:0:
188,180,38495,1,0,0:0:0:0:
248,268,38653,5,0,0:0:0:0:
344,316,38811,1,0,0:0:0:0:
452,332,38969,1,0,0:0:0:0:
424,228,39127,1,0,0:0:0:0:
424,228,39206,1,0,0:0:0:0:
424,228,39285,2,0,P|400:152|444:64,1,180
360,136,39758,5,0,0:0:0:0:
280,64,39916,1,0,0:0:0:0:
220,152,40074,1,0,0:0:0:0:
144,76,40232,1,0,0:0:0:0:
88,168,40390,1,0,0:0:0:0:
32,76,40548,1,0,0:0:0:0:
32,76,40706,2,0,B|52:136|24:176,2,90
88,168,41179,5,0,0:0:0:0:
172,236,41337,1,0,0:0:0:0:
256,168,41495,1,0,0:0:0:0:
340,236,41653,1,0,0:0:0:0:
420,172,41811,1,0,0:0:0:0:
336,104,41969,1,0,0:0:0:0:
340,236,42127,5,0,0:0:0:0:
256,168,42285,1,0,0:0:0:0:
144,140,42442,1,0,0:0:0:0:
144,140,42600,2,0,P|104:80|100:28,1,90
52,208,42916,5,0,0:0:0:0:
120,312,43074,1,0,0:0:0:0:
152,328,43153,1,0,0:0:0:0:
188,332,43232,1,0,0:0:0:0:
224,332,43311,1,0,0:0:0:0:
260,328,43390,1,0,0:0:0:0:
296,316,43469,1,0,0:0:0:0:
324,296,43548,1,0,0:0:0:0:
244,188,43706,5,0,0:0:0:0:
296,52,43863,1,0,0:0:0:0:
452,96,44021,1,0,0:0:0:0:
400,232,44178,1,0,0:0:0:0:
400,232,44337,5,0,0:0:0:0:
452,320,44495,1,0,0:0:0:0:
336,312,44653,1,0,0:0:0:0:
336,312,44811,1,0,0:0:0:0:
232,344,44969,6,0,B|200:308|200:308|196:260,1,90
308,156,45285,1,0,0:0:0:0:
420,68,45442,1,0,0:0:0:0:
276,84,45600,1,0,0:0:0:0:
408,144,45758,1,0,0:0:0:0:
472,252,45916,5,0,0:0:0:0:
332,284,46074,1,0,0:0:0:0:
244,172,46232,1,0,0:0:0:0:
152,104,46390,1,0,0:0:0:0:
136,136,46469,1,0,0:0:0:0:
116,172,46548,1,0,0:0:0:0:
100,204,46627,1,0,0:0:0:0:
84,236,46706,1,0,0:0:0:0:
84,332,46863,2,0,L|180:332,1,90
232,228,47179,5,0,0:0:0:0:
288,332,47337,1,0,0:0:0:0:
174,332,47495,1,0,0:0:0:0:
276,268,47653,5,0,0:0:0:0:
372,200,47811,1,0,0:0:0:0:
417,302,47969,1,0,0:0:0:0:
328,236,48127,5,0,0:0:0:0:
413,134,48285,1,0,0:0:0:0:
429,166,48363,1,0,0:0:0:0:
441,198,48442,1,0,0:0:0:0:
445,234,48521,1,0,0:0:0:0:
437,270,48600,1,0,0:0:0:0:
417,302,48679,1,0,0:0:0:0:
397,330,48758,2,0,B|305:366|197:330,1,180
328,236,49232,5,0,0:0:0:0:
328,236,49311,1,0,0:0:0:0:
328,236,49390,2,0,B|256:248|188:232|188:232|216:192,1,180
136,88,49863,1,0,0:0:0:0:
244,88,50021,1,0,0:0:0:0:
84,184,50179,1,0,0:0:0:0:
288,184,50337,1,0,0:0:0:0:
192,264,50495,1,0,0:0:0:0:
348,344,50653,1,0,0:0:0:0:
348,344,50811,5,0,0:0:0:0:
460,316,50969,1,0,0:0:0:0:
316,264,51127,1,0,0:0:0:0:
444,216,51285,1,0,0:0:0:0:
288,184,51442,1,0,0:0:0:0:
432,128,51600,1,0,0:0:0:0:
256,100,51758,1,0,0:0:0:0:
148,36,51916,1,0,0:0:0:0:
132,176,52074,5,0,0:0:0:0:
129,211,52152,1,0,0:0:0:0:
137,246,52231,1,0,0:0:0:0:
153,278,52310,1,0,0:0:0:0:
177,305,52389,1,0,0:0:0:0:
208,324,52468,1,0,0:0:0:0:
240,340,52548,2,0,P|300:344|348:324,1,90
436,256,52863,5,0,0:0:0:0:
436,216,52942,1,0,0:0:0:0:
436,180,53021,1,0,0:0:0:0:
436,144,53100,1,0,0:0:0:0:
436,108,53179,1,0,0:0:0:0:
436,72,53258,1,0,0:0:0:0:
428,48,53337,5,0,0:0:0:0:
396,68,53416,1,0,0:0:0:0:
368,88,53495,1,0,0:0:0:0:
336,104,53574,1,0,0:0:0:0:
300,112,53653,1,0,0:0:0:0:
264,116,53732,1,0,0:0:0:0:
228,116,53811,5,0,0:0:0:0:
192,108,53890,1,0,0:0:0:0:
156,96,53969,1,0,0:0:0:0:
124,84,54048,1,0,0:0:0:0:
88,88,54127,1,0,0:0:0:0:
56,104,54206,1,0,0:0:0:0:
36,132,54285,1,0,0:0:0:0:
32,168,54363,1,0,0:0:0:0:
32,204,54442,6,0,B|80:256|80:256|248:256,1,225
272,256,54916,1,0,0:0:0:0:
308,240,54994,1,0,0:0:0:0:
337,213,55073,1,0,0:0:0:0:
355,177,55152,1,0,0:0:0:0:
372,136,55232,2,0,L|344:72,3,53.9999983520508
324,52,55548,5,0,0:0:0:0:
288,32,55627,1,0,0:0:0:0:
244,24,55706,1,0,0:0:0:0:
200,24,55785,1,0,0:0:0:0:
160,40,55863,1,0,0:0:0:0:
132,72,55943,1,0,0:0:0:0:
148,112,56021,5,0,0:0:0:0:
156,156,56100,1,0,0:0:0:0:
152,200,56179,1,0,0:0:0:0:
136,240,56258,1,0,0:0:0:0:
112,276,56337,1,0,0:0:0:0:
72,296,56416,1,0,0:0:0:0:
48,260,56495,5,0,0:0:0:0:
44,216,56574,1,0,0:0:0:0:
48,172,56652,1,0,0:0:0:0:
64,132,56731,1,0,0:0:0:0:
96,104,56810,1,0,0:0:0:0:
136,84,56889,1,0,0:0:0:0:
180,76,56969,2,0,L|252:84,3,53.9999983520508
268,112,57285,5,0,0:0:0:0:
260,152,57363,1,0,0:0:0:0:
268,196,57442,1,0,0:0:0:0:
292,232,57521,1,0,0:0:0:0:
332,252,57600,1,0,0:0:0:0:
376,256,57679,1,0,0:0:0:0:
416,240,57758,1,0,0:0:0:0:
444,208,57837,1,0,0:0:0:0:
448,164,57916,5,0,0:0:0:0:
428,128,57995,1,0,0:0:0:0:
388,108,58074,1,0,0:0:0:0:
348,120,58153,1,0,0:0:0:0:
312,144,58232,1,0,0:0:0:0:
260,152,58311,1,0,0:0:0:0:
228,124,58390,1,0,0:0:0:0:
216,88,58469,1,0,0:0:0:0:
228,48,58548,5,0,0:0:0:0:
268,28,58627,1,0,0:0:0:0:
312,32,58706,1,0,0:0:0:0:
340,68,58785,1,0,0:0:0:0:
348,120,58863,1,0,0:0:0:0:
332,160,58942,1,0,0:0:0:0:
296,184,59021,1,0,0:0:0:0:
256,204,59100,1,0,0:0:0:0:
216,216,59179,5,0,0:0:0:0:
184,244,59258,1,0,0:0:0:0:
180,288,59337,1,0,0:0:0:0:
200,328,59416,1,0,0:0:0:0:
244,336,59495,1,0,0:0:0:0:
288,328,59574,1,0,0:0:0:0:
328,312,59653,2,0,L|388:280,3,53.9999983520508
416,268,59969,5,0,0:0:0:0:
452,244,60048,1,0,0:0:0:0:
468,204,60127,1,0,0:0:0:0:
460,164,60206,1,0,0:0:0:0:
436,132,60285,1,0,0:0:0:0:
396,108,60363,1,0,0:0:0:0:
356,108,60442,1,0,0:0:0:0:
320,128,60521,5,0,0:0:0:0:
276,128,60600,1,0,0:0:0:0:
244,96,60679,1,0,0:0:0:0:
244,52,60758,1,0,0:0:0:0:
276,24,60837,1,0,0:0:0:0:
320,16,60916,2,0,P|368:4|440:20,1,107.999996704102
244,96,61232,6,0,P|204:132|196:188,1,107.999996704102
386,241,61548,2,0,P|423:191|422:141,1,107.999996704102
256,192,62021,12,0,63285,0:0:0:0:
256,192,63442,12,0,64390,0:0:0:0:
256,192,64548,12,0,67074,0:0:0:0:
172,236,75127,6,0,B|128:204|128:204|116:148,1,90
260,132,75442,1,0,0:0:0:0:
380,168,75600,1,0,0:0:0:0:
348,48,75758,1,0,0:0:0:0:
260,132,75916,1,0,0:0:0:0:
172,236,76074,6,0,B|128:268|128:268|116:324,1,90
240,340,76390,1,0,0:0:0:0:
304,220,76548,1,0,0:0:0:0:
244,108,76706,1,0,0:0:0:0:
244,108,76864,2,0,P|180:116|152:156,1,90
84,224,77179,1,0,0:0:0:0:
154,342,77337,6,0,B|206:366|242:338,1,90
376,268,77653,1,0,0:0:0:0:
476,176,77811,2,0,P|424:108|328:96,1,180
196,148,78285,1,0,0:0:0:0:
48,204,78442,5,0,0:0:0:0:
48,204,78600,2,0,P|80:136|128:120,1,90
232,88,78916,1,0,0:0:0:0:
376,72,79074,1,0,0:0:0:0:
376,72,79232,2,0,P|400:136|384:188,1,90
336,280,79548,1,0,0:0:0:0:
304,300,79627,1,0,0:0:0:0:
272,320,79706,1,0,0:0:0:0:
240,336,79785,1,0,0:0:0:0:
208,344,79864,2,0,P|141:354|28:301,1,180
56,192,80337,5,0,0:0:0:0:
200,260,80495,1,0,0:0:0:0:
228,88,80653,1,0,0:0:0:0:
228,88,80811,2,0,L|152:28,1,90
200,260,81127,2,0,L|112:328,1,90
56,192,81442,1,0,0:0:0:0:
200,200,81600,5,0,0:0:0:0:
324,108,81758,2,0,P|360:84|412:72,1,90
228,88,82074,1,0,0:0:0:0:
292,196,82232,1,0,0:0:0:0:
140,132,82390,2,0,P|104:108|52:96,1,90
132,256,82706,5,0,0:0:0:0:
292,196,82864,1,0,0:0:0:0:
200,200,83021,1,0,0:0:0:0:
360,260,83179,1,0,0:0:0:0:
436,328,83337,6,0,B|404:356|404:356|348:356,1,90
292,196,83653,2,0,B|260:168|260:168|212:168,1,90
172,332,83969,1,0,0:0:0:0:
84,192,84127,1,0,0:0:0:0:
176,56,84285,2,0,B|192:56|192:56|216:64|216:64|236:56|236:56|252:64|252:64|268:56|268:56|288:64|288:64|304:56|304:56|320:56,1,135
420,136,84916,5,0,0:0:0:0:
420,172,84995,1,0,0:0:0:0:
420,208,85074,2,0,B|420:256|420:256|376:308,1,90
264,168,85390,1,0,0:0:0:0:
132,232,85548,1,0,0:0:0:0:
296,296,85706,1,0,0:0:0:0:
264,168,85864,1,0,0:0:0:0:
240,60,86021,5,0,0:0:0:0:
204,60,86100,1,0,0:0:0:0:
168,60,86179,2,0,B|117:60|117:60|72:104,1,90
172,180,86495,5,0,0:0:0:0:
136,300,86653,1,0,0:0:0:0:
52,204,86811,1,0,0:0:0:0:
52,204,86969,2,0,P|24:136|40:88,1,90
240,256,87285,1,0,0:0:0:0:
240,256,87442,2,0,P|248:328|232:368,1,90
172,180,87758,5,0,0:0:0:0:
336,160,87916,1,0,0:0:0:0:
448,272,88074,2,0,P|416:296|344:296,1,90
240,256,88390,1,0,0:0:0:0:
276,116,88548,2,0,P|312:84|368:80,1,90
476,44,88864,5,0,0:0:0:0:
408,148,89021,1,0,0:0:0:0:
276,116,89179,1,0,0:0:0:0:
276,116,89337,2,0,B|262:139|255:164|263:204,1,90
88,180,89653,1,0,0:0:0:0:
88,180,89811,2,0,P|92:232|64:284,1,90
208,328,90127,5,0,0:0:0:0:
336,248,90285,1,0,0:0:0:0:
316,108,90442,6,0,P|372:100|412:120,1,90
196,256,90758,2,0,P|152:265|110:251,1,90
336,248,91074,2,0,P|349:290|340:333,1,90
168,112,91390,2,0,P|154:69|163:26,1,90
316,108,91706,1,0,0:0:0:0:
252,216,91864,5,0,0:0:0:0:
252,216,92021,2,0,L|344:252,1,90
452,288,92337,1,0,0:0:0:0:
320,340,92495,1,0,0:0:0:0:
252,216,92653,5,0,0:0:0:0:
116,168,92811,1,0,0:0:0:0:
252,100,92969,1,0,0:0:0:0:
376,172,93127,2,0,L|376:264,1,90
492,176,93442,2,0,L|492:80,1,90
332,272,93758,5,0,0:0:0:0:
276,148,93916,1,0,0:0:0:0:
224,272,94074,1,0,0:0:0:0:
168,148,94232,1,0,0:0:0:0:
112,272,94390,1,0,0:0:0:0:
40,328,94548,5,0,0:0:0:0:
120,120,94706,1,0,0:0:0:0:
192,332,94864,1,0,0:0:0:0:
220,92,95021,1,0,0:0:0:0:
328,332,95179,1,0,0:0:0:0:
324,100,95337,5,0,0:0:0:0:
220,264,95495,1,0,0:0:0:0:
120,100,95653,1,0,0:0:0:0:
324,200,95811,1,0,0:0:0:0:
124,200,95969,1,0,0:0:0:0:
268,160,96127,1,0,0:0:0:0:
424,104,96285,5,0,0:0:0:0:
424,264,96442,1,0,0:0:0:0:
268,160,96600,1,0,0:0:0:0:
264,332,96758,1,0,0:0:0:0:
124,200,96916,1,0,0:0:0:0:
88,52,97074,5,0,0:0:0:0:
204,216,97232,1,0,0:0:0:0:
256,68,97390,1,0,0:0:0:0:
392,72,97548,1,0,0:0:0:0:
428,72,97627,1,0,0:0:0:0:
460,88,97706,1,0,0:0:0:0:
480,116,97785,1,0,0:0:0:0:
488,152,97864,1,0,0:0:0:0:
480,184,97942,1,0,0:0:0:0:
448,216,98021,5,0,0:0:0:0:
412,240,98100,1,0,0:0:0:0:
368,240,98179,1,0,0:0:0:0:
324,224,98258,1,0,0:0:0:0:
288,196,98337,1,0,0:0:0:0:
248,160,98416,5,0,0:0:0:0:
196,140,98495,1,0,0:0:0:0:
144,152,98574,1,0,0:0:0:0:
96,176,98653,1,0,0:0:0:0:
72,224,98732,1,0,0:0:0:0:
84,276,98811,1,0,0:0:0:0:
256,192,98969,12,0,99758,0:0:0:0:
408,76,100074,6,0,P|464:144|452:244,1,180
404,328,100548,1,0,0:0:0:0:
332,220,100706,1,0,0:0:0:0:
232,308,100863,1,0,0:0:0:0:
208,184,101021,1,0,0:0:0:0:
124,276,101179,2,0,P|72:300|12:280,1,90
280,168,101495,5,0,0:0:0:0:
280,168,101653,1,0,0:0:0:0:
384,108,101811,1,0,0:0:0:0:
392,228,101969,1,0,0:0:0:0:
228,224,102127,5,0,0:0:0:0:
352,168,102285,1,0,0:0:0:0:
380,296,102442,1,0,0:0:0:0:
228,224,102600,5,0,0:0:0:0:
228,224,102679,1,0,0:0:0:0:
228,224,102758,1,0,0:0:0:0:
380,296,102916,1,0,0:0:0:0:
352,168,103074,1,0,0:0:0:0:
228,224,103232,5,0,0:0:0:0:
380,296,103390,1,0,0:0:0:0:
352,168,103548,1,0,0:0:0:0:
432,80,103706,6,0,P|480:132|488:248,1,180
396,316,104179,1,0,0:0:0:0:
240,328,104337,1,0,0:0:0:0:
160,216,104495,2,0,L|236:148,1,90
348,64,104811,5,0,0:0:0:0:
480,164,104969,1,0,0:0:0:0:
476,32,105127,1,0,0:0:0:0:
360,180,105285,2,0,L|292:256,1,90
216,320,105600,5,0,0:0:0:0:
84,316,105758,1,0,0:0:0:0:
152,192,105916,1,0,0:0:0:0:
84,72,106074,2,0,B|136:72|136:72|184:96,1,90
272,156,106390,1,0,0:0:0:0:
312,268,106548,5,0,0:0:0:0:
312,268,106706,2,0,P|276:332|228:348,1,90
180,252,107021,1,0,0:0:0:0:
68,212,107179,1,0,0:0:0:0:
68,212,107337,2,0,P|100:156|140:140,1,90
236,92,107653,5,0,0:0:0:0:
124,268,107811,1,0,0:0:0:0:
264,228,107969,1,0,0:0:0:0:
332,136,108127,5,0,0:0:0:0:
304,116,108206,1,0,0:0:0:0:
272,100,108285,1,0,0:0:0:0:
236,92,108364,1,0,0:0:0:0:
200,92,108442,1,0,0:0:0:0:
164,96,108521,1,0,0:0:0:0:
132,108,108600,1,0,0:0:0:0:
100,128,108679,1,0,0:0:0:0:
76,156,108758,1,0,0:0:0:0:
68,292,108916,1,0,0:0:0:0:
68,292,109074,2,0,L|160:292,2,90
256,336,109548,5,0,0:0:0:0:
256,192,109706,1,0,0:0:0:0:
116,164,109864,2,0,L|188:84,1,90
256,192,110179,1,0,0:0:0:0:
356,296,110337,1,0,0:0:0:0:
464,200,110495,1,0,0:0:0:0:
372,88,110653,1,0,0:0:0:0:
256,192,110811,6,0,L|196:268,1,90
356,296,111127,1,0,0:0:0:0:
400,160,111285,1,0,0:0:0:0:
256,192,111442,2,0,L|176:104,1,90
40,112,111758,5,0,0:0:0:0:
128,224,111916,1,0,0:0:0:0:
240,140,112074,1,0,0:0:0:0:
288,264,112232,1,0,0:0:0:0:
428,292,112390,1,0,0:0:0:0:
428,292,112548,2,0,L|344:344,1,90
236,368,112864,1,0,0:0:0:0:
236,368,112942,1,0,0:0:0:0:
236,368,113021,1,0,0:0:0:0:
148,252,113179,5,0,0:0:0:0:
236,368,113337,1,0,0:0:0:0:
304,240,113495,1,0,0:0:0:0:
348,100,113653,1,0,0:0:0:0:
348,100,113732,1,0,0:0:0:0:
348,100,113811,1,0,0:0:0:0:
156,120,113969,5,0,0:0:0:0:
200,256,114127,1,0,0:0:0:0:
296,120,114285,1,0,0:0:0:0:
364,248,114442,1,0,0:0:0:0:
440,124,114600,1,0,0:0:0:0:
456,360,114758,5,0,0:0:0:0:
364,172,114916,1,0,0:0:0:0:
280,320,115074,1,0,0:0:0:0:
176,184,115232,1,0,0:0:0:0:
112,360,115390,1,0,0:0:0:0:
112,64,115548,5,0,0:0:0:0:
272,224,115706,1,0,0:0:0:0:
444,64,115864,1,0,0:0:0:0:
276,80,116021,2,0,L|360:156,1,90
436,240,116337,1,0,0:0:0:0:
416,272,116416,1,0,0:0:0:0:
388,292,116495,1,0,0:0:0:0:
272,308,116653,1,0,0:0:0:0:
175,258,116811,6,0,B|119:234|115:170,1,90
307,150,117127,2,0,P|331:194|331:238,1,90
207,154,117442,2,0,P|215:90|287:54,1,135
308,48,117758,5,0,0:0:0:0:
344,48,117837,1,0,0:0:0:0:
376,56,117916,1,0,0:0:0:0:
408,72,117995,1,0,0:0:0:0:
432,96,118074,1,0,0:0:0:0:
448,128,118153,1,0,0:0:0:0:
448,168,118232,5,0,0:0:0:0:
440,200,118311,1,0,0:0:0:0:
416,232,118390,1,0,0:0:0:0:
384,248,118469,1,0,0:0:0:0:
352,256,118548,1,0,0:0:0:0:
320,256,118627,1,0,0:0:0:0:
288,248,118706,1,0,0:0:0:0:
256,240,118785,1,0,0:0:0:0:
224,224,118864,6,0,L|184:172,7,45
196,188,119495,2,0,P|268:192|304:172,1,90
156,304,119811,2,0,P|88:304|56:288,1,90
328,280,120127,6,0,L|220:332,1,90
256,164,120442,2,0,L|164:96,1,90
96,308,120758,1,0,0:0:0:0:
96,308,120916,2,0,P|144:320|216:304,1,90
328,316,121232,2,0,P|408:312|452:288,2,90
216,228,121706,2,0,P|124:220|100:212,2,90
360,208,122179,5,0,0:0:0:0:
340,64,122337,1,0,0:0:0:0:
204,96,122495,1,0,0:0:0:0:
204,96,122653,2,0,B|176:76|176:76|156:100|156:100|136:76|136:76|112:96|112:96|88:76|88:76|68:96|68:96|40:72|40:72,1,225
28,108,123127,1,0,0:0:0:0:
24,144,123206,1,0,0:0:0:0:
28,180,123285,1,0,0:0:0:0:
40,216,123364,1,0,0:0:0:0:
60,244,123442,1,0,0:0:0:0:
88,268,123521,1,0,0:0:0:0:
120,280,123600,6,0,B|152:279|152:279|140:263|140:263|156:275|156:275|144:259|144:259|156:275|156:275|148:259|148:259|160:276|160:276|152:255|152:255|160:272|160:272|220:227|240:227,1,270
248,216,124153,1,0,0:0:0:0:
248,216,124232,1,0,0:0:0:0:
248,216,124311,1,0,0:0:0:0:
248,216,124390,2,0,L|152:164,1,90
132,266,124706,2,0,L|20:302,1,90
76,108,125021,5,0,0:0:0:0:
76,108,125179,1,0,0:0:0:0:
76,108,125337,2,0,B|60:144|60:144|100:144|100:144|84:160|64:184|64:184|96:184|96:184|88:208|80:240|136:268,1,270
304,252,125969,1,0,0:0:0:0:
304,252,126127,2,0,P|328:176|316:148,1,90
220,164,126442,2,0,P|248:96|296:68,1,90
292,68,126679,1,0,0:0:0:0:
328,56,126758,1,0,0:0:0:0:
364,56,126837,1,0,0:0:0:0:
396,76,126916,1,0,0:0:0:0:
420,104,126995,1,0,0:0:0:0:
428,140,127074,1,0,0:0:0:0:
428,176,127153,5,0,0:0:0:0:
424,212,127232,1,0,0:0:0:0:
412,244,127311,1,0,0:0:0:0:
388,272,127390,1,0,0:0:0:0:
360,296,127469,1,0,0:0:0:0:
328,308,127548,1,0,0:0:0:0:
292,320,127627,5,0,0:0:0:0:
256,324,127706,1,0,0:0:0:0:
220,324,127785,1,0,0:0:0:0:
184,320,127864,2,0,L|104:320,4,45
132,288,128258,1,0,0:0:0:0:
120,256,128337,1,0,0:0:0:0:
108,220,128416,1,0,0:0:0:0:
104,184,128495,1,0,0:0:0:0:
112,148,128574,5,0,0:0:0:0:
132,116,128653,1,0,0:0:0:0:
160,96,128732,1,0,0:0:0:0:
192,80,128811,1,0,0:0:0:0:
228,76,128890,1,0,0:0:0:0:
264,80,128969,1,0,0:0:0:0:
432,216,129600,5,0,0:0:0:0:
432,256,129679,1,0,0:0:0:0:
416,288,129758,1,0,0:0:0:0:
392,312,129837,1,0,0:0:0:0:
360,328,129916,1,0,0:0:0:0:
320,328,129995,1,0,0:0:0:0:
280,320,130074,2,0,L|224:296,5,45
144,232,130548,5,0,0:0:0:0:
168,200,130627,1,0,0:0:0:0:
200,176,130706,1,0,0:0:0:0:
240,160,130785,1,0,0:0:0:0:
280,152,130864,1,0,0:0:0:0:
320,152,130942,1,0,0:0:0:0:
360,160,131021,1,0,0:0:0:0:
400,176,131100,1,0,0:0:0:0:
440,192,131179,2,0,L|492:220,6,45
296,128,131811,5,0,0:0:0:0:
264,112,131890,1,0,0:0:0:0:
232,96,131969,1,0,0:0:0:0:
200,80,132048,1,0,0:0:0:0:
168,64,132127,2,0,L|112:40,4,45
96,32,132521,5,0,0:0:0:0:
56,40,132600,1,0,0:0:0:0:
24,64,132679,1,0,0:0:0:0:
16,104,132758,1,0,0:0:0:0:
32,144,132837,1,0,0:0:0:0:
60,168,132916,5,0,0:0:0:0:
96,164,132995,1,0,0:0:0:0:
128,152,133074,1,0,0:0:0:0:
164,152,133153,1,0,0:0:0:0:
200,164,133232,1,0,0:0:0:0:
228,184,133311,1,0,0:0:0:0:
248,216,133390,1,0,0:0:0:0:
252,252,133469,1,0,0:0:0:0:
256,288,133548,2,0,B|280:280|280:280|288:268|288:268|296:288|296:288|296:260|296:260|304:280|304:280|320:276|320:276|308:256|308:256|328:268|328:268|352:252|372:188,1,225
384,200,134021,5,0,0:0:0:0:
392,160,134100,1,0,0:0:0:0:
392,120,134179,1,0,0:0:0:0:
376,80,134258,1,0,0:0:0:0:
344,56,134337,1,0,0:0:0:0:
304,48,134416,1,0,0:0:0:0:
264,56,134495,1,0,0:0:0:0:
232,72,134574,5,0,0:0:0:0:
216,104,134653,1,0,0:0:0:0:
192,132,134732,1,0,0:0:0:0:
156,144,134811,1,0,0:0:0:0:
120,148,134890,1,0,0:0:0:0:
84,144,134969,2,0,L|68:212,4,45
108,324,135442,5,0,0:0:0:0:
124,292,135521,1,0,0:0:0:0:
140,260,135600,1,0,0:0:0:0:
152,228,135679,1,0,0:0:0:0:
168,196,135758,1,0,0:0:0:0:
180,164,135837,1,0,0:0:0:0:
192,132,135916,5,0,0:0:0:0:
208,100,135995,1,0,0:0:0:0:
220,68,136074,1,0,0:0:0:0:
236,36,136153,1,0,0:0:0:0:
252,4,136232,2,0,L|172:4,4,45
332,64,136706,5,0,0:0:0:0:
356,92,136785,1,0,0:0:0:0:
372,124,136864,1,0,0:0:0:0:
372,160,136942,1,0,0:0:0:0:
360,196,137021,2,0,L|300:228,3,45
196,252,137416,5,0,0:0:0:0:
160,260,137495,1,0,0:0:0:0:
124,252,137574,1,0,0:0:0:0:
96,228,137653,1,0,0:0:0:0:
80,196,137732,1,0,0:0:0:0:
76,160,137811,1,0,0:0:0:0:
72,124,137890,5,0,0:0:0:0:
68,88,137969,1,0,0:0:0:0:
68,88,138048,1,0,0:0:0:0:
68,88,138127,2,0,B|16:204|116:204|64:324,1,225
71,305,138995,1,0,0:0:0:0:
71,305,139074,1,0,0:0:0:0:
364,152,149021,6,0,L|312:232,1,90
248,344,149337,1,0,0:0:0:0:
140,264,149495,1,0,0:0:0:0:
184,156,149653,2,0,P|212:112|280:88,1,90
314,227,149969,2,0,L|382:299,1,90
452,152,150285,2,0,L|388:84,1,90
243,93,150600,6,0,L|243:197,1,90
248,300,150916,1,0,0:0:0:0:
144,176,151074,1,0,0:0:0:0:
340,136,151232,6,0,L|424:64,1,90
208,64,151548,2,0,L|128:120,1,90
60,248,151864,2,0,P|56:316|96:356,1,90
208,328,152179,5,0,0:0:0:0:
348,196,152337,1,0,0:0:0:0:
348,196,152495,2,0,L|258:196,1,90
204,64,152811,1,0,0:0:0:0:
338,112,152969,5,0,0:0:0:0:
338,112,153127,2,0,P|370:72|438:68,1,90
402,320,153443,2,0,P|360:305|335:270,1,90
438,196,153758,1,0,0:0:0:0:
438,196,153837,1,0,0:0:0:0:
438,196,153916,1,0,0:0:0:0:
438,196,153995,1,0,0:0:0:0:
438,196,154074,2,0,L|346:196,1,90
196,296,154390,5,0,0:0:0:0:
28,168,154548,1,0,0:0:0:0:
60,300,154706,2,0,L|120:220,1,90
176,132,155021,1,0,0:0:0:0:
364,260,155179,1,0,0:0:0:0:
364,260,155337,6,0,B|316:256|316:256|268:216,1,90
292,36,155653,1,0,0:0:0:0:
440,72,155811,1,0,0:0:0:0:
340,168,155969,1,0,0:0:0:0:
274,260,156127,2,0,B|242:308|162:292,1,90
500,316,156443,1,0,0:0:0:0:
468,176,156600,2,0,L|468:68,1,90
340,168,156916,6,0,L|252:244,1,90
160,144,157232,1,0,0:0:0:0:
160,144,157390,2,0,L|236:80,1,90
340,168,157706,1,0,0:0:0:0:
208,244,157864,2,0,P|252:288|296:284,1,90
276,289,158179,2,0,L|220:372,1,90
152,296,158495,5,0,0:0:0:0:
256,80,158653,1,0,0:0:0:0:
364,296,158811,1,0,0:0:0:0:
124,176,158969,1,0,0:0:0:0:
388,176,159127,1,0,0:0:0:0:
256,212,159285,5,0,0:0:0:0:
160,84,159443,1,0,0:0:0:0:
256,212,159600,1,0,0:0:0:0:
356,84,159758,1,0,0:0:0:0:
256,212,159916,1,0,0:0:0:0:
406,300,160074,2,0,L|298:300,1,90
88,316,160390,1,0,0:0:0:0:
88,316,160548,5,0,0:0:0:0:
208,200,160706,1,0,0:0:0:0:
316,300,160864,1,0,0:0:0:0:
316,300,161021,1,0,0:0:0:0:
316,300,161179,2,0,L|316:208,1,90
316,188,161416,1,0,0:0:0:0:
316,164,161495,1,0,0:0:0:0:
316,140,161574,1,0,0:0:0:0:
316,116,161653,1,0,0:0:0:0:
316,116,164337,6,0,B|320:152|320:152|328:172|328:172|320:192|320:192|328:216|328:216|320:232|320:232|328:256|328:256|320:272|320:272|328:288|328:288|320:336,1,215.999993408203
132,192,164812,1,0,0:0:0:0:
132,192,164970,2,0,P|72:184|56:136,1,107.999996704102
188,48,165286,1,0,0:0:0:0:
316,116,165443,2,0,L|260:212,1,107.999996704102
244,236,165679,5,0,0:0:0:0:
200,240,165758,1,0,0:0:0:0:
160,224,165837,1,0,0:0:0:0:
132,192,165916,1,0,0:0:0:0:
120,152,165995,1,0,0:0:0:0:
128,108,166074,1,0,0:0:0:0:
156,76,166153,1,0,0:0:0:0:
188,48,166232,1,0,0:0:0:0:
232,44,166311,1,0,0:0:0:0:
272,60,166390,1,0,0:0:0:0:
304,92,166469,1,0,0:0:0:0:
324,132,166548,6,0,L|384:248,1,107.999996704102
198,139,166864,1,0,0:0:0:0:
198,139,167021,2,0,P|202:79|274:31,1,107.999996704102
440,44,167337,5,0,0:0:0:0:
464,216,167495,1,0,0:0:0:0:
292,232,167653,1,0,0:0:0:0:
272,60,167811,1,0,0:0:0:0:
96,48,167969,6,0,P|102:100|143:133,1,107.999996704102
292,232,168285,1,0,0:0:0:0:
156,336,168443,1,0,0:0:0:0:
156,336,168600,2,0,P|104:325|73:282,1,107.999996704102
204,168,168916,1,0,0:0:0:0:
360,240,169074,1,0,0:0:0:0:
444,96,169232,1,0,0:0:0:0:
288,24,169390,1,0,0:0:0:0:
112,60,169548,5,0,0:0:0:0:
100,100,169627,1,0,0:0:0:0:
108,144,169706,1,0,0:0:0:0:
132,180,169785,1,0,0:0:0:0:
160,212,169864,1,0,0:0:0:0:
172,252,169943,1,0,0:0:0:0:
172,296,170021,1,0,0:0:0:0:
208,116,170179,5,0,0:0:0:0:
228,20,170337,1,0,0:0:0:0:
272,32,170416,1,0,0:0:0:0:
304,60,170495,1,0,0:0:0:0:
324,100,170574,1,0,0:0:0:0:
328,144,170653,1,0,0:0:0:0:
312,184,170732,1,0,0:0:0:0:
288,216,170811,1,0,0:0:0:0:
272,244,170890,5,0,0:0:0:0:
264,276,170969,1,0,0:0:0:0:
264,308,171048,1,0,0:0:0:0:
272,340,171127,1,0,0:0:0:0:
292,364,171206,1,0,0:0:0:0:
324,376,171285,1,0,0:0:0:0:
356,376,171364,1,0,0:0:0:0:
388,368,171443,1,0,0:0:0:0:
404,356,171521,5,0,0:0:0:0:
416,336,171600,1,0,0:0:0:0:
424,316,171679,1,0,0:0:0:0:
428,296,171758,2,0,B|380:208|476:208|420:64,1,215.999993408203
416,52,172153,5,0,0:0:0:0:
376,32,172232,1,0,0:0:0:0:
332,32,172311,1,0,0:0:0:0:
288,40,172390,1,0,0:0:0:0:
248,52,172469,1,0,0:0:0:0:
212,76,172548,1,0,0:0:0:0:
180,104,172627,5,0,0:0:0:0:
160,144,172706,1,0,0:0:0:0:
152,188,172785,1,0,0:0:0:0:
152,232,172864,1,0,0:0:0:0:
160,276,172943,1,0,0:0:0:0:
184,312,173021,1,0,0:0:0:0:
220,336,173100,5,0,0:0:0:0:
264,344,173179,1,0,0:0:0:0:
308,336,173258,1,0,0:0:0:0:
344,316,173337,1,0,0:0:0:0:
384,304,173416,1,0,0:0:0:0:
424,312,173495,1,0,0:0:0:0:
456,336,173574,5,0,0:0:0:0:
436,296,173653,1,0,0:0:0:0:
420,256,173732,1,0,0:0:0:0:
408,216,173811,1,0,0:0:0:0:
424,176,173890,1,0,0:0:0:0:
452,144,173969,1,0,0:0:0:0:
488,124,174048,5,0,0:0:0:0:
504,84,174127,1,0,0:0:0:0:
492,44,174206,1,0,0:0:0:0:
452,24,174285,1,0,0:0:0:0:
408,32,174364,1,0,0:0:0:0:
368,44,174443,2,0,L|284:76,3,53.9999983520508
284,84,174758,5,0,0:0:0:0:
276,128,174837,1,0,0:0:0:0:
288,168,174916,1,0,0:0:0:0:
316,200,174995,1,0,0:0:0:0:
336,236,175074,1,0,0:0:0:0:
328,280,175153,1,0,0:0:0:0:
292,304,175232,5,0,0:0:0:0:
248,308,175311,1,0,0:0:0:0:
212,288,175390,1,0,0:0:0:0:
196,248,175469,1,0,0:0:0:0:
204,204,175548,1,0,0:0:0:0:
224,168,175627,1,0,0:0:0:0:
216,124,175706,5,0,0:0:0:0:
188,92,175785,1,0,0:0:0:0:
148,80,175864,1,0,0:0:0:0:
104,84,175942,1,0,0:0:0:0:
68,108,176021,1,0,0:0:0:0:
52,148,176100,1,0,0:0:0:0:
68,188,176179,5,0,0:0:0:0:
88,224,176258,1,0,0:0:0:0:
100,264,176337,1,0,0:0:0:0:
100,308,176416,1,0,0:0:0:0:
88,348,176495,1,0,0:0:0:0:
232,308,176653,6,0,P|312:272|320:248,1,107.999996704102
164,84,176969,2,0,P|112:112|100:184,1,107.999996704102
325,227,177285,2,0,P|384:244|448:212,1,107.999996704102
428,52,177600,2,0,P|368:36|308:76,1,107.999996704102
224,192,177916,5,0,0:0:0:0:
188,360,178074,1,0,0:0:0:0:
48,260,178232,1,0,0:0:0:0:
60,88,178390,5,0,0:0:0:0:
96,64,178469,1,0,0:0:0:0:
136,48,178548,1,0,0:0:0:0:
180,44,178627,1,0,0:0:0:0:
224,52,178706,1,0,0:0:0:0:
264,64,178785,1,0,0:0:0:0:
296,92,178864,1,0,0:0:0:0:
224,192,179021,6,0,P|200:244|208:300,1,107.999996704102
424,328,179337,2,0,P|444:276|440:220,1,107.999996704102
376,68,179653,1,0,0:0:0:0:
336,76,179732,1,0,0:0:0:0:
296,92,179811,1,0,0:0:0:0:
264,124,179890,1,0,0:0:0:0:
240,164,179969,1,0,0:0:0:0:
232,204,180048,1,0,0:0:0:0:
232,244,180127,1,0,0:0:0:0:
344,240,180285,5,0,0:0:0:0:
232,340,180443,1,0,0:0:0:0:
120,240,180600,1,0,0:0:0:0:
232,144,180758,1,0,0:0:0:0:
392,112,180916,2,0,P|480:108|496:92,1,107.999996704102
324,216,181232,1,0,0:0:0:0:
324,216,181390,2,0,P|236:224|204:260,1,107.999996704102
432,176,181706,5,0,0:0:0:0:
444,216,181785,1,0,0:0:0:0:
448,256,181864,1,0,0:0:0:0:
440,296,181943,1,0,0:0:0:0:
424,336,182021,2,0,P|364:348|308:312,1,107.999996704102
176,352,182337,5,0,0:0:0:0:
324,216,182495,1,0,0:0:0:0:
192,164,182653,1,0,0:0:0:0:
300,36,182811,1,0,0:0:0:0:
324,216,182969,1,0,0:0:0:0:
176,352,183127,2,0,P|232:320|248:264,1,107.999996704102
272,148,183443,5,0,0:0:0:0:
104,280,183600,1,0,0:0:0:0:
104,280,183758,2,0,L|76:176,1,107.999996704102
272,148,184074,1,0,0:0:0:0:
481,148,184232,1,0,0:0:0:0:
408,336,184390,2,0,P|344:352|288:312,1,107.999996704102
272,148,184706,1,0,0:0:0:0:
164,340,184864,5,0,0:0:0:0:
164,168,185021,1,0,0:0:0:0:
8,244,185179,1,0,0:0:0:0:
164,340,185337,1,0,0:0:0:0:
164,168,185495,1,0,0:0:0:0:
48,40,185653,2,0,L|56:176,1,107.999996704102
56,312,185969,5,0,0:0:0:0:
164,168,186127,1,0,0:0:0:0:
268,308,186285,1,0,0:0:0:0:
416,224,186443,1,0,0:0:0:0:
192,68,186600,1,0,0:0:0:0:
192,68,186679,1,0,0:0:0:0:
192,68,186758,1,0,0:0:0:0:
340,96,186916,5,0,0:0:0:0:
164,168,187074,1,0,0:0:0:0:
324,240,187232,1,0,0:0:0:0:
188,348,187390,1,0,0:0:0:0:
164,168,187548,6,0,L|148:280,1,107.999996704102
264,88,187864,1,0,0:0:0:0:
92,88,188021,1,0,0:0:0:0:
324,240,188179,1,0,0:0:0:0:
164,168,188337,1,0,0:0:0:0:
148,274,188495,2,0,P|200:286|264:266,1,107.999996704102
300,136,188811,5,0,0:0:0:0:
208,48,188969,1,0,0:0:0:0:
380,44,189127,1,0,0:0:0:0:
380,216,189285,1,0,0:0:0:0:
208,220,189443,1,0,0:0:0:0:
76,328,189600,5,0,0:0:0:0:
256,36,190232,1,0,0:0:0:0:
436,328,190864,1,0,0:0:0:0:
256,192,191495,1,0,0:0:0:0:
256,192,191811,1,0,0:0:0:0:
256,192,191890,1,0,0:0:0:0:
256,192,191969,2,0,L|256:312,1,107.999996704102
