osu file format v14

[General]
AudioFilename: Die jeff williams.mp3
AudioLeadIn: 0
PreviewTime: 53969
Countdown: 0
SampleSet: None
StackLeniency: 0.3
Mode: 0
LetterboxInBreaks: 0
WidescreenStoryboard: 1

[Editor]
Bookmarks: 10390,72285,74811,93758,96285,97548,161811
DistanceSpacing: 2
BeatDivisor: 4
GridSize: 4
TimelineZoom: 1.9

[Metadata]
Title:Die (feat. Casey Lee Williams)
TitleUnicode:Die (feat. Casey Lee Williams)
Artist:Jeff Williams
ArtistUnicode:Jeff Williams
Creator:Catalysis
Version:Missing
Source:RWBY Volume 2
Tags:rwby rooster teeth ruby yang weiss blake Lince Cosmico
BeatmapID:1173679
BeatmapSetID:554359

[Difficulty]
HPDrainRate:6
CircleSize:4
OverallDifficulty:9
ApproachRate:9.2
SliderMultiplier:1.8
SliderTickRate:1

[Events]
//Background and Video events
0,0,"670353.jpg",0,0
//Break Periods
//Storyboard Layer 0 (Background)
//Storyboard Layer 1 (Fail)
//Storyboard Layer 2 (Pass)
//Storyboard Layer 3 (Foreground)
//Storyboard Sound Samples

[TimingPoints]
285,315.789702970297,4,1,0,40,1,0
285,-100,4,1,0,40,0,0
10074,-125,4,1,0,40,0,0
10390,-90.9090909090909,4,1,0,50,0,0
19232,-142.857142857143,4,1,0,50,0,0
20495,-111.111111111111,4,1,0,50,0,0
21758,-83.3333333333333,4,1,0,50,0,0
39285,-100,4,1,0,50,0,0
39758,-83.3333333333333,4,1,0,50,0,0
41811,-100,4,1,0,50,0,0
42285,-83.3333333333333,4,1,0,50,0,0
43863,-71.4285714285714,4,1,0,50,0,0
44337,-83.3333333333333,4,1,0,65,0,1
44653,-83.3333333333333,4,1,1,65,0,1
49390,-83.3333333333333,4,1,0,65,0,1
49706,-83.3333333333333,4,1,1,65,0,1
54442,-100,4,1,0,65,0,1
54916,-83.3333333333333,4,1,1,60,0,1
56969,-100,4,1,0,60,0,1
57442,-83.3333333333333,4,1,1,60,0,1
59495,-83.3333333333333,4,1,0,60,0,1
59574,-83.3333333333333,4,1,1,60,0,1
59653,-83.3333333333333,4,1,0,60,0,1
62495,-83.3333333333333,4,1,1,60,0,1
63442,-76.9230769230769,4,1,0,50,0,0
63521,-76.9230769230769,4,1,1,50,0,0
63758,-76.9230769230769,4,1,0,50,0,0
63837,-76.9230769230769,4,1,1,50,0,0
64074,-76.9230769230769,4,1,0,50,0,0
64548,-133.333333333333,4,1,0,50,0,0
72285,-90.9090909090909,4,1,0,50,0,0
74811,-90.9090909090909,4,1,0,50,0,0
79942,-90.9090909090909,4,1,1,5,0,0
81127,-90.9090909090909,4,1,0,50,0,0
84285,-200,4,1,0,50,0,0
84916,-90.9090909090909,4,1,0,50,0,0
93758,-142.857142857143,4,1,0,50,0,0
95021,-111.111111111111,4,1,0,50,0,0
96285,-83.3333333333333,4,1,0,50,0,0
113811,-100,4,1,0,50,0,0
114285,-83.3333333333333,4,1,0,50,0,0
116337,-100,4,1,0,50,0,0
116811,-83.3333333333333,4,1,0,50,0,0
117758,-100,4,1,0,40,0,0
118074,-100,4,1,0,60,0,0
118390,-100,4,1,0,80,0,0
118864,-83.3333333333333,4,1,1,65,0,1
120285,-90.9090909090909,4,1,1,50,0,1
123916,-111.111111111111,4,1,0,50,0,1
124390,-90.9090909090909,4,1,1,50,0,1
137969,-66.6666666666667,4,1,1,60,0,1
138916,-83.3333333333333,4,1,1,65,0,1
139074,-100,4,1,0,50,0,0
149179,-90.9090909090909,4,1,0,45,0,0
156758,-111.111111111111,4,1,0,45,0,0
161811,-133.333333333333,4,1,0,5,0,0
164337,-83.3333333333333,4,1,1,65,0,1
171916,-83.3333333333333,4,1,0,65,0,1
172390,-83.3333333333333,4,1,1,65,0,1
174443,-83.3333333333333,4,1,0,65,0,1
174916,-83.3333333333333,4,1,1,65,0,1
176653,-83.3333333333333,4,1,0,65,0,1
179969,-83.3333333333333,4,1,1,65,0,1
180916,-83.3333333333333,4,1,0,65,0,1
180995,-83.3333333333333,4,1,1,65,0,1
181232,-83.3333333333333,4,1,0,65,0,1
181311,-83.3333333333333,4,1,1,65,0,1
181548,-83.3333333333333,4,1,0,65,0,1
182021,-111.111111111111,4,1,0,50,0,0
182495,-76.9230769230769,4,1,0,50,0,0
184548,-111.111111111111,4,1,0,50,0,0
185021,-76.9230769230769,4,1,0,50,0,0
187074,-111.111111111111,4,1,0,50,0,0
187548,-76.9230769230769,4,1,0,50,0,0
189600,-200,4,1,0,50,0,0
191811,-83.3333333333333,4,1,0,40,0,0

[Colours]
Combo1 : 255,128,64
Combo2 : 128,0,0
Combo3 : 255,255,0
Combo4 : 192,192,192

[HitObjects]
112,272,285,6,0,P|164:280|200:272,1,90
156,184,600,1,0,0:0:0:0:
188,360,758,2,0,B|232:360|256:340|256:340|296:360|296:360|324:344|368:360,1,180
357,356,1232,1,0,0:0:0:0:
468,240,1390,6,0,B|480:196|480:196|468:116|468:116|484:64,1,180,4|0,0:0|0:0,0:0:0:0:
483,64,1863,1,0,0:0:0:0:
380,188,2021,2,0,P|332:204|204:184,1,180,0|0,0:0|0:0,0:0:0:0:
296,48,2495,1,0,0:0:0:0:
380,188,2653,6,0,B|400:280|400:280|380:368,1,180,4|0,0:0|0:0,0:0:0:0:
380,363,3127,1,0,0:0:0:0:
240,284,3285,2,0,B|188:284|148:268|148:268|108:284|60:284,1,180,0|0,0:0|0:0,0:0:0:0:
63,283,3758,1,0,0:0:0:0:
104,128,3916,6,0,B|140:120|168:136|168:136|216:124|216:124|256:144|288:128,1,180,4|0,0:0|0:0,0:0:0:0:
260,52,4390,1,0,0:0:0:0:
144,208,4548,2,0,B|124:292|124:292|144:384,2,180,8|8|8,0:0|0:0|0:0,0:0:0:0:
260,52,5337,6,0,P|308:44|352:52,1,90,0|0,0:0|0:0,0:0:0:0:
452,176,5653,1,0,0:0:0:0:
348,300,5811,2,0,B|308:308|280:292|280:292|228:304|228:304|204:292|168:300,1,180,0|0,0:0|0:0,0:0:0:0:
172,299,6285,1,0,0:0:0:0:
268,180,6442,1,0,0:0:0:0:
268,180,6600,6,0,L|264:84,1,90,4|0,0:0|0:0,0:0:0:0:
172,136,6916,1,0,0:0:0:0:
288,276,7074,2,0,B|336:296|380:276|380:276|424:256|468:276,1,180,0|0,0:0|0:0,0:0:0:0:
462,273,7548,1,0,0:0:0:0:
372,120,7706,1,0,0:0:0:0:
288,276,7863,6,0,P|280:328|288:372,1,90,4|0,0:0|0:0,0:0:0:0:
368,320,8179,1,0,0:0:0:0:
232,200,8337,2,0,L|136:204,2,90,0|0|0,0:0|0:0|0:0,0:0:0:0:
136,352,8811,1,0,0:0:0:0:
56,188,8969,1,0,0:0:0:0:
56,188,9127,6,0,L|60:96,1,90,8|8,0:0|0:0,0:0:0:0:
220,32,9758,1,8,0:0:0:0:
280,100,9916,2,0,P|328:104|376:100,2,90,0|0|0,0:0|0:0|0:0,0:0:0:0:
460,12,10390,5,4,0:0:0:0:
380,192,10548,2,0,P|328:196|272:192,2,99.0000030212403,0|8|0,0:0|0:0|0:0,0:0:0:0:
328,64,11021,1,0,0:0:0:0:
192,208,11179,1,0,0:0:0:0:
192,208,11337,2,0,P|184:260|192:312,1,99.0000030212403,8|0,0:0|0:0,0:0:0:0:
320,256,11653,5,0,0:0:0:0:
180,116,11811,1,0,0:0:0:0:
180,116,11969,2,0,L|80:120,1,99.0000030212403,8|0,0:0|0:0,0:0:0:0:
128,252,12285,1,0,0:0:0:0:
268,116,12442,2,0,L|264:16,2,99.0000030212403,0|8|0,0:0|0:0|0:0,0:0:0:0:
332,304,12916,6,0,P|384:312|440:304,1,99.0000030212403,0|0,0:0|0:0,0:0:0:0:
365,118,13232,2,0,P|313:110|257:118,1,99.0000030212403,8|0,0:0|0:0,0:0:0:0:
312,204,13548,1,0,0:0:0:0:
312,204,13706,1,0,0:0:0:0:
456,100,13863,2,0,L|460:0,1,99.0000030212403,8|0,0:0|0:0,0:0:0:0:
296,76,14179,5,0,0:0:0:0:
296,76,14337,1,0,0:0:0:0:
396,224,14495,2,0,P|404:280|396:332,2,99.0000030212403,8|0|0,0:0|0:0|0:0,0:0:0:0:
296,76,14969,2,0,P|244:72|184:80,1,99.0000030212403,0|8,0:0|0:0,0:0:0:0:
244,252,15285,1,0,0:0:0:0:
400,127,15442,6,0,P|404:71|292:87,1,198.000006042481,4|8,0:0|0:0,0:0:0:0:
244,252,15916,1,0,0:0:0:0:
244,252,16074,2,0,L|348:248,1,99.0000030212403
156,180,16390,2,0,P|136:232|136:296,1,99.0000030212403,8|0,0:0|0:0,0:0:0:0:
244,252,16706,5,0,0:0:0:0:
124,96,16863,1,0,0:0:0:0:
124,96,17021,2,0,L|20:100,1,99.0000030212403,8|0,0:0|0:0,0:0:0:0:
133,274,17337,1,0,0:0:0:0:
268,132,17495,1,0,0:0:0:0:
124,96,17653,1,8,0:0:0:0:
244,252,17811,6,0,B|288:260|316:240|316:240|360:256|360:256|392:236|444:252,1,198.000006042481,4|0,0:0|0:0,0:0:0:0:
384,56,18285,2,0,L|360:164,1,99.0000030212403,8|0,0:0|0:0,0:0:0:0:
504,12,18600,1,0,0:0:0:0:
504,12,18758,1,0,0:0:0:0:
304,16,18916,2,0,L|276:128,1,99.0000030212403,8|0,0:0|0:0,0:0:0:0:
332,228,19232,6,0,P|368:232|400:228,1,62.9999980773926,6|0,0:0|0:0,0:0:0:0:
468,180,19548,1,0,0:0:0:0:
464,92,19706,1,0,0:0:0:0:
400,32,19863,1,0,0:0:0:0:
312,32,20021,1,0,0:0:0:0:
256,100,20179,1,0,0:0:0:0:
176,140,20337,1,0,0:0:0:0:
88,128,20495,6,0,P|80:92|88:44,1,80.9999975280763,6|0,0:0|0:0,0:0:0:0:
172,0,20811,1,0,0:0:0:0:
264,28,20969,1,0,0:0:0:0:
312,112,21127,1,0,0:0:0:0:
312,208,21285,1,0,0:0:0:0:
264,292,21442,1,0,0:0:0:0:
172,324,21600,1,0,0:0:0:0:
172,324,21679,1,0,0:0:0:0:
172,324,21758,6,0,L|60:312,1,107.999996704102,14|0,0:0|0:0,0:0:0:0:
200,144,22074,1,0,0:0:0:0:
264,292,22232,2,0,L|388:288,1,107.999996704102,8|0,0:0|0:0,0:0:0:0:
200,144,22548,1,0,0:0:0:0:
64,204,22706,2,0,P|60:264|64:312,1,107.999996704102,8|0,0:0|0:0,0:0:0:0:
272,376,23021,5,8,0:0:0:0:
312,360,23100,1,0,0:0:0:0:
340,324,23179,1,0,0:0:0:0:
344,280,23258,1,0,0:0:0:0:
328,240,23337,1,8,0:0:0:0:
292,216,23416,1,0,0:0:0:0:
252,204,23495,1,0,0:0:0:0:
216,184,23574,1,0,0:0:0:0:
200,144,23653,1,8,0:0:0:0:
204,100,23732,1,0,0:0:0:0:
224,60,23811,1,8,0:0:0:0:
260,36,23890,1,0,0:0:0:0:
304,32,23969,1,8,0:0:0:0:
344,44,24048,1,0,0:0:0:0:
368,80,24127,1,8,0:0:0:0:
376,124,24206,1,0,0:0:0:0:
368,168,24285,6,0,P|296:204|296:104,1,215.999993408203,4|8,0:0|0:0,0:0:0:0:
464,88,24758,1,0,0:0:0:0:
376,272,24916,2,0,P|320:284|264:276,1,107.999996704102,0|0,0:0|0:0,0:0:0:0:
132,112,25232,2,0,P|188:100|244:108,1,107.999996704102,8|0,0:0|0:0,0:0:0:0:
140,236,25548,6,0,P|56:212|8:96,1,215.999993408203,4|8,0:0|0:0,0:0:0:0:
152,24,26021,1,0,0:0:0:0:
152,24,26179,2,0,L|259:16,2,107.999996704102,0|0|8,0:0|0:0|0:0,0:0:0:0:
284,144,26653,1,0,0:0:0:0:
284,144,26811,6,0,P|292:200|284:252,1,107.999996704102,4|0,0:0|0:0,0:0:0:0:
116,206,27127,2,0,P|108:150|116:98,1,107.999996704102,8|0,0:0|0:0,0:0:0:0:
200,152,27442,1,0,0:0:0:0:
112,300,27600,2,0,P|56:308|0:300,2,107.999996704102,0|8|0,0:0|0:0|0:0,0:0:0:0:
200,152,28074,6,0,L|196:44,1,107.999996704102,4|0,0:0|0:0,0:0:0:0:
92,184,28390,2,0,L|88:76,1,107.999996704102,12|0,0:0|0:0,0:0:0:0:
284,12,28706,1,0,0:0:0:0:
164,232,28863,1,0,0:0:0:0:
88,76,29021,1,8,0:0:0:0:
280,152,29179,6,0,B|328:164|368:140|368:140|416:160|416:160|444:136|496:152,1,215.999993408203,2|0,0:0|0:0,0:0:0:0:
485,149,29653,2,0,P|492:208|488:260,1,107.999996704102,8|0,0:0|0:0,0:0:0:0:
344,356,29969,1,0,0:0:0:0:
268,276,30127,2,0,L|156:280,1,107.999996704102,0|8,0:0|0:0,0:0:0:0:
344,356,30442,6,0,B|356:296|356:296|336:212|336:212|348:136,1,215.999993408203,2|0,0:0|0:0,0:0:0:0:
346,144,30916,1,8,0:0:0:0:
512,276,31074,2,0,L|492:384,2,107.999996704102,0|0|0,0:0|0:0|0:0,0:0:0:0:
346,144,31548,1,8,0:0:0:0:
196,300,31706,6,0,P|136:288|196:184,1,215.999993408203,0|0,0:0|0:0,0:0:0:0:
336,256,32179,2,0,L|344:368,1,107.999996704102,8|0,0:0|0:0,0:0:0:0:
240,232,32495,1,0,0:0:0:0:
346,144,32653,2,0,L|456:152,1,107.999996704102,0|8,0:0|0:0,0:0:0:0:
240,232,32969,6,0,B|220:176|240:123|240:123|260:72|240:16,1,215.999993408203,0|0,0:0|0:0,0:0:0:0:
156,76,33442,1,0,0:0:0:0:
332,184,33600,1,0,0:0:0:0:
332,184,33679,1,0,0:0:0:0:
332,184,33758,1,8,0:0:0:0:
284,92,33916,1,0,0:0:0:0:
240,232,34074,1,8,0:0:0:0:
430,169,34232,6,0,P|414:105|278:97,1,215.999993408203
284,300,34706,1,8,0:0:0:0:
332,184,34863,1,0,0:0:0:0:
332,184,34942,1,0,0:0:0:0:
332,184,35021,1,0,0:0:0:0:
208,64,35179,2,0,L|96:68,1,107.999996704102,0|8,0:0|0:0,0:0:0:0:
160,232,35495,1,0,0:0:0:0:
284,112,35653,6,0,P|296:56|276:4,1,107.999996704102,0|0,0:0|0:0,0:0:0:0:
155,129,35969,2,0,P|143:185|163:237,1,107.999996704102,8|0,0:0|0:0,0:0:0:0:
228,176,36285,1,0,0:0:0:0:
108,56,36442,2,0,L|0:64,1,107.999996704102,0|8,0:0|0:0,0:0:0:0:
159,231,36758,6,0,L|376:212,1,215.999993408203,4|0,0:0|0:0,0:0:0:0:
256,84,37232,1,8,0:0:0:0:
236,300,37390,1,0,0:0:0:0:
236,300,37469,1,0,0:0:0:0:
236,300,37548,1,0,0:0:0:0:
364,140,37706,2,0,L|356:28,1,107.999996704102,0|8,0:0|0:0,0:0:0:0:
256,172,38021,1,0,0:0:0:0:
404,252,38179,6,0,L|512:244,1,107.999996704102
312,160,38495,2,0,L|324:272,1,107.999996704102,10|0,0:0|0:0,0:0:0:0:
468,104,38811,2,0,L|456:216,1,107.999996704102,10|0,0:0|0:0,0:0:0:0:
328,36,39127,1,8,0:0:0:0:
228,188,39285,6,0,P|168:196|184:96,1,180,4|0,0:0|0:0,0:0:0:0:
352,164,39758,2,0,L|364:276,1,107.999996704102,8|0,0:0|0:0,0:0:0:0:
228,188,40074,1,0,0:0:0:0:
396,88,40232,1,0,0:0:0:0:
363,271,40390,1,8,0:0:0:0:
276,96,40548,1,0,0:0:0:0:
452,220,40706,6,0,P|456:276|448:332,2,107.999996704102,0|0|8,0:0|0:0|0:0,0:0:0:0:
276,96,41179,1,0,0:0:0:0:
228,188,41337,2,0,P|176:192|112:188,1,107.999996704102,0|0,0:0|0:0,0:0:0:0:
176,48,41653,1,8,0:0:0:0:
308,172,41811,6,0,B|312:216|292:240|292:240|308:280|308:280|288:312|304:360,1,180,4|0,0:0|0:0,0:0:0:0:
228,188,42285,1,0,0:0:0:0:
392,324,42442,1,0,0:0:0:0:
184,320,42600,5,0,0:0:0:0:
308,172,42758,1,0,0:0:0:0:
299,342,42916,5,0,0:0:0:0:
256,108,43074,1,0,0:0:0:0:
136,240,43232,6,0,L|200:236,1,53.9999983520508,8|0,0:0|0:0,0:0:0:0:
255,107,43390,2,0,L|202:111,1,53.9999983520508,0|0,0:0|0:0,0:0:0:0:
352,220,43548,2,0,L|348:164,1,53.9999983520508,8|0,0:0|0:0,0:0:0:0:
198,57,43706,2,0,L|202:113,1,53.9999983520508,0|0,0:0|0:0,0:0:0:0:
252,264,43863,5,8,0:0:0:0:
344,88,44021,1,8,0:0:0:0:
132,100,44179,1,8,0:0:0:0:
332,300,44337,6,0,P|416:272|412:160,1,215.999993408203,4|0,0:0|0:0,0:0:0:0:
344,88,44732,1,0,0:0:0:0:
344,88,44811,2,0,L|232:92,1,107.999996704102,8|0,0:0|0:0,0:0:0:0:
172,240,45127,1,0,0:0:0:0:
352,220,45285,1,0,0:0:0:0:
236,91,45442,1,8,0:0:0:0:
276,288,45600,1,0,0:0:0:0:
416,140,45758,6,0,P|428:84|416:28,1,107.999996704102,0|0,0:0|0:0,0:0:0:0:
292,152,46074,1,8,0:0:0:0:
352,220,46232,2,0,P|412:244|520:148,1,215.999993408203,0|0,0:0|0:0,0:0:0:0:
464,64,46627,1,0,0:0:0:0:
464,64,46706,2,0,L|408:56,1,53.9999983520508,8|0,0:0|0:0,0:0:0:0:
308,92,46863,6,0,B|304:164|304:164|328:240|328:240|324:312,1,215.999993408203,4|0,0:0|0:0,0:0:0:0:
396,152,47337,1,8,0:0:0:0:
236,252,47495,1,0,0:0:0:0:
404,368,47653,2,0,P|460:376|512:368,1,107.999996704102
412,188,47969,1,8,0:0:0:0:
316,324,48127,1,0,0:0:0:0:
500,248,48285,6,0,L|496:128,1,107.999996704102
496,140,48521,1,0,0:0:0:0:
496,140,48600,1,8,0:0:0:0:
376,48,48758,1,0,0:0:0:0:
376,48,48837,1,0,0:0:0:0:
376,48,48916,1,8,0:0:0:0:
308,184,49074,1,0,0:0:0:0:
308,184,49153,1,0,0:0:0:0:
308,184,49232,2,0,L|240:180,1,53.9999983520508,8|0,0:0|0:0,0:0:0:0:
184,148,49390,6,0,P|172:88|280:116,1,215.999993408203,4|0,0:0|0:0,0:0:0:0:
232,316,49863,1,8,0:0:0:0:
184,148,50021,1,0,0:0:0:0:
328,280,50179,1,0,0:0:0:0:
136,248,50337,1,0,0:0:0:0:
324,140,50495,2,0,L|436:144,1,107.999996704102,8|0,0:0|0:0,0:0:0:0:
328,280,50811,5,0,0:0:0:0:
252,112,50969,2,0,L|256:0,1,107.999996704102,0|8,0:0|0:0,0:0:0:0:
360,60,51285,1,0,0:0:0:0:
216,228,51442,2,0,P|156:232|104:228,1,107.999996704102,0|0,0:0|0:0,0:0:0:0:
160,40,51758,1,8,0:0:0:0:
288,184,51916,6,0,P|296:248|168:300,1,215.999993408203,2|0,0:0|0:0,0:0:0:0:
176,304,52311,1,0,0:0:0:0:
176,304,52390,1,8,0:0:0:0:
216,228,52548,1,0,0:0:0:0:
344,376,52706,1,0,0:0:0:0:
400,296,52863,1,0,0:0:0:0:
400,296,52941,1,0,0:0:0:0:
400,296,53020,1,8,0:0:0:0:
348,108,53179,1,0,0:0:0:0:
216,228,53337,5,8,0:0:0:0:
172,232,53416,1,0,0:0:0:0:
132,212,53495,1,0,0:0:0:0:
112,172,53574,1,0,0:0:0:0:
112,128,53653,1,8,0:0:0:0:
132,92,53732,1,0,0:0:0:0:
164,64,53811,1,0,0:0:0:0:
208,64,53890,1,0,0:0:0:0:
248,80,53969,6,0,L|260:136,1,53.9999983520508,8|0,0:0|0:0,0:0:0:0:
200,324,54127,1,8,0:0:0:0:
32,152,54284,1,8,0:0:0:0:
248,80,54442,6,0,B|288:88|324:64|324:64|352:80|352:80|384:64|432:76,1,180,4|0,0:0|0:0,0:0:0:0:
452,100,54837,1,0,0:0:0:0:
460,148,54916,1,8,0:0:0:0:
452,196,54995,1,0,0:0:0:0:
412,224,55074,1,0,0:0:0:0:
364,232,55153,1,0,0:0:0:0:
316,224,55232,1,8,0:0:0:0:
272,200,55311,1,0,0:0:0:0:
236,164,55390,1,0,0:0:0:0:
188,152,55469,1,0,0:0:0:0:
140,164,55548,1,8,0:0:0:0:
108,200,55627,1,0,0:0:0:0:
108,248,55706,1,0,0:0:0:0:
128,292,55785,1,0,0:0:0:0:
168,316,55863,6,0,L|232:312,1,53.9999983520508,8|0,0:0|0:0,0:0:0:0:
364,136,56021,1,8,0:0:0:0:
432,340,56179,1,8,0:0:0:0:
272,200,56337,2,0,B|212:180|159:200|159:200|112:220|52:200,1,215.999993408203,8|0,0:0|0:0,0:0:0:0:
108,104,56811,1,2,0:0:0:0:
216,288,56969,6,0,P|288:304|376:212,1,180,4|0,0:0|0:0,0:0:0:0:
364,204,57363,1,0,0:0:0:0:
344,160,57442,1,8,0:0:0:0:
308,128,57521,1,0,0:0:0:0:
256,124,57600,1,0,0:0:0:0:
208,136,57679,1,0,0:0:0:0:
160,132,57758,1,8,0:0:0:0:
116,112,57837,1,0,0:0:0:0:
68,112,57916,1,0,0:0:0:0:
28,136,57995,1,0,0:0:0:0:
4,180,58074,1,8,0:0:0:0:
8,228,58153,1,0,0:0:0:0:
32,268,58232,1,0,0:0:0:0:
76,284,58311,1,0,0:0:0:0:
124,276,58390,6,0,L|184:280,1,53.9999983520508,8|0,0:0|0:0,0:0:0:0:
380,204,58548,1,8,0:0:0:0:
328,348,58706,1,8,0:0:0:0:
164,208,58863,2,0,B|152:136|152:136|192:80|192:80|184:0,1,215.999993408203,8|0,0:0|0:0,0:0:0:0:
212,8,59258,1,0,0:0:0:0:
240,8,59337,1,2,0:0:0:0:
268,8,59416,1,0,0:0:0:0:
296,8,59495,6,0,L|304:68,1,53.9999983520508
248,240,59653,1,0,0:0:0:0:
96,88,59811,1,0,0:0:0:0:
303,61,59969,5,0,0:0:0:0:
232,264,60127,1,0,0:0:0:0:
176,172,60285,5,0,0:0:0:0:
384,216,60442,1,0,0:0:0:0:
216,352,60600,5,0,0:0:0:0:
304,152,60758,1,0,0:0:0:0:
116,264,60916,5,0,0:0:0:0:
324,320,61074,1,0,0:0:0:0:
232,108,61232,5,0,0:0:0:0:
136,352,61390,1,0,0:0:0:0:
308,236,61548,1,0,0:0:0:0:
96,188,61706,5,0,0:0:0:0:
236,352,61863,1,0,0:0:0:0:
324,136,62021,6,0,P|320:72|192:24,1,215.999993408203,2|0,0:0|0:0,0:0:0:0:
116,264,62495,1,0,0:0:0:0:
136,264,62574,1,0,0:0:0:0:
156,264,62653,1,0,0:0:0:0:
176,264,62732,1,0,0:0:0:0:
196,264,62811,1,8,0:0:0:0:
76,112,62969,1,8,0:0:0:0:
44,324,63127,1,8,0:0:0:0:
204,176,63285,1,0,0:0:0:0:
204,176,63363,1,0,0:0:0:0:
204,176,63442,6,0,L|200:112,1,58.4999973220826,8|0,0:0|0:0,0:0:0:0:
96,60,63600,1,0,0:0:0:0:
96,60,63679,1,0,0:0:0:0:
96,60,63758,2,0,L|99:118,1,58.4999973220826,8|0,0:0|0:0,0:0:0:0:
136,264,63916,1,0,0:0:0:0:
136,264,63995,1,0,0:0:0:0:
136,264,64074,1,8,0:0:0:0:
260,64,64232,5,0,0:0:0:0:
296,64,64311,1,0,0:0:0:0:
332,64,64390,1,0,0:0:0:0:
368,64,64469,1,0,0:0:0:0:
400,64,64548,6,0,B|416:132|416:132|400:200,1,135.000005149842,4|0,0:0|0:0,0:0:0:0:
276,252,65021,1,0,0:0:0:0:
296,64,65179,1,0,0:0:0:0:
401,195,65337,5,0,0:0:0:0:
184,148,65495,1,0,0:0:0:0:
372,288,65653,5,0,0:0:0:0:
400,64,65811,1,0,0:0:0:0:
272,160,65969,5,0,0:0:0:0:
472,128,66127,1,0,0:0:0:0:
296,64,66285,5,0,0:0:0:0:
260,272,66442,1,0,0:0:0:0:
352,132,66600,5,0,0:0:0:0:
184,148,66758,1,0,0:0:0:0:
372,288,66916,1,0,0:0:0:0:
208,56,67074,6,0,L|72:60,1,135.000005149842,4|0,0:0|0:0,0:0:0:0:
96,196,67548,1,0,0:0:0:0:
256,0,67706,1,0,0:0:0:0:
73,59,67863,5,0,0:0:0:0:
264,176,68021,1,0,0:0:0:0:
180,60,68179,5,0,0:0:0:0:
192,272,68337,1,0,0:0:0:0:
280,76,68495,5,0,0:0:0:0:
104,176,68653,1,0,0:0:0:0:
280,264,68811,5,0,0:0:0:0:
92,84,68969,1,0,0:0:0:0:
96,272,69127,5,0,0:0:0:0:
96,272,69206,1,0,0:0:0:0:
96,272,69285,1,0,0:0:0:0:
336,136,69442,1,0,0:0:0:0:
180,60,69600,6,0,B|144:64|120:52|120:52|92:64|92:64|68:56|40:64,1,135.000005149842,4|0,0:0|0:0,0:0:0:0:
104,176,70074,1,0,0:0:0:0:
220,0,70232,1,0,0:0:0:0:
49,61,70390,5,0,0:0:0:0:
192,224,70548,1,0,0:0:0:0:
180,60,70706,5,0,0:0:0:0:
8,160,70863,1,0,0:0:0:0:
244,144,71021,5,0,0:0:0:0:
116,0,71179,1,0,0:0:0:0:
116,264,71337,5,0,0:0:0:0:
264,60,71495,1,0,0:0:0:0:
156,144,71653,5,0,0:0:0:0:
316,252,71811,1,0,0:0:0:0:
180,60,71969,5,0,0:0:0:0:
152,60,72048,1,0,0:0:0:0:
124,64,72127,1,0,0:0:0:0:
100,80,72206,1,0,0:0:0:0:
84,100,72285,5,12,0:0:0:0:
212,248,72442,1,0,0:0:0:0:
264,60,72600,1,0,0:0:0:0:
184,144,72758,1,0,0:0:0:0:
184,144,72916,5,12,0:0:0:0:
312,292,73073,1,0,0:0:0:0:
364,104,73231,1,0,0:0:0:0:
284,188,73389,1,0,0:0:0:0:
284,188,73548,5,12,0:0:0:0:
412,336,73705,1,0,0:0:0:0:
464,148,73863,1,0,0:0:0:0:
384,232,74021,1,0,0:0:0:0:
264,76,74179,5,0,0:0:0:0:
242,82,74257,1,0,0:0:0:0:
223,92,74336,1,0,0:0:0:0:
206,105,74415,1,0,0:0:0:0:
191,122,74494,1,0,0:0:0:0:
180,141,74573,1,0,0:0:0:0:
173,162,74652,1,0,0:0:0:0:
170,183,74731,1,0,0:0:0:0:
171,205,74811,5,8,0:0:0:0:
224,288,76074,5,0,0:0:0:0:
320,304,77338,5,0,0:0:0:0:
384,232,78600,5,0,0:0:0:0:
376,132,79232,5,0,0:0:0:0:
304,64,79706,1,0,0:0:0:0:
304,64,79785,1,0,0:0:0:0:
304,64,79864,6,0,B|252:48|204:64|204:64|160:84|104:64,1,198.000006042481
32,4,81127,5,0,0:0:0:0:
20,104,81758,5,0,0:0:0:0:
96,168,82390,5,0,0:0:0:0:
188,136,83653,5,0,0:0:0:0:
272,84,84285,6,0,B|308:88|336:72|336:72|368:84|368:84|392:68|436:76,1,157.5
500,140,84916,6,0,P|504:200|500:240,1,99.0000030212403,0|0,0:0|0:0,0:0:0:0:
324,328,85232,1,8,0:0:0:0:
252,260,85390,2,0,L|152:264,2,99.0000030212403,0|0|0,0:0|0:0|0:0,0:0:0:0:
208,352,85864,1,8,0:0:0:0:
100,188,86021,6,0,P|96:136|104:84,2,99.0000030212403,0|0|0,0:0|0:0|0:0,0:0:0:0:
224,32,86495,1,8,0:0:0:0:
24,32,86653,1,0,0:0:0:0:
116,208,86811,2,0,P|168:216|220:208,1,99.0000030212403,0|0,0:0|0:0,0:0:0:0:
164,124,87127,1,8,0:0:0:0:
32,272,87285,6,0,L|32:376,2,99.0000030212403,0|0|0,0:0|0:0|0:0,0:0:0:0:
88,84,87758,1,8,0:0:0:0:
228,224,87916,2,0,P|284:228|336:224,1,99.0000030212403,0|0,0:0|0:0,0:0:0:0:
276,96,88232,1,0,0:0:0:0:
144,244,88390,2,0,L|148:344,1,99.0000030212403,8|0,0:0|0:0,0:0:0:0:
279,194,88706,6,0,L|275:95,1,99.0000030212403,0|0,0:0|0:0,0:0:0:0:
196,152,89021,1,8,0:0:0:0:
372,240,89179,2,0,P|436:244|484:240,2,99.0000030212403
196,152,89653,1,8,0:0:0:0:
276,96,89811,1,0,0:0:0:0:
276,96,89890,1,0,0:0:0:0:
276,96,89969,6,0,P|292:160|200:248,1,198.000006042481,4|8,0:0|0:0,0:0:0:0:
196,152,90442,1,0,0:0:0:0:
380,88,90599,2,0,P|388:136|380:204,1,99.0000030212403,0|0,0:0|0:0,0:0:0:0:
200,249,90916,1,8,0:0:0:0:
200,249,91074,6,0,P|192:201|200:133,1,99.0000030212403,0|0,0:0|0:0,0:0:0:0:
288,192,91390,1,0,0:0:0:0:
156,340,91548,1,8,0:0:0:0:
156,340,91706,2,0,L|56:344,1,99.0000030212403,0|0,0:0|0:0,0:0:0:0:
189,195,92021,1,0,0:0:0:0:
189,195,92179,1,8,0:0:0:0:
328,336,92337,6,0,P|392:348|464:248,1,198.000006042481,4|0,0:0|0:0,0:0:0:0:
352,88,92811,1,8,0:0:0:0:
352,88,92969,2,0,L|248:92,1,99.0000030212403,0|0,0:0|0:0,0:0:0:0:
196,172,93285,1,0,0:0:0:0:
72,16,93443,1,8,0:0:0:0:
72,16,93521,1,0,0:0:0:0:
72,16,93600,1,0,0:0:0:0:
12,128,93758,6,0,P|8:164|12:192,1,62.9999980773926,6|0,0:0|0:0,0:0:0:0:
72,256,94074,1,0,0:0:0:0:
160,272,94232,1,0,0:0:0:0:
236,228,94390,1,0,0:0:0:0:
264,144,94548,1,0,0:0:0:0:
300,64,94706,1,0,0:0:0:0:
384,32,94864,1,0,0:0:0:0:
468,60,95021,6,0,P|484:100|480:168,1,80.9999975280763,6|0,0:0|0:0,0:0:0:0:
428,224,95337,1,0,0:0:0:0:
324,248,95495,1,0,0:0:0:0:
228,200,95653,1,0,0:0:0:0:
152,128,95811,1,0,0:0:0:0:
48,136,95969,1,0,0:0:0:0:
4,232,96127,1,0,0:0:0:0:
48,332,96285,6,0,P|104:344|164:332,1,107.999996704102,14|0,0:0|0:0,0:0:0:0:
296,172,96600,1,0,0:0:0:0:
364,256,96758,2,0,P|420:260|488:256,1,107.999996704102,8|0,0:0|0:0,0:0:0:0:
368,68,97074,1,0,0:0:0:0:
248,248,97232,2,0,L|252:360,1,107.999996704102,8|0,0:0|0:0,0:0:0:0:
376,168,97548,5,0,0:0:0:0:
349,168,97626,1,0,0:0:0:0:
322,169,97705,1,0,0:0:0:0:
295,170,97784,1,0,0:0:0:0:
268,171,97863,5,8,0:0:0:0:
176,292,98021,1,0,0:0:0:0:
104,88,98179,1,8,0:0:0:0:
44,228,98337,1,0,0:0:0:0:
212,92,98495,1,8,0:0:0:0:
248,88,98574,1,0,0:0:0:0:
284,84,98653,1,0,0:0:0:0:
320,80,98732,1,0,0:0:0:0:
356,76,98811,6,0,B|376:128|376:128|376:188,1,107.999996704102,4|0,0:0|0:0,0:0:0:0:
176,292,99127,2,0,B|156:240|156:240|156:180,1,107.999996704102,8|0,0:0|0:0,0:0:0:0:
260,216,99442,1,0,0:0:0:0:
116,376,99600,2,0,L|4:372,1,107.999996704102,0|8,0:0|0:0,0:0:0:0:
152,212,99916,6,0,L|259:215,1,107.999996704102,0|0,0:0|0:0,0:0:0:0:
176,292,100232,1,0,0:0:0:0:
96,140,100390,2,0,P|92:84|100:28,1,107.999996704102,8|0,0:0|0:0,0:0:0:0:
264,84,100706,1,0,0:0:0:0:
260,216,100864,1,0,0:0:0:0:
116,120,101021,2,0,P|112:64|120:8,1,107.999996704102,8|0,0:0|0:0,0:0:0:0:
262,108,101337,6,0,P|266:164|258:220,1,107.999996704102,0|0,0:0|0:0,0:0:0:0:
124,324,101653,2,0,L|16:320,1,107.999996704102,8|0,0:0|0:0,0:0:0:0:
116,120,101969,1,0,0:0:0:0:
116,120,102127,1,0,0:0:0:0:
200,272,102285,2,0,P|208:332|200:380,1,107.999996704102,8|0,0:0|0:0,0:0:0:0:
92,204,102600,6,0,L|200:192,1,107.999996704102,2|0,0:0|0:0,0:0:0:0:
307,366,102916,2,0,L|199:378,1,107.999996704102,10|0,0:0|0:0,0:0:0:0:
316,208,103232,1,0,0:0:0:0:
316,208,103390,1,0,0:0:0:0:
392,276,103548,1,8,0:0:0:0:
336,80,103706,6,0,B|288:88|256:68|256:68|204:84|204:84|164:64|120:80,1,215.999993408203,4|0,0:0|0:0,0:0:0:0:
72,288,104179,1,8,0:0:0:0:
127,77,104337,1,0,0:0:0:0:
209,205,104495,2,0,P|269:213|325:205,1,107.999996704102,0|0,0:0|0:0,0:0:0:0:
264,112,104811,1,8,0:0:0:0:
100,216,104969,6,0,P|152:296|264:304,1,215.999993408203
184,128,105442,2,0,L|72:132,1,107.999996704102,8|0,0:0|0:0,0:0:0:0:
208,204,105758,1,0,0:0:0:0:
264,112,105916,2,0,P|272:56|260:0,1,107.999996704102,0|8,0:0|0:0,0:0:0:0:
208,204,106232,6,0,B|260:216|296:188|296:188|336:208|336:208|372:184|428:200,1,215.999993408203,0|0,0:0|0:0,0:0:0:0:
492,372,106706,1,8,0:0:0:0:
412,196,106864,1,0,0:0:0:0:
364,280,107021,1,0,0:0:0:0:
484,128,107179,2,0,P|492:72|480:16,1,107.999996704102,0|8,0:0|0:0,0:0:0:0:
308,112,107495,6,0,B|260:132|200:112|200:112|152:88|92:112,1,215.999993408203,4|0,0:0|0:0,0:0:0:0:
252,8,107969,1,0,0:0:0:0:
280,200,108127,1,0,0:0:0:0:
280,200,108206,1,0,0:0:0:0:
280,200,108285,1,8,0:0:0:0:
136,72,108442,1,0,0:0:0:0:
124,72,108521,1,0,0:0:0:0:
112,72,108600,1,0,0:0:0:0:
100,72,108679,1,0,0:0:0:0:
88,72,108758,6,0,P|32:100|92:208,1,215.999993408203,4|0,0:0|0:0,0:0:0:0:
288,124,109232,2,0,L|296:16,1,107.999996704102,8|0,0:0|0:0,0:0:0:0:
295,16,109469,1,0,0:0:0:0:
295,16,109548,1,0,0:0:0:0:
164,188,109706,1,0,0:0:0:0:
378,217,109864,1,8,0:0:0:0:
378,217,110021,6,0,P|402:169|286:125,1,215.999993408203,4|0,0:0|0:0,0:0:0:0:
284,340,110495,1,8,0:0:0:0:
472,232,110653,1,0,0:0:0:0:
472,232,110811,2,0,P|488:168|480:112,1,107.999996704102
320,16,111127,1,8,0:0:0:0:
252,100,111285,6,0,P|200:120|36:96,1,215.999993408203,4|0,0:0|0:0,0:0:0:0:
152,8,111758,1,8,0:0:0:0:
260,196,111916,1,0,0:0:0:0:
260,196,112074,2,0,L|252:308,1,107.999996704102,0|0,0:0|0:0,0:0:0:0:
144,115,112390,2,0,L|151:7,1,107.999996704102,8|0,0:0|0:0,0:0:0:0:
260,196,112706,5,0,0:0:0:0:
92,240,112864,1,0,0:0:0:0:
156,80,113021,2,0,L|268:84,1,107.999996704102,8|0,0:0|0:0,0:0:0:0:
368,220,113337,1,8,0:0:0:0:
380,112,113495,1,0,0:0:0:0:
256,292,113653,1,8,0:0:0:0:
456,176,113811,6,0,P|480:108|416:16,1,180,4|0,0:0|0:0,0:0:0:0:
244,140,114285,2,0,L|132:132,1,107.999996704102,8|0,0:0|0:0,0:0:0:0:
276,32,114600,5,0,0:0:0:0:
292,236,114758,1,0,0:0:0:0:
176,56,114916,2,0,L|64:48,1,107.999996704102,8|0,0:0|0:0,0:0:0:0:
300,0,115232,5,0,0:0:0:0:
316,204,115390,1,0,0:0:0:0:
200,24,115548,2,0,L|88:16,1,107.999996704102,8|0,0:0|0:0,0:0:0:0:
200,208,115864,1,8,0:0:0:0:
276,32,116021,1,0,0:0:0:0:
92,148,116179,1,8,0:0:0:0:
260,264,116337,6,0,B|304:264|332:252|332:252|372:264|372:264|408:252|444:264,1,180,4|0,0:0|0:0,0:0:0:0:
408,348,116811,1,8,0:0:0:0:
280,172,116969,1,0,0:0:0:0:
348,256,117127,1,8,0:0:0:0:
140,196,117285,1,0,0:0:0:0:
292,136,117443,1,8,0:0:0:0:
240,344,117600,1,0,0:0:0:0:
88,212,117758,6,0,L|76:144,2,60,2|0|0,0:0|0:0|0:0,0:0:0:0:
184,140,118074,2,0,L|196:72,2,60,2|0|0,0:0|0:0|0:0,0:0:0:0:
84,68,118390,2,0,L|80:4,5,45,2|0|2|0|2|0,0:0|0:0|0:0|0:0|0:0|0:0,0:0:0:0:
184,140,118864,6,0,B|244:156|296:138|296:138|352:116|400:136,1,215.999993408203,6|0,0:0|0:0,0:0:0:0:
296,328,119337,1,8,0:0:0:0:
232,240,119495,1,0,0:0:0:0:
124,360,119653,2,0,L|12:356,1,107.999996704102,0|0,0:0|0:0,0:0:0:0:
232,240,119969,2,0,L|220:360,1,107.999996704102,8|0,0:0|0:0,0:0:0:0:
132,168,120285,5,0,0:0:0:0:
204,96,120442,1,0,0:0:0:0:
320,204,120600,2,0,P|376:208|428:200,1,99.0000030212403,8|0,0:0|0:0,0:0:0:0:
302,94,120916,2,0,P|246:90|194:98,1,99.0000030212403,0|0,0:0|0:0,0:0:0:0:
160,168,121153,1,0,0:0:0:0:
160,168,121232,2,0,L|164:276,1,99.0000030212403,8|0,0:0|0:0,0:0:0:0:
344,352,121548,6,0,L|476:344,2,132.00000402832,2|0|0,0:0|0:0|0:0,0:0:0:0:
160,168,122179,2,0,L|28:176,2,132.00000402832,10|0|0,0:0|0:0|0:0,0:0:0:0:
332,253,122811,6,0,L|344:357,1,99.0000030212403,6|0,0:0|0:0,0:0:0:0:
343,351,123048,1,0,0:0:0:0:
343,351,123127,1,8,0:0:0:0:
408,164,123285,1,0,0:0:0:0:
232,248,123442,2,0,L|244:352,1,99.0000030212403,0|0,0:0|0:0,0:0:0:0:
243,346,123679,1,0,0:0:0:0:
243,346,123758,1,8,0:0:0:0:
284,156,123916,6,0,B|252:148|220:164|220:164|188:152|188:152|160:168|124:156,1,161.999995056153,4|0,0:0|0:0,0:0:0:0:
232,36,124390,1,8,0:0:0:0:
260,232,124548,1,0,0:0:0:0:
68,112,124706,2,0,P|60:64|68:8,2,99.0000030212403,0|0|8,0:0|0:0|0:0,0:0:0:0:
168,284,125179,1,0,0:0:0:0:
260,232,125337,6,0,B|304:244|340:216|340:216|384:232|384:232|420:216|464:232,1,198.000006042481,0|8,0:0|0:0,0:0:0:0:
420,324,125811,1,0,0:0:0:0:
284,156,125969,2,0,P|280:100|284:52,1,99.0000030212403,0|0,0:0|0:0,0:0:0:0:
384,108,126285,1,8,0:0:0:0:
244,248,126442,6,0,B|184:252|148:232|148:232|108:252|40:248,1,198.000006042481
16,228,126837,1,0,0:0:0:0:
4,188,126916,1,8,0:0:0:0:
12,148,126995,1,0,0:0:0:0:
40,120,127074,1,0,0:0:0:0:
80,112,127153,1,0,0:0:0:0:
120,120,127232,2,0,L|180:132,3,49.5000015106202,8|0|0|0,0:0|0:0|0:0|0:0,0:0:0:0:
224,48,127548,2,0,L|272:38,3,49.5000015106202,8|0|0|0,0:0|0:0|0:0|0:0,0:0:0:0:
356,92,127864,5,8,0:0:0:0:
388,120,127942,1,0,0:0:0:0:
404,160,128021,1,0,0:0:0:0:
404,204,128100,1,0,0:0:0:0:
384,244,128179,2,0,L|340:268,3,49.5000015106202,8|0|0|0,0:0|0:0|0:0|0:0,0:0:0:0:
268,196,128495,2,0,L|220:188,1,49.5000015106202,8|0,0:0|0:0,0:0:0:0:
176,280,128653,2,0,L|124:296,1,49.5000015106202,8|0,0:0|0:0,0:0:0:0:
80,208,128811,2,0,L|24:200,1,49.5000015106202,8|0,0:0|0:0,0:0:0:0:
36,300,128969,6,0,P|64:360|192:364,1,198.000006042481,6|0,0:0|0:0,0:0:0:0:
208,332,129364,1,0,0:0:0:0:
220,292,129442,1,8,0:0:0:0:
216,248,129521,1,0,0:0:0:0:
204,204,129600,1,0,0:0:0:0:
180,168,129679,1,0,0:0:0:0:
172,124,129758,5,0,0:0:0:0:
180,80,129837,1,0,0:0:0:0:
208,44,129916,1,0,0:0:0:0:
252,36,129995,1,0,0:0:0:0:
296,40,130074,1,8,0:0:0:0:
336,60,130153,1,0,0:0:0:0:
360,100,130232,1,0,0:0:0:0:
364,144,130311,1,0,0:0:0:0:
360,188,130390,6,0,L|364:248,3,49.5000015106202,0|0|0|0,0:0|0:0|0:0|0:0,0:0:0:0:
288,312,130706,1,8,0:0:0:0:
244,316,130785,1,0,0:0:0:0:
200,312,130864,1,0,0:0:0:0:
160,300,130942,1,0,0:0:0:0:
128,268,131021,5,0,0:0:0:0:
112,228,131100,1,0,0:0:0:0:
108,184,131179,1,0,0:0:0:0:
112,140,131258,1,0,0:0:0:0:
132,100,131337,1,8,0:0:0:0:
168,72,131416,1,0,0:0:0:0:
212,60,131495,1,0,0:0:0:0:
256,56,131574,1,0,0:0:0:0:
300,72,131653,6,0,L|300:132,1,49.5000015106202,0|0,0:0|0:0,0:0:0:0:
240,204,131811,2,0,P|192:212|132:204,1,99.0000030212403,0|8,0:0|0:0,0:0:0:0:
108,184,132048,1,0,0:0:0:0:
84,148,132127,1,0,0:0:0:0:
80,104,132206,1,0,0:0:0:0:
100,64,132285,1,0,0:0:0:0:
140,44,132364,1,0,0:0:0:0:
184,52,132442,6,0,P|236:56|300:52,1,99.0000030212403,0|8,0:0|0:0,0:0:0:0:
320,28,132679,1,0,0:0:0:0:
364,24,132758,1,0,0:0:0:0:
404,44,132837,1,0,0:0:0:0:
432,80,132916,1,0,0:0:0:0:
440,124,132995,1,0,0:0:0:0:
420,164,133074,6,0,L|332:173,2,66.0000020141602,8|0|0,0:0|0:0|0:0,0:0:0:0:
288,96,133390,2,0,L|220:100,1,49.5000015106202,8|0,0:0|0:0,0:0:0:0:
204,192,133548,6,0,B|156:204|120:180|120:180|84:192|84:192|52:172|4:192,1,198.000006042481,4|0,0:0|0:0,0:0:0:0:
140,340,134021,1,8,0:0:0:0:
184,348,134100,1,0,0:0:0:0:
228,348,134179,1,0,0:0:0:0:
272,340,134258,1,0,0:0:0:0:
316,336,134337,1,0,0:0:0:0:
360,344,134416,1,0,0:0:0:0:
404,356,134495,1,0,0:0:0:0:
448,348,134574,1,0,0:0:0:0:
480,316,134653,6,0,L|492:264,3,49.5000015106202,8|0|0|0,0:0|0:0|0:0|0:0,0:0:0:0:
408,212,134969,2,0,L|396:160,3,49.5000015106202,0|0|0|0,0:0|0:0|0:0|0:0,0:0:0:0:
472,96,135285,2,0,L|480:40,1,49.5000015106202,8|0,0:0|0:0,0:0:0:0:
380,52,135442,6,0,B|332:60|332:60|276:52,1,99.0000030212403,12|0,0:0|0:0,0:0:0:0:
244,28,135679,1,0,0:0:0:0:
200,20,135758,1,0,0:0:0:0:
156,32,135837,1,0,0:0:0:0:
124,64,135916,1,0,0:0:0:0:
108,108,135995,1,0,0:0:0:0:
112,152,136074,2,8,L|124:212,3,49.5000015106202,8|0|0|0,0:0|0:0|0:0|0:0,0:0:0:0:
208,252,136390,1,0,0:0:0:0:
228,252,136469,1,0,0:0:0:0:
248,252,136548,1,0,0:0:0:0:
268,252,136627,1,0,0:0:0:0:
288,252,136706,5,8,0:0:0:0:
332,240,136785,1,0,0:0:0:0:
364,208,136864,1,0,0:0:0:0:
372,164,136942,1,0,0:0:0:0:
368,120,137021,1,0,0:0:0:0:
348,80,137100,1,0,0:0:0:0:
312,52,137179,1,0,0:0:0:0:
268,44,137258,1,0,0:0:0:0:
224,44,137337,5,8,0:0:0:0:
224,100,137416,1,0,0:0:0:0:
252,148,137495,1,0,0:0:0:0:
300,176,137574,1,0,0:0:0:0:
352,184,137653,1,8,0:0:0:0:
404,172,137732,1,0,0:0:0:0:
448,140,137811,1,0,0:0:0:0:
468,88,137890,1,0,0:0:0:0:
456,36,137969,5,8,0:0:0:0:
388,44,138048,1,0,0:0:0:0:
336,84,138127,1,8,0:0:0:0:
308,144,138206,1,0,0:0:0:0:
276,204,138285,1,8,0:0:0:0:
232,256,138364,1,0,0:0:0:0:
168,268,138442,1,8,0:0:0:0:
100,256,138521,1,0,0:0:0:0:
48,216,138600,1,8,0:0:0:0:
24,152,138679,1,0,0:0:0:0:
32,84,138758,1,8,0:0:0:0:
72,28,138837,1,0,0:0:0:0:
128,12,138916,2,0,L|184:24,1,53.9999983520508,8|0,0:0|0:0,0:0:0:0:
260,64,139074,6,0,B|280:116|260:156|260:156|240:196|260:260,1,180,4|0,0:0|0:0,0:0:0:0:
400,348,139548,2,0,L|492:344,1,90,8|0,0:0|0:0,0:0:0:0:
344,235,139864,2,0,L|254:238,1,90,0|0,0:0|0:0,0:0:0:0:
400,348,140179,1,8,0:0:0:0:
367,155,140337,6,0,L|183:159,1,180,0|0,0:0|0:0,0:0:0:0:
56,280,140811,2,0,L|60:376,1,90,8|0,0:0|0:0,0:0:0:0:
191,249,141127,2,0,L|187:153,1,90,0|0,0:0|0:0,0:0:0:0:
56,280,141442,1,8,0:0:0:0:
272,296,141600,6,0,L|264:104,1,180,0|0,0:0|0:0,0:0:0:0:
124,0,142074,2,0,L|32:4,1,90,8|0,0:0|0:0,0:0:0:0:
174,120,142390,2,0,L|263:116,1,90,0|0,0:0|0:0,0:0:0:0:
124,0,142706,1,8,0:0:0:0:
144,204,142864,6,0,L|336:196,1,180,0|0,0:0|0:0,0:0:0:0:
468,92,143337,2,0,L|464:0,1,90,8|0,0:0|0:0,0:0:0:0:
319,106,143653,2,0,L|322:195,1,90,0|0,0:0|0:0,0:0:0:0:
322,195,143890,1,0,0:0:0:0:
322,195,143969,1,8,0:0:0:0:
304,340,144127,6,0,L|120:332,1,180,0|0,0:0|0:0,0:0:0:0:
4,200,144600,2,0,L|12:104,1,90,8|0,0:0|0:0,0:0:0:0:
131,242,144916,2,0,L|123:338,1,90,0|0,0:0|0:0,0:0:0:0:
4,200,145232,1,8,0:0:0:0:
216,192,145390,6,0,L|204:372,1,180,0|0,0:0|0:0,0:0:0:0:
360,276,145864,2,0,L|456:280,1,90,8|0,0:0|0:0,0:0:0:0:
293,375,146179,2,0,L|197:371,2,90,0|0|8,0:0|0:0|0:0,0:0:0:0:
408,204,146653,6,0,P|400:120|316:68,1,180,0|0,0:0|0:0,0:0:0:0:
156,132,147127,1,8,0:0:0:0:
156,132,147285,2,0,L|160:224,2,90,0|0|0,0:0|0:0|0:0,0:0:0:0:
76,292,147758,1,8,0:0:0:0:
159,221,147916,6,0,L|256:228,1,90,0|0,0:0|0:0,0:0:0:0:
360,372,148232,1,0,0:0:0:0:
456,220,148390,2,0,P|460:172|452:132,1,90,8|0,0:0|0:0,0:0:0:0:
276,92,148706,2,0,P|272:140|280:180,1,90,0|0,0:0|0:0,0:0:0:0:
384,32,149021,1,8,0:0:0:0:
188,72,149179,6,0,P|184:128|224:284,1,198.000006042481,6|0,0:0|0:0,0:0:0:0:
408,320,149653,2,0,P|408:268|396:208,1,99.0000030212403,8|0,0:0|0:0,0:0:0:0:
206,167,149969,2,0,P|206:219|218:279,1,99.0000030212403,0|0,0:0|0:0,0:0:0:0:
300,212,150285,1,8,0:0:0:0:
160,72,150443,6,0,L|56:76,2,99.0000030212403,0|0|0,0:0|0:0|0:0,0:0:0:0:
300,212,150916,2,0,L|296:316,1,99.0000030212403,8|0,0:0|0:0,0:0:0:0:
156,170,151232,2,0,L|159:71,1,99.0000030212403,0|0,0:0|0:0,0:0:0:0:
260,52,151548,1,8,0:0:0:0:
212,244,151706,6,0,P|132:260|64:168,1,198.000006042481,0|0,0:0|0:0,0:0:0:0:
161,55,152179,2,0,L|265:51,1,99.0000030212403,8|0,0:0|0:0,0:0:0:0:
310,240,152495,2,0,L|206:244,1,99.0000030212403,0|0,0:0|0:0,0:0:0:0:
396,172,152811,2,0,P|416:224|412:272,1,99.0000030212403,8|0,0:0|0:0,0:0:0:0:
228,338,153127,6,0,P|208:286|212:238,1,99.0000030212403,0|0,0:0|0:0,0:0:0:0:
332,84,153443,1,8,0:0:0:0:
332,84,153600,1,0,0:0:0:0:
396,172,153758,2,0,P|448:176|500:172,1,99.0000030212403,0|0,0:0|0:0,0:0:0:0:
494,172,153995,1,0,0:0:0:0:
494,172,154074,1,8,0:0:0:0:
332,84,154232,6,0,B|312:152|312:152|324:216|324:216|308:284,1,198.000006042481,4|0,0:0|0:0,0:0:0:0:
136,376,154706,2,0,L|36:368,1,99.0000030212403,8|0,0:0|0:0,0:0:0:0:
212,268,155021,2,0,L|310:275,1,99.0000030212403,0|0,0:0|0:0,0:0:0:0:
136,376,155337,1,8,0:0:0:0:
168,180,155495,6,0,L|376:196,1,198.000006042481,4|0,0:0|0:0,0:0:0:0:
412,284,155969,1,8,0:0:0:0:
348,96,156127,1,0,0:0:0:0:
244,264,156285,1,0,0:0:0:0:
365,195,156443,1,0,0:0:0:0:
188,104,156600,1,8,0:0:0:0:
336,288,156758,6,0,P|388:288|460:192,1,161.999995056153,6|0,0:0|0:0,0:0:0:0:
424,136,157232,1,8,0:0:0:0:
365,195,157390,1,0,0:0:0:0:
458,211,157548,1,8,0:0:0:0:
340,108,157706,5,0,0:0:0:0:
400,276,157864,1,8,0:0:0:0:
508,140,158021,1,0,0:0:0:0:
280,172,158179,5,8,0:0:0:0:
484,292,158337,1,0,0:0:0:0:
468,64,158495,1,8,0:0:0:0:
296,280,158653,5,0,0:0:0:0:
365,195,158811,1,8,0:0:0:0:
208,232,158969,1,8,0:0:0:0:
392,280,159127,1,8,0:0:0:0:
256,84,159285,6,0,B|220:88|196:76|196:76|168:84|168:84|128:68|92:84,1,161.999995056153,14|0,0:0|0:0,0:0:0:0:
60,244,159758,1,8,0:0:0:0:
128,156,159916,1,0,0:0:0:0:
20,140,160074,5,8,0:0:0:0:
160,248,160232,1,0,0:0:0:0:
84,64,160390,1,8,0:0:0:0:
12,316,160548,1,0,0:0:0:0:
212,172,160706,5,8,0:0:0:0:
4,224,160864,1,8,0:0:0:0:
216,320,161021,5,8,0:0:0:0:
172,72,161179,1,8,0:0:0:0:
4,224,161337,1,8,0:0:0:0:
4,240,161416,1,8,0:0:0:0:
8,256,161495,1,8,0:0:0:0:
16,272,161574,1,8,0:0:0:0:
24,284,161653,6,0,L|112:280,1,80.9999975280763,12|0,0:0|0:0,0:0:0:0:
105,73,164337,6,0,B|109:121|89:141|89:141|101:185|101:185|81:233|104:279,1,215.999993408203,6|0,0:0|0:0,0:0:0:0:
260,360,164811,2,0,P|320:364|380:356,1,107.999996704102,8|0,0:0|0:0,0:0:0:0:
284,156,165127,1,0,0:0:0:0:
284,156,165285,1,0,0:0:0:0:
216,240,165443,2,0,P|160:244|88:236,1,107.999996704102,8|0,0:0|0:0,0:0:0:0:
232,64,165758,5,0,0:0:0:0:
252,64,165837,1,0,0:0:0:0:
272,64,165916,1,0,0:0:0:0:
292,64,165995,1,0,0:0:0:0:
312,64,166074,1,8,0:0:0:0:
440,240,166232,1,0,0:0:0:0:
380,152,166390,2,0,L|268:156,1,107.999996704102,0|0,0:0|0:0,0:0:0:0:
440,276,166706,1,8,0:0:0:0:
348,80,166864,6,0,L|128:84,1,215.999993408203,6|0,0:0|0:0,0:0:0:0:
60,288,167337,1,8,0:0:0:0:
196,180,167495,1,0,0:0:0:0:
24,88,167653,1,0,0:0:0:0:
56,260,167811,1,0,0:0:0:0:
180,84,167969,2,0,L|292:80,1,107.999996704102,8|0,0:0|0:0,0:0:0:0:
163,256,168285,6,0,L|51:260,1,107.999996704102,0|0,0:0|0:0,0:0:0:0:
104,116,168600,1,8,0:0:0:0:
272,252,168758,2,0,P|260:304|120:356,1,215.999993408203,0|0,0:0|0:0,0:0:0:0:
104,140,169232,1,8,0:0:0:0:
272,252,169390,6,0,B|320:260|348:240|348:240|380:256|380:256|432:232|488:260,1,215.999993408203,6|0,0:0|0:0,0:0:0:0:
478,255,169785,1,0,0:0:0:0:
478,255,169864,1,8,0:0:0:0:
296,144,170021,1,0,0:0:0:0:
380,344,170179,2,0,L|492:340,1,107.999996704102,0|0,0:0|0:0,0:0:0:0:
487,340,170416,1,0,0:0:0:0:
487,340,170495,1,8,0:0:0:0:
380,152,170653,1,0,0:0:0:0:
272,340,170811,5,8,0:0:0:0:
224,328,170890,1,0,0:0:0:0:
192,292,170969,1,0,0:0:0:0:
180,244,171048,1,0,0:0:0:0:
180,216,171127,1,8,0:0:0:0:
192,192,171206,1,0,0:0:0:0:
200,168,171285,1,0,0:0:0:0:
200,140,171364,1,0,0:0:0:0:
196,112,171443,1,8,0:0:0:0:
184,88,171521,1,0,0:0:0:0:
160,72,171600,6,0,L|104:80,1,53.9999983520508,8|0,0:0|0:0,0:0:0:0:
52,260,171758,1,8,0:0:0:0:
272,252,171916,6,0,P|296:192|264:32,1,215.999993408203,4|0,0:0|0:0,0:0:0:0:
228,24,172311,1,0,0:0:0:0:
180,20,172390,1,8,0:0:0:0:
136,40,172469,1,0,0:0:0:0:
112,80,172548,1,0,0:0:0:0:
108,128,172627,1,0,0:0:0:0:
124,176,172706,1,8,0:0:0:0:
124,224,172785,1,0,0:0:0:0:
112,272,172864,1,0,0:0:0:0:
120,320,172943,1,0,0:0:0:0:
148,356,173021,1,8,0:0:0:0:
192,372,173100,1,0,0:0:0:0:
240,376,173179,1,0,0:0:0:0:
284,352,173258,1,0,0:0:0:0:
308,308,173337,6,0,L|304:248,1,53.9999983520508,8|0,0:0|0:0,0:0:0:0:
204,116,173495,1,8,0:0:0:0:
120,320,173653,1,8,0:0:0:0:
304,254,173811,2,0,B|340:240|368:252|368:252|404:236|404:236|464:264|512:236,1,215.999993408203,8|0,0:0|0:0,0:0:0:0:
368,72,174285,1,2,0:0:0:0:
211,225,174443,6,0,P|207:293|303:253,1,215.999993408203,4|0,0:0|0:0,0:0:0:0:
292,208,174837,1,0,0:0:0:0:
264,168,174916,1,8,0:0:0:0:
220,152,174995,1,0,0:0:0:0:
172,160,175074,1,0,0:0:0:0:
128,180,175153,1,0,0:0:0:0:
80,180,175232,1,8,0:0:0:0:
36,164,175311,1,0,0:0:0:0:
4,128,175390,1,0,0:0:0:0:
0,80,175469,1,0,0:0:0:0:
20,36,175548,1,8,0:0:0:0:
64,16,175627,1,0,0:0:0:0:
112,16,175706,1,0,0:0:0:0:
152,44,175785,1,0,0:0:0:0:
184,80,175864,6,0,L|180:140,1,53.9999983520508,8|0,0:0|0:0,0:0:0:0:
64,288,176021,1,8,0:0:0:0:
0,80,176179,1,8,0:0:0:0:
180,133,176337,2,0,B|236:148|288:131|288:131|340:112|400:132,1,215.999993408203,8|0,0:0|0:0,0:0:0:0:
240,16,176811,1,4,0:0:0:0:
240,232,176969,1,0,0:0:0:0:
286,134,177127,5,8,0:0:0:0:
112,260,177285,1,0,0:0:0:0:
328,256,177443,5,8,0:0:0:0:
164,116,177600,1,0,0:0:0:0:
240,232,177758,5,8,0:0:0:0:
240,16,177916,1,0,0:0:0:0:
116,192,178074,5,8,0:0:0:0:
286,134,178232,1,0,0:0:0:0:
72,108,178390,5,8,0:0:0:0:
148,312,178548,1,0,0:0:0:0:
192,100,178706,5,8,0:0:0:0:
4,204,178864,1,0,0:0:0:0:
232,320,179021,5,8,0:0:0:0:
128,40,179179,1,8,0:0:0:0:
36,312,179337,1,8,0:0:0:0:
260,52,179495,6,0,B|304:56|340:40|340:40|368:56|368:56|412:28|480:52,1,215.999993408203,14|0,0:0|0:0,0:0:0:0:
412,260,179969,1,0,0:0:0:0:
380,264,180048,1,0,0:0:0:0:
348,268,180127,1,0,0:0:0:0:
316,272,180206,1,0,0:0:0:0:
284,276,180285,1,8,0:0:0:0:
408,140,180443,1,8,0:0:0:0:
432,352,180600,1,8,0:0:0:0:
216,220,180758,1,0,0:0:0:0:
216,220,180837,1,0,0:0:0:0:
216,220,180916,6,0,L|220:160,1,53.9999983520508,4|0,0:0|0:0,0:0:0:0:
304,96,181074,1,0,0:0:0:0:
304,96,181153,1,0,0:0:0:0:
304,96,181232,2,0,L|300:149,1,53.9999983520508,4|0,0:0|0:0,0:0:0:0:
376,232,181390,1,0,0:0:0:0:
376,232,181469,1,0,0:0:0:0:
376,232,181548,1,4,0:0:0:0:
216,80,181706,5,0,0:0:0:0:
184,80,181785,1,0,0:0:0:0:
152,80,181864,1,0,0:0:0:0:
120,80,181943,1,0,0:0:0:0:
88,80,182021,6,0,P|56:160|84:244,1,161.999995056153,14|0,0:0|0:0,0:0:0:0:
200,300,182495,1,8,0:0:0:0:
216,80,182653,1,0,0:0:0:0:
128,160,182811,5,8,0:0:0:0:
336,128,182969,1,0,0:0:0:0:
216,44,183127,5,8,0:0:0:0:
204,256,183285,1,0,0:0:0:0:
272,172,183443,5,8,0:0:0:0:
80,160,183600,1,0,0:0:0:0:
196,344,183758,5,8,0:0:0:0:
280,152,183916,1,0,0:0:0:0:
116,288,184074,5,8,0:0:0:0:
324,268,184232,1,8,0:0:0:0:
164,132,184390,1,8,0:0:0:0:
288,360,184548,6,0,P|380:348|424:272,1,161.999995056153,14|0,0:0|0:0,0:0:0:0:
368,92,185021,1,8,0:0:0:0:
324,268,185179,1,0,0:0:0:0:
472,116,185337,5,8,0:0:0:0:
264,80,185495,1,0,0:0:0:0:
324,268,185653,5,8,0:0:0:0:
376,64,185811,1,0,0:0:0:0:
212,196,185969,5,8,0:0:0:0:
424,184,186127,1,0,0:0:0:0:
252,60,186285,5,8,0:0:0:0:
244,272,186443,1,0,0:0:0:0:
300,184,186600,1,8,0:0:0:0:
300,184,186679,1,0,0:0:0:0:
300,184,186758,1,8,0:0:0:0:
192,364,186916,1,8,0:0:0:0:
400,276,187074,6,0,B|412:236|400:200|400:200|384:160|400:112,1,161.999995056153,14|0,0:0|0:0,0:0:0:0:
464,68,187548,1,8,0:0:0:0:
296,236,187706,1,0,0:0:0:0:
312,56,187864,5,8,0:0:0:0:
480,216,188021,1,0,0:0:0:0:
408,0,188179,5,8,0:0:0:0:
372,184,188337,1,0,0:0:0:0:
464,68,188495,5,8,0:0:0:0:
292,144,188653,1,0,0:0:0:0:
312,56,188811,5,8,0:0:0:0:
376,272,188969,1,0,0:0:0:0:
444,144,189127,5,8,0:0:0:0:
240,260,189285,1,8,0:0:0:0:
452,360,189443,1,8,0:0:0:0:
292,144,189600,6,0,L|104:148,1,180,8|8,0:0|0:0,0:0:0:0:
272,363,190864,2,8,L|460:359,1,180
292,144,191811,5,0,0:0:0:0:
292,144,191890,1,0,0:0:0:0:
292,144,191969,1,8,0:0:0:0:
272,363,192127,1,14,0:0:0:0:
