osu file format v14

[General]
AudioFilename: audio.mp3
AudioLeadIn: 0
PreviewTime: 44247
Countdown: 0
SampleSet: None
StackLeniency: 0.7
Mode: 0
LetterboxInBreaks: 0
WidescreenStoryboard: 1

[Editor]
Bookmarks: 984,74721,84826,138984,149089
DistanceSpacing: 0.9
BeatDivisor: 4
GridSize: 8
TimelineZoom: 1

[Metadata]
Title:Die
TitleUnicode:Die
Artist:Jeff Williams & Casey Lee Williams
ArtistUnicode:Jeff Williams & Casey Lee Williams
Creator:Kyshiro
Version:Extra
Source:
Tags:
BeatmapID:1506059
BeatmapSetID:606618

[Difficulty]
HPDrainRate:5.8
CircleSize:4.1
OverallDifficulty:8.8
ApproachRate:9.2
SliderMultiplier:1.6
SliderTickRate:1

[Events]
//Background and Video events
0,0,"thumb-1920-649970.jpg",0,0
//Break Periods
2,74921,84256
//Storyboard Layer 0 (Background)
//Storyboard Layer 1 (Fail)
//Storyboard Layer 2 (Pass)
//Storyboard Layer 3 (Foreground)
//Storyboard Sound Samples

[TimingPoints]
195,315.789473684211,4,1,0,60,1,0
9984,-133.333333333333,4,1,0,60,0,0
10221,-133.333333333333,4,2,0,5,0,0
10300,-100,4,1,0,60,0,0
19142,-133.333333333333,4,1,0,60,0,0
21668,-100,4,1,0,60,0,0
24195,-100,4,1,0,60,0,0
25379,-100,4,2,0,5,0,0
25458,-100,4,1,0,60,0,0
44247,-86.9565217391304,4,1,0,60,0,1
54195,-83.3333333333333,4,1,0,60,0,0
54352,-83.3333333333333,4,1,0,60,0,1
64458,-100,4,1,0,60,0,0
69510,-86.9565217391304,4,1,0,60,0,0
84826,-100,4,1,0,60,0,0
93668,-133.333333333333,4,1,0,60,0,0
96195,-114.942528735632,4,1,0,60,0,0
98721,-100,4,1,0,60,0,0
118773,-86.9565217391304,4,1,0,60,0,1
128721,-86.9565217391304,4,1,0,60,0,0
128879,-86.9565217391304,4,1,0,60,0,1
136616,-74.0740740740741,4,1,0,60,0,1
137247,-62.5,4,1,0,60,0,1
138984,-86.9565217391304,4,1,0,60,0,0
149089,-117.647058823529,4,1,0,60,0,0
161721,-117.647058823529,4,2,0,5,0,0
161879,-117.647058823529,4,1,0,60,0,0
164247,-83.3333333333333,4,1,0,60,0,1
171668,-83.3333333333333,4,1,0,60,0,0
171826,-71.4285714285714,4,1,0,60,0,1
181773,-71.4285714285714,4,1,0,60,0,0
181931,-71.4285714285714,4,1,0,60,0,1
184300,-71.4285714285714,4,1,0,60,0,0
184458,-71.4285714285714,4,1,0,60,0,1
186826,-71.4285714285714,4,1,0,60,0,0
186984,-62.5,4,1,0,60,0,1
189510,-83.3333333333333,4,1,0,60,0,1
189984,-83.3333333333333,4,2,0,5,0,1
190142,-90.9090909090909,4,1,0,60,0,1
190616,-90.9090909090909,4,2,0,5,0,1
190773,-100,4,1,0,60,0,1
191247,-100,4,2,0,5,0,1
191405,-111.111111111111,4,1,0,60,0,1
192037,-71.4285714285714,4,1,0,60,0,0

[Colours]
Combo1 : 239,215,165
Combo2 : 231,190,235
Combo3 : 245,188,189

[HitObjects]
74,96,195,6,0,P|114:113|150:137,1,80
227,220,510,1,0,0:0:0:0:
352,121,668,2,0,L|266:113,1,80
43,228,984,2,0,L|129:220,1,80
321,262,1300,1,0,0:0:0:0:
321,262,1379,1,0,0:0:0:0:
321,262,1458,6,0,P|289:308|182:352,1,160
433,210,1931,2,0,P|474:244|494:276,1,80
336,145,2247,2,0,P|344:92|362:59,1,80
156,33,2563,1,0,0:0:0:0:
156,33,2642,1,0,0:0:0:0:
156,33,2721,6,0,P|196:101|204:198,1,160
106,256,3195,2,0,L|12:247,1,80
233,301,3510,2,0,L|327:292,1,80
464,180,3826,1,0,0:0:0:0:
464,180,3905,1,0,0:0:0:0:
464,180,3984,6,0,P|475:114|472:79,1,80
270,117,4300,2,0,P|336:128|371:125,1,80
392,30,4616,1,0,0:0:0:0:
199,72,4773,1,0,0:0:0:0:
341,208,4931,1,0,0:0:0:0:
297,23,5089,1,0,0:0:0:0:
133,142,5247,6,0,P|136:236|166:313,1,160
327,193,5721,2,0,L|233:178,1,80
424,108,6037,2,0,L|518:93,1,80
491,308,6352,1,0,0:0:0:0:
491,308,6431,1,0,0:0:0:0:
491,308,6510,6,0,B|413:337|413:278|335:308,1,160
198,266,6984,1,0,0:0:0:0:
286,106,7142,2,0,L|292:198,1,80
246,355,7458,1,0,0:0:0:0:
97,251,7616,1,0,0:0:0:0:
97,251,7695,1,0,0:0:0:0:
97,251,7773,6,0,P|73:172|85:85,1,160
169,19,8247,1,0,0:0:0:0:
295,121,8405,2,0,L|198:113,1,80
350,217,8721,1,0,0:0:0:0:
428,113,8879,1,0,0:0:0:0:
206,217,9037,5,0,0:0:0:0:
206,217,9195,1,0,0:0:0:0:
276,308,9352,1,0,0:0:0:0:
97,274,9510,1,0,0:0:0:0:
319,171,9668,1,0,0:0:0:0:
319,171,9826,1,0,0:0:0:0:
81,278,9984,6,0,L|63:176,1,90.0000034332277
59,158,10300,6,0,P|127:173|157:170,1,80
309,147,10616,1,0,0:0:0:0:
218,7,10773,2,0,L|214:89,1,80
438,65,11089,2,0,P|373:43|342:44,1,80
369,270,11405,6,0,B|375:151|375:151|348:191,1,160
285,315,11879,1,0,0:0:0:0:
470,222,12037,2,0,P|481:165|475:131,1,80
252,185,12352,2,0,P|309:196|343:190,1,80
169,66,12668,1,0,0:0:0:0:
117,236,12826,6,0,L|132:332,2,80
275,87,13300,2,0,P|236:75|186:68,1,80
374,184,13616,2,0,P|413:177|451:165,1,80
238,204,13931,6,0,P|251:279|257:369,1,160
134,329,14405,1,0,0:0:0:0:
357,278,14563,2,0,L|447:273,1,80
145,201,14879,2,0,L|55:196,1,80
238,85,15195,1,0,0:0:0:0:
238,85,15273,1,0,0:0:0:0:
238,85,15352,6,0,B|261:115|299:136|299:136|344:137|389:119,1,160
127,44,15826,2,0,P|119:108|124:130,1,80
111,269,16142,2,0,P|170:243|186:228,1,80
408,153,16458,6,0,P|312:120|241:143,1,160
319,252,16931,1,0,0:0:0:0:
503,217,17089,2,0,L|514:126,1,80
321,277,17405,2,0,L|330:356,1,80
84,177,17721,6,0,B|148:167|148:167|184:181|184:181|250:169,1,160
371,156,18195,1,0,0:0:0:0:
208,10,18352,2,0,P|201:51|200:100,1,80
153,339,18668,2,0,P|151:299|144:259,1,80
52,150,18984,1,0,0:0:0:0:
257,307,19142,6,0,P|320:317|389:292,1,120.000004577637
467,241,19616,1,0,0:0:0:0:
365,197,19773,2,0,L|359:132,1,60.0000022888184
459,97,20089,2,0,L|465:32,1,60.0000022888184
254,32,20405,6,0,L|247:166,1,120.000004577637
187,235,20879,1,0,0:0:0:0:
104,165,21037,2,0,P|87:122|86:95,1,60.0000022888184
197,256,21352,2,0,P|191:285|178:312,1,60.0000022888184
296,178,21668,6,0,L|396:172,1,80
499,166,21984,1,0,0:0:0:0:
297,69,22142,2,0,L|197:63,1,80
94,57,22458,1,0,0:0:0:0:
146,242,22616,2,0,L|152:142,1,80
64,337,22931,5,0,0:0:0:0:
93,357,23010,1,0,0:0:0:0:
127,367,23089,1,0,0:0:0:0:
162,368,23168,1,0,0:0:0:0:
196,356,23247,1,0,0:0:0:0:
223,332,23326,1,0,0:0:0:0:
258,324,23405,1,0,0:0:0:0:
293,325,23484,1,0,0:0:0:0:
327,335,23563,2,0,L|386:325,3,40
442,247,23879,1,0,0:0:0:0:
407,257,23958,1,0,0:0:0:0:
371,254,24037,1,0,0:0:0:0:
338,239,24116,1,0,0:0:0:0:
315,210,24195,6,0,B|297:173|297:173|303:130,1,80
177,40,24510,2,0,B|182:78|182:78|164:115,1,80
64,221,24826,2,0,P|132:204|216:258,1,160
123,314,25300,1,0,0:0:0:0:
290,327,25458,6,0,L|385:313,1,80
506,233,25773,2,0,L|411:219,1,80
263,106,26089,1,0,0:0:0:0:
411,123,26247,1,0,0:0:0:0:
263,232,26405,1,0,0:0:0:0:
206,19,26563,6,0,P|288:8|353:57,1,160
152,141,27037,2,0,L|65:132,1,80
286,228,27352,2,0,L|373:219,1,80
478,139,27668,1,0,0:0:0:0:
478,139,27826,1,0,0:0:0:0:
336,38,27984,6,0,P|291:31|186:82,1,160
160,231,28458,1,0,0:0:0:0:
160,231,28537,1,0,0:0:0:0:
160,231,28616,1,0,0:0:0:0:
281,172,28773,1,0,0:0:0:0:
71,124,28931,1,0,0:0:0:0:
275,291,29089,6,0,L|443:275,1,160
365,94,29563,2,0,L|373:178,1,80
152,156,29879,2,0,P|213:162|254:177,1,80
138,284,30195,1,0,0:0:0:0:
32,205,30352,6,0,P|15:150|22:44,1,160
143,2,30826,1,0,0:0:0:0:
239,184,30984,2,0,L|253:283,1,80
365,123,31300,2,0,L|376:43,1,80
496,233,31616,6,0,P|412:225|344:288,1,160
444,331,32089,1,0,0:0:0:0:
246,324,32247,2,0,P|231:269|236:235,1,80
159,87,32563,2,0,P|159:126|146:164,1,80
31,186,32879,1,0,0:0:0:0:
258,142,33037,6,0,L|350:151,1,80
496,254,33352,1,0,0:0:0:0:
462,241,33431,1,0,0:0:0:0:
425,239,33510,1,0,0:0:0:0:
390,249,33589,1,0,0:0:0:0:
362,271,33668,2,0,P|350:308|347:328,3,40
271,363,33984,1,0,0:0:0:0:
260,328,34063,1,0,0:0:0:0:
240,297,34142,6,0,P|187:253|93:227,1,160
2,140,34616,1,0,0:0:0:0:
138,34,34773,1,0,0:0:0:0:
138,34,34852,1,0,0:0:0:0:
138,34,34931,2,0,L|129:120,1,80
225,205,35247,1,0,0:0:0:0:
344,90,35405,6,0,L|258:81,1,80
396,211,35721,2,0,L|482:202,1,80
166,14,36037,2,0,P|133:84|145:166,1,160
260,259,36510,1,0,0:0:0:0:
415,124,36668,6,0,L|240:106,1,160
61,162,37142,1,0,0:0:0:0:
241,243,37300,1,0,0:0:0:0:
135,352,37458,2,0,L|126:266,1,80
185,107,37773,1,0,0:0:0:0:
342,197,37931,1,0,0:0:0:0:
342,197,38010,1,0,0:0:0:0:
342,197,38089,6,0,P|351:258|339:294,1,80
143,227,38405,2,0,L|225:239,1,80
427,208,38721,1,0,0:0:0:0:
255,137,38879,1,0,0:0:0:0:
281,315,39037,1,0,0:0:0:0:
281,315,39116,1,0,0:0:0:0:
281,315,39195,6,0,L|461:299,1,160
384,90,39668,2,0,P|355:146|351:181,1,80
203,259,39984,2,0,P|192:220|171:186,1,80
28,108,40300,1,0,0:0:0:0:
27,336,40458,1,0,0:0:0:0:
27,336,40537,1,0,0:0:0:0:
27,336,40616,6,0,L|122:328,1,80
355,216,40931,2,0,L|260:208,1,80
129,65,41247,1,0,0:0:0:0:
336,104,41405,1,0,0:0:0:0:
146,190,41563,1,0,0:0:0:0:
251,13,41721,6,0,P|261:67|254:109,1,80
390,255,42037,2,0,P|388:215|397:176,1,80
131,191,42352,2,0,P|196:179|276:224,1,160
196,361,42826,2,0,L|187:268,1,80
116,122,43142,5,0,0:0:0:0:
113,157,43221,1,0,0:0:0:0:
107,192,43300,1,0,0:0:0:0:
97,226,43379,1,0,0:0:0:0:
82,259,43458,1,0,0:0:0:0:
10,148,43616,1,0,0:0:0:0:
217,187,43773,1,0,0:0:0:0:
51,276,43931,1,0,0:0:0:0:
143,80,44089,1,0,0:0:0:0:
308,214,44247,6,0,B|242:215|242:215|194:196|194:196|117:201,1,184.000003509522
170,378,44721,2,0,P|182:319|175:276,1,92.0000017547608
415,180,45037,2,0,P|357:199|324:226,1,92.0000017547608
111,76,45352,2,0,P|156:115|196:131,1,92.0000017547608
328,80,45668,5,0,0:0:0:0:
147,225,45826,1,0,0:0:0:0:
306,219,45984,1,0,0:0:0:0:
206,6,46142,1,0,0:0:0:0:
41,136,46300,1,0,0:0:0:0:
82,130,46379,1,0,0:0:0:0:
123,125,46458,1,0,0:0:0:0:
164,120,46537,1,0,0:0:0:0:
205,115,46616,1,0,0:0:0:0:
390,204,46773,6,0,P|318:195|223:255,1,184.000003509522
466,287,47247,2,0,P|498:229|498:193,1,92.0000017547608
298,126,47563,2,0,P|332:182|363:200,1,92.0000017547608
512,76,47879,2,0,P|445:77|414:95,1,92.0000017547608
324,319,48195,5,0,0:0:0:0:
283,321,48273,1,0,0:0:0:0:
241,316,48352,1,0,0:0:0:0:
201,303,48431,1,0,0:0:0:0:
169,276,48510,1,0,0:0:0:0:
126,147,48668,1,0,0:0:0:0:
286,86,48826,2,0,L|272:187,1,92.0000017547608
285,205,49063,1,0,0:0:0:0:
285,205,49142,2,0,L|341:201,1,46.0000008773804
470,294,49300,6,0,P|411:288|306:354,1,184.000003509522
126,261,49773,2,0,P|182:283|224:282,1,92.0000017547608
195,75,50089,2,0,L|193:176,1,92.0000017547608
77,113,50405,1,0,0:0:0:0:
278,23,50563,1,0,0:0:0:0:
294,233,50721,6,0,L|207:180,1,92.0000017547608
336,115,51037,1,0,0:0:0:0:
98,242,51195,2,0,L|186:193,1,92.0000017547608
422,213,51510,1,0,0:0:0:0:
216,294,51668,1,0,0:0:0:0:
351,339,51826,1,0,0:0:0:0:
447,218,51984,5,0,0:0:0:0:
464,185,52063,1,0,0:0:0:0:
475,150,52142,1,0,0:0:0:0:
476,113,52221,1,0,0:0:0:0:
471,76,52300,1,0,0:0:0:0:
357,22,52458,1,0,0:0:0:0:
282,159,52616,1,0,0:0:0:0:
285,195,52695,1,0,0:0:0:0:
288,231,52773,1,0,0:0:0:0:
291,267,52852,1,0,0:0:0:0:
295,303,52931,2,0,L|350:292,3,46.0000008773804
215,364,53247,5,0,0:0:0:0:
203,338,53326,1,0,0:0:0:0:
188,314,53405,1,0,0:0:0:0:
170,292,53484,1,0,0:0:0:0:
152,271,53563,1,0,0:0:0:0:
131,252,53642,1,0,0:0:0:0:
110,233,53721,1,0,0:0:0:0:
86,219,53800,1,0,0:0:0:0:
61,206,53879,1,0,0:0:0:0:
97,208,53958,1,0,0:0:0:0:
133,201,54037,1,0,0:0:0:0:
166,186,54116,1,0,0:0:0:0:
196,162,54195,1,0,0:0:0:0:
221,133,54273,1,0,0:0:0:0:
236,97,54352,1,0,0:0:0:0:
368,29,54668,5,0,0:0:0:0:
361,66,54747,1,0,0:0:0:0:
363,104,54826,2,0,L|414:99,3,47.9999985351563
505,174,55142,2,0,L|457:169,3,47.9999985351563
384,239,55458,1,0,0:0:0:0:
343,223,55537,1,0,0:0:0:0:
299,222,55616,1,0,0:0:0:0:
257,235,55695,1,0,0:0:0:0:
225,264,55773,6,0,L|165:256,1,47.9999985351563
229,109,55931,2,0,L|221:169,1,47.9999985351563
65,271,56089,2,0,L|73:211,1,47.9999985351563
20,117,56247,2,0,P|101:111|137:124,1,95.9999970703126
362,37,56563,1,0,0:0:0:0:
341,74,56642,1,0,0:0:0:0:
327,115,56721,1,0,0:0:0:0:
322,157,56800,1,0,0:0:0:0:
325,200,56879,1,0,0:0:0:0:
331,242,56958,1,0,0:0:0:0:
347,281,57037,6,0,L|410:280,3,47.9999985351563
493,250,57352,2,0,L|494:313,3,47.9999985351563
417,182,57668,1,0,0:0:0:0:
377,198,57747,1,0,0:0:0:0:
334,203,57826,1,0,0:0:0:0:
291,195,57905,1,0,0:0:0:0:
254,171,57984,1,0,0:0:0:0:
213,156,58063,1,0,0:0:0:0:
169,159,58142,1,0,0:0:0:0:
129,176,58221,1,0,0:0:0:0:
99,207,58300,6,0,P|87:246|86:261,3,47.9999985351563
32,149,58616,2,0,P|27:125|19:103,3,47.9999985351563
97,48,58931,1,0,0:0:0:0:
135,67,59010,1,0,0:0:0:0:
176,77,59089,1,0,0:0:0:0:
218,82,59168,1,0,0:0:0:0:
261,80,59247,1,0,0:0:0:0:
301,65,59326,1,0,0:0:0:0:
339,44,59405,6,0,L|351:106,1,47.9999985351563
471,111,59563,2,0,L|459:173,1,47.9999985351563
341,191,59721,2,0,L|353:253,1,47.9999985351563
474,255,59879,2,0,L|462:317,1,47.9999985351563
353,350,60037,2,0,L|294:341,3,47.9999985351563
242,256,60352,2,0,L|183:265,3,47.9999985351563
112,187,60668,5,0,0:0:0:0:
155,190,60747,1,0,0:0:0:0:
197,179,60826,1,0,0:0:0:0:
233,155,60905,1,0,0:0:0:0:
259,121,60984,1,0,0:0:0:0:
291,149,61063,1,0,0:0:0:0:
332,161,61142,1,0,0:0:0:0:
374,166,61221,1,0,0:0:0:0:
417,166,61300,2,0,P|453:151|470:139,3,47.9999985351563
375,82,61616,2,0,P|354:70|331:62,3,47.9999985351563
226,25,61931,5,0,0:0:0:0:
238,66,62010,1,0,0:0:0:0:
242,108,62089,1,0,0:0:0:0:
239,151,62168,1,0,0:0:0:0:
231,193,62247,1,0,0:0:0:0:
215,233,62326,1,0,0:0:0:0:
192,269,62405,2,0,L|128:264,3,47.9999985351563
65,187,62721,2,0,L|129:182,3,47.9999985351563
151,99,63037,1,0,0:0:0:0:
194,95,63116,1,0,0:0:0:0:
236,101,63195,1,0,0:0:0:0:
275,117,63273,1,0,0:0:0:0:
308,144,63352,6,0,P|319:188|320:205,3,47.9999985351563
396,260,63668,2,0,P|399:236|407:213,3,47.9999985351563
490,279,63984,1,0,0:0:0:0:
471,323,64063,1,0,0:0:0:0:
430,348,64142,1,0,0:0:0:0:
382,354,64221,1,0,0:0:0:0:
336,337,64300,1,0,0:0:0:0:
303,301,64379,1,0,0:0:0:0:
291,262,64458,1,0,0:0:0:0:
291,262,64773,5,0,0:0:0:0:
131,331,64931,1,0,0:0:0:0:
224,152,65089,1,0,0:0:0:0:
410,243,65247,2,0,L|395:334,1,80
219,131,65563,2,0,L|205:52,1,80
347,117,65879,5,0,0:0:0:0:
261,258,66037,1,0,0:0:0:0:
106,161,66195,1,0,0:0:0:0:
373,224,66352,1,0,0:0:0:0:
126,279,66510,2,0,L|32:270,1,80
121,82,66826,1,0,0:0:0:0:
306,161,66984,6,0,P|335:232|333:324,1,160
412,172,67458,1,0,0:0:0:0:
247,275,67616,1,0,0:0:0:0:
472,274,67773,1,0,0:0:0:0:
366,75,67931,1,0,0:0:0:0:
359,278,68089,2,0,L|367:372,1,80
512,163,68405,6,0,L|418:171,1,80
256,192,68721,1,0,0:0:0:0:
472,274,68879,1,0,0:0:0:0:
339,76,69037,1,0,0:0:0:0:
339,76,69116,1,0,0:0:0:0:
339,76,69195,1,0,0:0:0:0:
273,294,69352,1,0,0:0:0:0:
482,186,69510,6,0,B|392:152|392:219|302:186,1,184.000003509522
158,111,69984,1,0,0:0:0:0:
360,99,70142,1,0,0:0:0:0:
137,211,70300,1,0,0:0:0:0:
188,6,70458,1,0,0:0:0:0:
305,207,70616,6,0,L|314:312,1,92.0000017547608
141,187,70931,2,0,L|148:95,1,92.0000017547608
334,110,71247,1,0,0:0:0:0:
212,267,71405,1,0,0:0:0:0:
54,132,71563,1,0,0:0:0:0:
329,225,71721,1,0,0:0:0:0:
108,349,71879,1,0,0:0:0:0:
94,319,71958,1,0,0:0:0:0:
87,287,72037,1,0,0:0:0:0:
85,254,72116,1,0,0:0:0:0:
89,222,72195,6,0,L|192:234,1,92.0000017547608
423,181,72510,1,0,0:0:0:0:
423,181,72668,1,0,0:0:0:0:
298,26,72826,2,0,L|286:129,1,92.0000017547608
337,315,73142,1,0,0:0:0:0:
337,315,73300,1,0,0:0:0:0:
497,106,73458,6,0,P|444:83|401:83,1,92.0000017547608
158,252,73773,2,0,P|203:247|244:227,1,92.0000017547608
78,42,74089,1,0,0:0:0:0:
73,73,74168,1,0,0:0:0:0:
68,104,74247,1,0,0:0:0:0:
64,136,74326,1,0,0:0:0:0:
59,167,74405,1,0,0:0:0:0:
55,198,74484,1,0,0:0:0:0:
51,229,74563,1,0,0:0:0:0:
47,261,74642,1,0,0:0:0:0:
43,293,74721,1,0,0:0:0:0:
127,92,84826,5,0,0:0:0:0:
267,139,84984,1,0,0:0:0:0:
54,193,85142,1,0,0:0:0:0:
257,263,85300,2,0,L|352:253,1,80
275,44,85616,2,0,L|285:139,1,80
439,336,85931,6,0,P|466:256|434:173,1,160
285,138,86405,1,0,0:0:0:0:
257,263,86563,2,0,P|336:255|355:247,1,80
156,180,86879,2,0,P|123:252|120:272,1,80
213,373,87195,1,0,0:0:0:0:
356,337,87352,6,0,L|346:171,1,160
504,196,87826,2,0,B|473:221|473:221|428:221,1,80
198,255,88142,2,0,B|238:255|238:255|269:280,1,80
92,330,88458,1,0,0:0:0:0:
84,332,88537,1,0,0:0:0:0:
76,334,88616,6,0,L|66:246,1,80
131,131,88931,1,0,0:0:0:0:
308,218,89089,2,0,P|254:222|213:214,1,80
418,152,89405,2,0,P|457:147|497:152,1,80
417,273,89721,1,0,0:0:0:0:
308,105,89879,6,0,L|301:16,1,80
