osu file format v14

[General]
AudioFilename: audio.mp3
AudioLeadIn: 0
PreviewTime: 45086
Countdown: 0
SampleSet: Normal
StackLeniency: 0.8
Mode: 0
LetterboxInBreaks: 0
WidescreenStoryboard: 0

[Editor]
Bookmarks: 13650,22837,32023,41210,50397,59583
DistanceSpacing: 0.7
BeatDivisor: 2
GridSize: 32
TimelineZoom: 1.3

[Metadata]
Title:Darkwing Duck Theme Song
TitleUnicode:Darkwing Duck Theme Song
Artist:Jeff Pescetto
ArtistUnicode:Jeff Pescetto
Creator:isopaharuntikka
Version:Normal
Source:Darkwing Duck
Tags:The Disney Channel Cartoon Opening Introduction Toon Television dankwing Su1fu7 sulfur
BeatmapID:1159601
BeatmapSetID:547106

[Difficulty]
HPDrainRate:3
CircleSize:2
OverallDifficulty:2
ApproachRate:4
SliderMultiplier:1.5
SliderTickRate:1

[Events]
//Background and Video events
0,0,"cropped-1366-768-467058.jpg",0,0
//Break Periods
//Storyboard Layer 0 (Background)
//Storyboard Layer 1 (Fail)
//Storyboard Layer 2 (Pass)
//Storyboard Layer 3 (Foreground)
//Storyboard Sound Samples

[TimingPoints]
2732,574.712643678161,4,1,0,65,1,0
16525,-100,4,1,0,65,0,1
30318,-100,4,1,0,65,0,0
44111,-100,4,1,0,65,0,1
57904,-100,4,1,0,65,0,0

[Colours]
Combo1 : 255,253,254
Combo2 : 255,198,91
Combo3 : 208,40,1
Combo4 : 128,0,235
SliderBorder : 212,231,238
SliderTrackOverride : 40,42,68

[HitObjects]
317,195,2732,5,8,2:2:0:0:
420,211,3306,1,0,2:2:0:0:
361,298,3881,2,2,P|269:298|224:253,1,150,2|0,2:2|2:2,2:2:0:0:
214,157,5030,5,8,2:2:0:0:
136,227,5605,1,0,2:2:0:0:
113,124,6180,2,2,P|169:59|242:53,1,150,2|0,2:2|2:2,2:2:0:0:
334,55,7329,5,8,2:2:0:0:
279,144,7904,1,0,2:2:0:0:
382,163,8479,2,0,P|321:243|252:251,1,150,2|0,2:2|2:2,2:2:0:0:
179,249,9628,5,8,2:2:0:0:
230,340,10203,1,0,2:2:0:0:
284,250,10777,2,2,P|247:170|178:136,1,150,2|0,2:2|2:2,2:2:0:0:
97,140,11927,5,8,2:2:0:0:
144,233,12502,1,0,2:2:0:0:
202,144,13076,2,0,P|245:202|236:286,2,150,2|0|2,2:2|2:2|2:2,2:2:0:0:
151,51,14800,2,2,P|234:42|295:96,1,150,0|0,2:2|2:2,2:2:0:0:
336,272,16525,6,0,P|257:300|185:263,1,150,8|0,2:2|2:2,2:2:0:0:
142,187,17674,1,2,2:2:0:0:
247,187,18249,2,2,L|206:102,1,75,2|0,2:2|2:2,2:2:0:0:
192,71,18823,5,8,2:2:0:0:
88,87,19398,1,0,2:2:0:0:
146,174,19973,1,8,2:2:0:0:
41,187,20548,1,0,2:2:0:0:
97,275,21122,6,0,B|182:285|182:285|248:205,1,150,8|0,2:2|2:2,2:2:0:0:
277,154,22272,1,0,2:2:0:0:
355,223,22846,2,2,L|442:263,1,75,2|0,2:2|2:2,2:2:0:0:
469,278,23421,5,8,2:2:0:0:
381,336,23996,1,0,2:2:0:0:
282,300,24571,2,0,B|237:251|253:156|253:156|206:240|133:227,1,300,2|4,2:2|2:2,2:2:0:0:
30,227,26295,5,8,2:2:0:0:
80,135,26869,1,0,2:2:0:0:
169,80,27444,2,2,L|251:42,1,75,2|0,2:2|2:2,2:2:0:0:
285,28,28019,5,0,0:0:0:0:
436,70,28881,1,0,0:0:0:0:
318,174,29743,1,0,0:0:0:0:
237,106,30318,6,0,P|144:134|125:233,1,150
153,282,31467,1,0,0:0:0:0:
256,297,32042,5,0,2:2:0:0:
348,246,32617,2,0,P|357:161|308:98,1,150,8|0,2:2|2:2,2:2:0:0:
234,53,33766,2,0,P|219:125|253:190,1,150,2|0,2:2|2:2,2:2:0:0:
348,246,34915,5,8,2:2:0:0:
251,288,35490,2,0,P|169:246|149:176,1,150
150,96,36640,1,0,2:2:0:0:
234,158,37214,6,0,P|281:198|387:192,1,150,8|0,2:2|2:2,2:2:0:0:
443,130,38364,1,2,2:2:0:0:
462,233,38938,1,0,2:2:0:0:
378,296,39513,6,0,P|298:329|225:267,1,150,8|0,2:2|2:2,2:2:0:0:
171,230,40663,1,0,2:2:0:0:
143,331,41237,1,2,2:2:0:0:
65,260,41812,6,0,P|74:172|132:125,1,150,8|0,2:2|2:2,2:2:0:0:
218,104,42961,1,0,2:2:0:0:
320,83,43536,1,2,2:2:0:0:
425,82,44111,6,0,P|386:167|324:187,1,150,8|0,2:2|2:2,2:2:0:0:
237,217,45260,1,2,2:2:0:0:
247,112,45835,2,2,L|187:44,1,75,2|0,2:2|2:2,2:2:0:0:
157,20,46410,5,8,2:2:0:0:
57,52,46984,1,0,2:2:0:0:
135,122,47559,1,8,2:2:0:0:
37,161,48134,1,2,2:2:0:0:
121,224,48709,2,0,P|217:201|252:148,1,150
302,73,49858,1,2,2:2:0:0:
351,165,50433,2,2,L|370:237,1,75,2|0,2:2|2:2,2:2:0:0:
378,289,51007,5,2,2:2:0:0:
274,272,51582,1,2,2:2:0:0:
200,196,52157,2,0,B|156:244|172:339|172:339|125:255|52:268,1,300,2|4,2:2|2:2,2:2:0:0:
50,162,53881,5,8,2:2:0:0:
81,61,54456,1,0,2:2:0:0:
151,138,55030,2,2,L|210:79,1,75,2|0,2:2|2:2,2:2:0:0:
256,192,55605,12,0,59053,2:2:0:0:
