osu file format v14

[General]
AudioFilename: audio.mp3
AudioLeadIn: 0
PreviewTime: 45086
Countdown: 0
SampleSet: Normal
StackLeniency: 0.7
Mode: 0
LetterboxInBreaks: 0
WidescreenStoryboard: 0

[Editor]
Bookmarks: 13650,22837,32023,41210,50397,59583
DistanceSpacing: 1.5
BeatDivisor: 4
GridSize: 32
TimelineZoom: 1.3

[Metadata]
Title:Darkwing Duck Theme Song
TitleUnicode:Darkwing Duck Theme Song
Artist:Jeff Pescetto
ArtistUnicode:Jeff Pescetto
Creator:isopaharuntikka
Version:Insane
Source:Darkwing Duck
Tags:The Disney Channel Cartoon Opening Introduction Toon Television dankwing Su1fu7 sulfur
BeatmapID:1168742
BeatmapSetID:547106

[Difficulty]
HPDrainRate:4.5
CircleSize:4
OverallDifficulty:7
ApproachRate:8
SliderMultiplier:2
SliderTickRate:1

[Events]
//Background and Video events
0,0,"cropped-1366-768-467058.jpg",0,0
//Break Periods
//Storyboard Layer 0 (Background)
//Storyboard Layer 1 (Fail)
//Storyboard Layer 2 (Pass)
//Storyboard Layer 3 (Foreground)
//Storyboard Sound Samples

[TimingPoints]
2732,574.712643678161,4,1,0,65,1,0
16525,-100,4,1,0,65,0,1
30318,-100,4,1,0,65,0,0
44111,-100,4,1,0,65,0,1
57904,-100,4,1,0,65,0,0

[Colours]
Combo1 : 255,253,254
Combo2 : 255,198,91
Combo3 : 208,40,1
Combo4 : 128,0,235
SliderBorder : 212,231,238
SliderTrackOverride : 40,42,68

[HitObjects]
256,192,1582,6,0,L|215:163,5,33.3333333333333
200,153,2157,1,0,0:0:0:0:
180,250,2444,1,6,2:2:0:0:
281,257,2732,5,2,2:0:0:0:
213,349,3019,1,0,2:0:0:0:
312,357,3306,2,2,P|356:319|356:259,1,100,2|0,2:0|2:0,2:0:0:0:
369,191,3881,1,2,2:0:0:0:
281,257,4168,1,0,2:0:0:0:
298,157,4456,2,2,P|336:121|390:120,1,100,0|0,2:0|2:0,2:0:0:0:
448,161,5030,5,2,2:0:0:0:
341,229,5318,1,0,2:0:0:0:
445,282,5605,2,2,P|407:316|348:317,1,100,2|0,2:0|2:0,2:0:0:0:
259,317,6180,1,2,2:0:0:0:
341,229,6467,1,0,2:0:0:0:
212,238,6754,1,2,2:0:0:0:
266,154,7042,1,2,2:2:0:0:
351,205,7329,5,2,2:0:0:0:
301,292,7617,1,0,2:0:0:0:
202,310,7904,2,2,P|155:284|141:225,1,100,2|0,2:0|2:0,2:0:0:0:
142,152,8479,1,2,2:0:0:0:
210,86,8766,1,0,2:0:0:0:
293,140,9053,2,2,P|253:187|208:185,1,100,2|0,2:0|2:0,2:0:0:0:
142,152,9628,5,2,2:0:0:0:
157,269,9915,1,0,2:0:0:0:
271,276,10203,2,2,B|315:252|315:252|332:171,1,100,2|0,2:0|2:0,2:0:0:0:
335,67,10777,1,2,2:0:0:0:
349,87,10969,1,0,2:0:0:0:
473,92,11209,1,2,2:0:0:0:
466,112,11352,2,2,P|450:158|406:180,1,100,2|0,2:0|2:0,2:0:0:0:
284,182,11927,5,4,2:1:0:0:
321,274,12214,1,2,2:0:0:0:
218,211,12502,1,0,2:0:0:0:
357,212,12789,1,2,2:0:0:0:
216,287,13076,1,0,2:0:0:0:
319,139,13364,1,2,2:0:0:0:
281,335,13651,1,0,2:0:0:0:
244,118,13938,1,2,2:0:0:0:
435,60,14226,6,0,P|454:118|430:169,1,100
353,281,14800,1,0,2:0:0:0:
246,156,15088,2,0,P|196:129|135:153,1,100,0|0,2:0|2:0,2:0:0:0:
51,322,15663,5,0,2:0:0:0:
175,165,15950,1,0,2:0:0:0:
284,332,16237,1,0,2:0:0:0:
362,179,16525,6,2,P|399:146|447:150,1,100,8|0,2:0|2:0,2:0:0:0:
412,295,17099,2,2,P|376:327|328:323,1,100,2|0,2:0|2:0,2:0:0:0:
231,206,17674,1,2,2:0:0:0:
71,333,18249,2,0,P|47:291|47:238,1,100,4|0,2:2|2:0,2:0:0:0:
46,94,18823,5,0,2:0:0:0:
234,161,19111,1,0,2:0:0:0:
85,27,19398,1,0,2:0:0:0:
172,207,19686,1,0,2:0:0:0:
159,7,19973,1,0,2:0:0:0:
95,196,20260,1,0,2:0:0:0:
227,45,20548,1,0,2:0:0:0:
48,135,20835,1,0,2:0:0:0:
214,245,21122,5,4,2:0:0:0:
278,109,21410,2,2,P|309:71|357:68,1,100,8|0,2:0|2:0,2:0:0:0:
504,97,21984,1,0,2:0:0:0:
460,240,22272,2,2,P|403:230|377:163,1,100,2|0,2:0|2:0,2:0:0:0:
323,59,22846,2,0,L|274:177,1,100,4|0,2:0|2:0,2:0:0:0:
159,233,23421,6,0,P|163:174|215:142,1,100,2|0,2:0|2:0,2:0:0:0:
308,242,23996,2,0,B|309:291|309:291|269:334,1,100,2|0,2:0|2:0,2:0:0:0:
148,252,24571,1,2,2:0:0:0:
293,217,24858,1,0,2:0:0:0:
155,157,25145,1,8,2:0:0:0:
233,285,25433,1,0,2:0:0:0:
336,176,25720,5,2,2:0:0:0:
203,106,26007,2,0,P|150:85|90:124,1,100,8|0,2:0|2:0,2:0:0:0:
36,228,26582,1,0,2:0:0:0:
155,318,26869,1,2,2:0:0:0:
455,316,27444,2,0,P|403:328|350:299,1,100,4|0,2:0|2:0,2:0:0:0:
267,193,28019,5,8,2:0:0:0:
395,115,28306,2,2,P|347:131|299:115,1,100,2|0,2:0|2:0,2:0:0:0:
254,215,28881,5,8,2:0:0:0:
404,93,29168,2,2,P|356:109|308:93,1,100,2|0,2:0|2:0,2:0:0:0:
145,72,29743,2,0,P|200:100|204:153,1,100,0|0,0:0|2:0,0:0:0:0:
211,233,30318,5,8,2:0:0:0:
122,186,30605,1,0,2:0:0:0:
113,285,30892,2,2,P|164:323|218:312,1,100,2|0,2:0|2:0,2:0:0:0:
297,317,31467,1,8,2:0:0:0:
334,229,31754,1,0,2:0:0:0:
378,140,32042,2,2,P|413:181|413:243,1,100,2|0,2:0|2:0,2:0:0:0:
413,325,32617,5,8,2:0:0:0:
334,229,32904,1,0,2:0:0:0:
283,331,33191,2,2,P|230:322|210:250,1,100,2|0,2:0|2:0,2:0:0:0:
173,190,33766,1,0,2:0:0:0:
278,159,34053,2,0,L|327:167,1,50
274,188,34340,2,0,L|322:199,1,50
268,218,34628,2,2,L|316:230,1,50,2|2,2:0|2:0,2:0:0:0:
363,247,34915,6,0,P|379:299|350:350,1,100,8|0,2:0|2:0,2:0:0:0:
266,310,35490,2,2,P|250:258|279:207,1,100,2|0,2:0|2:0,2:0:0:0:
372,145,36065,1,8,2:0:0:0:
281,207,36352,1,0,2:0:0:0:
364,232,36640,1,2,2:0:0:0:
285,122,36927,1,0,2:0:0:0:
368,91,37214,5,8,2:0:0:0:
422,174,37502,1,0,2:0:0:0:
369,258,37789,2,2,B|322:274|322:274|270:251,1,100,2|0,2:0|2:0,2:0:0:0:
206,184,38364,2,0,B|146:155|147:218|78:181,2,100,0|0|0,0:0|2:0|0:0,0:0:0:0:
278,114,39226,1,0,2:0:0:0:
208,42,39513,5,0,2:0:0:0:
299,2,39800,1,0,2:0:0:0:
371,71,40088,2,2,L|457:135,1,100,2|0,2:0|2:0,2:0:0:0:
498,218,40663,1,8,2:0:0:0:
448,304,40950,1,0,2:0:0:0:
358,347,41237,2,2,P|309:346|275:311,1,100,2|0,2:0|2:0,2:0:0:0:
247,215,41812,5,8,2:0:0:0:
363,188,42099,1,0,2:0:0:0:
235,130,42387,1,2,2:0:0:0:
331,257,42674,1,0,2:0:0:0:
295,80,42961,1,8,2:0:0:0:
255,276,43249,1,0,2:0:0:0:
373,90,43536,1,8,2:0:0:0:
176,227,43823,1,0,2:0:0:0:
358,309,44111,6,2,P|407:316|445:287,1,100,8|0,2:0|2:0,2:0:0:0:
466,139,44685,2,2,P|417:134|381:166,1,100,2|0,2:0|2:0,2:0:0:0:
286,283,45260,1,2,2:0:0:0:
283,126,45835,2,0,L|166:90,1,100,4|0,2:2|2:0,2:0:0:0:
38,78,46409,5,0,2:0:0:0:
213,173,46697,1,0,2:0:0:0:
87,18,46984,1,0,2:0:0:0:
145,209,47272,1,0,2:0:0:0:
163,10,47559,1,0,2:0:0:0:
70,186,47846,1,0,2:0:0:0:
224,58,48134,1,0,2:0:0:0:
33,118,48421,1,0,2:0:0:0:
86,300,48708,5,4,2:0:0:0:
257,314,48996,2,2,P|303:299|325:256,1,100,8|0,2:0|2:0,2:0:0:0:
333,106,49570,1,0,2:0:0:0:
463,180,49858,2,2,P|408:200|352:156,1,100,2|0,2:0|2:0,2:0:0:0:
261,85,50432,2,0,L|212:203,1,100,4|0,2:0|2:0,2:0:0:0:
100,265,51007,6,0,P|104:206|156:174,1,100,2|0,2:0|2:0,2:0:0:0:
255,265,51582,2,0,B|255:315|255:315|217:353,1,100,2|0,2:0|2:0,2:0:0:0:
81,305,52157,1,2,2:0:0:0:
224,263,52444,1,0,2:0:0:0:
107,170,52731,1,8,2:0:0:0:
159,310,53019,1,0,2:0:0:0:
252,192,53306,5,2,2:0:0:0:
351,304,53593,2,0,P|303:317|259:296,1,100,8|0,2:0|2:0,2:0:0:0:
124,229,54168,1,0,2:0:0:0:
234,128,54455,1,2,2:0:0:0:
394,175,55030,6,0,L|285:214,1,100,4|0,2:0|2:0,2:0:0:0:
113,281,55605,5,8,2:0:0:0:
206,163,55892,1,0,2:0:0:0:
266,300,56180,1,2,2:0:0:0:
145,210,56467,1,0,2:0:0:0:
257,91,56754,2,2,P|209:75|161:91,1,100,2|0,2:0|2:0,2:0:0:0:
62,218,57329,2,0,P|78:264|129:292,1,100,0|0,2:0|2:0,2:0:0:0:
420,292,58191,5,2,2:0:0:0:
188,198,58670,1,2,2:0:0:0:
358,93,59053,1,4,2:0:0:0:
