osu file format v14

[General]
AudioFilename: audio.mp3
AudioLeadIn: 0
PreviewTime: 45086
Countdown: 0
SampleSet: Normal
StackLeniency: 0.7
Mode: 0
LetterboxInBreaks: 0
WidescreenStoryboard: 0

[Editor]
Bookmarks: 13650,22837,32023,41210,50397,59583
DistanceSpacing: 1.6
BeatDivisor: 4
GridSize: 32
TimelineZoom: 1.3

[Metadata]
Title:Darkwing Duck Theme Song
TitleUnicode:Darkwing Duck Theme Song
Artist:Jeff Pescetto
ArtistUnicode:Jeff Pescetto
Creator:isopaharuntikka
Version:Dangerous
Source:Darkwing Duck
Tags:The Disney Channel Cartoon Opening Introduction Toon Television dankwing Su1fu7 sulfur
BeatmapID:1158801
BeatmapSetID:547106

[Difficulty]
HPDrainRate:5
CircleSize:5
OverallDifficulty:8
ApproachRate:8.5
SliderMultiplier:2
SliderTickRate:1

[Events]
//Background and Video events
0,0,"cropped-1366-768-467058.jpg",0,0
//Break Periods
//Storyboard Layer 0 (Background)
//Storyboard Layer 1 (Fail)
//Storyboard Layer 2 (Pass)
//Storyboard Layer 3 (Foreground)
//Storyboard Sound Samples

[TimingPoints]
2732,574.712643678161,4,1,0,65,1,0
16525,-100,4,1,0,65,0,1
30318,-100,4,1,0,65,0,0
44111,-100,4,1,0,65,0,1
57904,-100,4,1,0,65,0,0

[Colours]
Combo1 : 255,253,254
Combo2 : 255,198,91
Combo3 : 208,40,1
Combo4 : 128,0,235
SliderBorder : 212,231,238
SliderTrackOverride : 40,42,68

[HitObjects]
256,192,433,12,0,1007,2:0:0:0:
293,95,1582,5,0,2:0:0:0:
328,119,1678,1,0,2:0:0:0:
352,150,1774,1,0,2:0:0:0:
361,189,1869,1,0,2:0:0:0:
354,231,1965,1,0,2:0:0:0:
330,266,2061,1,0,2:0:0:0:
295,288,2157,2,0,L|223:309,1,50
114,276,2444,2,0,L|186:255,1,50
202,188,2732,5,2,2:0:0:0:
260,336,3019,1,0,2:0:0:0:
377,227,3306,2,2,P|350:185|302:176,1,100,2|0,2:0|2:0,2:0:0:0:
143,182,3881,1,2,2:0:0:0:
205,35,4168,1,0,2:0:0:0:
363,62,4456,2,2,P|405:94|408:148,1,100,0|0,2:0|2:0,2:0:0:0:
368,292,5030,5,2,2:0:0:0:
349,132,5318,1,0,2:0:0:0:
200,190,5605,2,2,P|184:235|206:279,1,100,2|0,2:0|2:0,2:0:0:0:
366,285,6180,1,2,2:0:0:0:
391,150,6467,1,0,2:0:0:0:
268,190,6754,1,2,2:0:0:0:
299,55,7042,1,2,2:2:0:0:
441,223,7329,5,2,2:0:0:0:
361,127,7617,1,0,2:0:0:0:
357,254,7904,2,2,P|301:244|278:208,1,100,2|0,2:0|2:0,2:0:0:0:
237,84,8479,1,2,2:0:0:0:
416,81,8766,1,0,2:0:0:0:
428,265,9053,2,2,P|395:311|351:317,1,100,2|0,2:0|2:0,2:0:0:0:
219,291,9628,5,2,2:0:0:0:
364,251,9915,1,0,2:0:0:0:
365,93,10203,2,2,P|309:63|251:92,1,100,2|0,2:0|2:0,2:0:0:0:
148,154,10777,1,2,2:0:0:0:
148,154,10969,1,0,2:0:0:0:
278,274,11209,1,2,2:0:0:0:
295,278,11352,2,2,P|343:250|351:192,1,100,2|0,2:0|2:0,2:0:0:0:
346,40,11927,5,4,2:1:0:0:
414,206,12214,1,2,2:0:0:0:
290,75,12502,1,0,2:0:0:0:
452,152,12789,1,2,2:0:0:0:
272,138,13076,1,0,2:0:0:0:
445,87,13364,1,2,2:0:0:0:
302,197,13651,1,0,2:0:0:0:
395,43,13938,1,2,2:0:0:0:
454,209,14226,5,0,2:0:0:0:
454,209,14417,1,0,2:0:0:0:
474,320,14657,1,0,2:0:0:0:
376,283,14944,1,0,2:0:0:0:
366,289,15088,2,0,P|315:265|241:288,1,100
88,296,15663,5,0,2:0:0:0:
190,124,15950,1,0,2:0:0:0:
298,292,16237,1,0,2:0:0:0:
247,95,16525,6,2,P|210:62|162:66,1,100,8|0,2:0|2:0,2:0:0:0:
33,328,17099,2,2,P|69:360|117:356,1,100,2|0,2:0|2:0,2:0:0:0:
298,292,17674,1,2,2:0:0:0:
256,34,18249,6,0,L|320:147,1,100,4|0,2:2|2:0,2:0:0:0:
370,306,18823,5,8,2:0:0:0:
141,77,19111,1,0,2:0:0:0:
256,354,19398,1,2,2:0:0:0:
256,29,19686,1,0,2:0:0:0:
141,306,19973,1,8,2:0:0:0:
370,77,20260,1,0,2:0:0:0:
93,191,20548,1,2,2:0:0:0:
418,192,20835,1,0,2:0:0:0:
256,321,21122,5,4,2:0:0:0:
256,127,21410,2,2,P|271:73|333:55,1,100,8|0,2:0|2:0,2:0:0:0:
463,36,21984,1,0,2:0:0:0:
436,261,22272,2,2,P|379:251|353:184,1,100,2|0,2:0|2:0,2:0:0:0:
350,35,22846,2,0,L|308:143,1,100,4|0,2:0|2:0,2:0:0:0:
176,260,23421,6,0,P|180:201|232:169,1,100,2|0,2:0|2:0,2:0:0:0:
310,84,23996,2,0,P|311:133|280:171,1,100,2|0,2:0|2:0,2:0:0:0:
101,233,24571,1,2,2:0:0:0:
249,68,24858,1,0,2:0:0:0:
92,76,25145,1,2,2:0:0:0:
257,224,25432,1,0,2:0:0:0:
449,97,25720,5,2,2:0:0:0:
299,37,26007,2,0,P|247:25|194:54,1,100,8|0,2:0|2:0,2:0:0:0:
66,97,26582,1,0,2:0:0:0:
256,147,26869,1,2,2:0:0:0:
208,244,27444,6,2,P|256:260|304:244,1,100,2|0,2:0|2:0,2:0:0:0:
451,63,28019,5,8,2:0:0:0:
304,176,28306,2,2,P|256:192|208:176,1,100,2|0,2:0|2:0,2:0:0:0:
28,32,28881,1,8,2:0:0:0:
207,205,29168,2,2,P|255:221|303:205,1,100,2|0,2:0|2:0,2:0:0:0:
475,77,29743,2,0,P|425:113|421:172,1,100,4|0,2:0|2:0,2:0:0:0:
458,343,30318,5,8,2:0:0:0:
373,208,30605,1,0,2:0:0:0:
291,341,30892,2,2,P|238:305|231:250,1,100,2|0,2:0|2:0,2:0:0:0:
208,95,31467,1,8,2:0:0:0:
351,194,31754,1,0,2:0:0:0:
460,63,32042,2,2,P|495:104|487:165,1,100,2|0,2:0|2:0,2:0:0:0:
426,287,32617,5,8,2:0:0:0:
321,154,32904,1,0,2:0:0:0:
268,302,33191,2,2,P|215:293|195:221,1,100,2|0,2:0|2:0,2:0:0:0:
166,69,33766,1,0,2:0:0:0:
254,196,34053,2,2,L|244:128,1,50,2|2,2:0|2:0,2:0:0:0:
305,79,34341,2,2,L|312:128,1,50,2|2,2:0|2:0,2:0:0:0:
389,167,34628,2,2,L|378:107,1,50,2|2,2:0|2:0,2:0:0:0:
450,116,34915,6,0,P|466:168|437:219,1,100,8|0,2:0|2:0,2:0:0:0:
213,195,35490,2,2,P|197:143|226:92,1,100,2|0,2:0|2:0,2:0:0:0:
424,115,36065,1,8,2:0:0:0:
237,201,36352,1,0,2:0:0:0:
420,207,36640,1,2,2:0:0:0:
232,99,36927,1,0,2:0:0:0:
229,281,37214,5,8,2:0:0:0:
132,198,37502,1,0,2:0:0:0:
170,79,37789,2,2,P|206:39|275:49,1,100,2|0,2:0|2:0,2:0:0:0:
423,27,38364,1,2,2:0:0:0:
406,51,38555,1,0,2:0:0:0:
419,206,38795,1,0,2:0:0:0:
402,182,38938,1,2,2:0:0:0:
290,117,39226,1,0,2:0:0:0:
472,123,39513,5,0,2:0:0:0:
366,268,39800,1,0,2:0:0:0:
347,88,40088,2,2,P|304:54|239:77,1,100,2|0,2:0|2:0,2:0:0:0:
113,151,40663,1,8,2:0:0:0:
211,253,40950,1,0,2:0:0:0:
325,155,41237,2,2,P|381:151|411:101,1,100,2|0,2:0|2:0,2:0:0:0:
480,57,41812,5,8,2:0:0:0:
342,201,42099,1,0,2:0:0:0:
428,20,42387,1,2,2:0:0:0:
404,218,42674,1,0,2:0:0:0:
364,22,42961,1,8,2:0:0:0:
464,195,43249,1,0,2:0:0:0:
313,64,43536,1,8,2:0:0:0:
499,139,43823,1,0,2:0:0:0:
313,337,44111,6,0,P|245:330|223:283,1,100,8|0,2:0|2:0,2:0:0:0:
199,47,44686,2,0,P|267:54|289:101,1,100,8|0,2:0|2:0,2:0:0:0:
338,237,45260,1,4,2:0:0:0:
434,138,45548,1,8,2:0:0:0:
321,341,45835,2,2,L|262:256,1,100,2|0,2:0|2:0,2:0:0:0:
142,78,46410,5,8,2:0:0:0:
371,307,46697,1,0,2:0:0:0:
256,30,46984,1,2,2:0:0:0:
256,355,47272,1,0,2:0:0:0:
371,78,47559,1,8,2:0:0:0:
142,307,47846,1,0,2:0:0:0:
419,193,48134,1,2,2:0:0:0:
94,192,48421,1,0,2:0:0:0:
256,63,48709,5,4,2:0:0:0:
259,253,48996,2,2,P|249:310|182:336,1,100,8|0,2:0|2:0,2:0:0:0:
62,331,49571,1,0,2:0:0:0:
80,128,49858,2,2,P|137:138|163:205,1,100,2|0,2:0|2:0,2:0:0:0:
155,334,50433,2,0,P|202:367|268:338,1,100,4|0,2:0|2:0,2:0:0:0:
385,65,51007,5,8,2:0:0:0:
96,65,51582,1,8,2:0:0:0:
259,73,52157,1,8,2:0:0:0:
121,209,52444,1,0,2:0:0:0:
258,345,52732,1,2,2:0:0:0:
394,209,53019,1,2,2:0:0:0:
345,39,53306,5,4,2:2:0:0:
457,190,53594,2,0,P|450:247|396:275,1,100,8|0,2:0|2:0,2:0:0:0:
240,347,54168,1,0,2:0:0:0:
181,186,54456,1,0,2:0:0:0:
433,39,55030,6,2,L|322:97,1,100,2|2,2:0|2:0,2:0:0:0:
240,116,55605,5,8,2:0:0:0:
416,340,55892,1,0,2:0:0:0:
440,140,56180,1,2,2:0:0:0:
216,316,56467,1,0,2:0:0:0:
317,59,56754,2,2,P|269:43|221:59,1,100,2|0,2:0|2:0,2:0:0:0:
49,187,57329,2,0,P|99:151|103:92,1,100,0|0,2:0|2:0,2:0:0:0:
105,31,58191,5,2,2:0:0:0:
258,318,58622,1,2,2:0:0:0:
447,60,59053,1,4,2:0:0:0:
