osu file format v14

[General]
AudioFilename: [MV] Super Pantsu Boy.mp3
AudioLeadIn: 0
PreviewTime: 42166
Countdown: 0
SampleSet: Soft
StackLeniency: 0.7
Mode: 2
LetterboxInBreaks: 1
EpilepsyWarning: 1
WidescreenStoryboard: 1

[Editor]
DistanceSpacing: 1.2
BeatDivisor: 4
GridSize: 8
TimelineZoom: 1

[Metadata]
Title:Super Pantsu Boy
TitleUnicode:Super Pantsu Boy
Artist:Jefaischierlesgens
ArtistUnicode:Jefaischierlesgens
Creator:Astreachan
Version:Salad
Source:Super Meat Boy
Tags:Sohara Sora no Otoshimono Boobs 414 Shad0w414
BeatmapID:1437558
BeatmapSetID:679620

[Difficulty]
HPDrainRate:4
CircleSize:3
OverallDifficulty:6
ApproachRate:7
SliderMultiplier:1.5
SliderTickRate:1

[Events]
//Background and Video events
0,0,"lol.jpg",0,0
Video,0,"[MV] Super Pantsu Boy.avi"
//Break Periods
//Storyboard Layer 0 (Background)
//Storyboard Layer 1 (Fail)
//Storyboard Layer 2 (Pass)
//Storyboard Layer 3 (Foreground)
//Storyboard Sound Samples

[TimingPoints]
3766,300,4,2,0,60,1,0
42166,-100,4,2,0,60,0,1
61366,-100,4,2,0,60,0,0

[Colours]
Combo1 : 255,0,0
Combo2 : 255,128,192
Combo3 : 255,128,0
Combo4 : 242,24,57

[HitObjects]
256,192,1666,12,0,2416,0:0:0:0:
256,192,2716,12,4,3766,0:0:0:0:
240,184,3916,6,0,L|328:184,2,75,0|0|8,0:0|0:0|0:3,0:0:0:0:
128,176,4966,2,0,L|40:48,2,150,0|4|8,0:0|0:3|0:3,0:0:0:0:
256,192,6166,6,0,L|336:192,3,75,0|0|0|8,0:0|0:0|0:0|0:3,0:0:0:0:
192,176,7666,2,0,L|40:176,1,150,4|8,0:3|0:3,0:0:0:0:
320,184,8566,6,0,L|400:184,3,75,0|0|0|8,0:0|0:0|0:0|0:3,0:0:0:0:
192,176,9766,2,0,L|16:176,2,150,0|4|8,0:0|0:3|0:3,0:0:0:0:
288,192,10966,6,0,L|384:192,3,75,0|0|0|8,0:0|0:0|0:0|0:3,0:0:0:0:
120,200,11866,2,8,L|32:200,1,75,8|8,0:3|0:3,0:3:0:0:
296,200,12466,2,0,L|448:200,3,150,0|8|8|0,0:0|0:3|0:3|0:0,0:0:0:0:
136,176,14566,5,0,0:0:0:0:
312,184,15016,1,0,0:0:0:0:
144,176,15466,1,8,0:3:0:0:
264,192,15766,2,0,L|168:192,1,75
264,192,16816,6,0,L|344:192,1,75,8|0,0:3|0:0,0:0:0:0:
256,184,17416,2,0,L|160:184,1,75
288,168,17866,2,0,L|376:168,1,75,8|0,0:3|0:0,0:0:0:0:
264,168,18166,2,0,L|168:168,1,75
368,176,19366,6,0,L|280:176,2,75,0|0|8,0:0|0:0|0:3,0:0:0:0:
168,160,20266,1,8,0:3:0:0:
344,184,20566,2,0,L|448:184,2,75,0|0|8,0:0|0:0|0:3,0:0:0:0:
136,160,21166,6,0,L|56:160,2,75,0|0|8,0:0|0:0|0:3,0:0:0:0:
336,160,21766,2,0,L|432:160,2,75,0|0|8,0:0|0:0|0:3,0:0:0:0:
200,216,22366,1,0,0:0:0:0:
160,192,22516,1,0,0:0:0:0:
112,152,22666,1,8,0:3:0:0:
176,128,22816,1,0,0:0:0:0:
304,120,22966,1,4,0:0:0:0:
216,176,24766,6,0,L|376:176,2,150
88,160,25966,1,0,0:0:0:0:
256,192,27166,6,0,P|296:160|504:248,1,300
256,192,29566,6,0,P|176:160|48:320,1,300
168,192,31366,6,0,L|320:192,1,150
200,192,31966,2,0,L|48:192,1,150,8|0,0:3|0:0,0:0:0:0:
256,200,32566,2,0,L|408:200,1,150,0|8,0:0|0:3,0:0:0:0:
248,176,33166,6,0,L|152:176,2,75,0|0|8,0:0|0:0|0:3,0:0:0:0:
352,208,33766,1,0,0:0:0:0:
392,184,33916,1,0,0:0:0:0:
424,152,34066,1,8,0:3:0:0:
200,192,34366,1,0,0:0:0:0:
144,176,34516,1,0,0:0:0:0:
88,136,34666,1,8,0:3:0:0:
368,200,34966,6,0,L|424:144,2,75,0|0|8,0:0|0:0|0:3,0:0:0:0:
176,200,35566,2,0,L|120:128,2,75,0|0|8,0:0|0:0|0:3,0:0:0:0:
56,192,36166,2,0,L|120:136,2,75,0|0|8,0:0|0:0|0:3,0:0:0:0:
272,184,36766,2,0,L|360:184,1,75
456,184,37066,2,8,L|376:184,1,75,8|8,0:3|0:3,0:3:0:0:
272,184,37366,6,0,P|232:168|112:208,1,150,0|8,0:0|0:3,0:0:0:0:
256,192,38266,1,8,0:3:0:0:
224,192,38416,2,8,L|184:192,2,37.5,8|8|8,0:3|0:3|0:3,0:3:0:0:
144,160,38866,6,0,L|296:160,2,150,8|0|8,0:3|0:0|0:3,0:0:0:0:
304,160,39766,2,0,L|384:160,2,75,0|0|8,0:0|0:0|0:3,0:0:0:0:
288,192,40666,5,8,0:3:0:0:
368,200,40816,1,8,0:3:0:0:
392,192,40891,1,8,0:3:0:0:
424,176,40966,1,2,0:0:0:0:
128,176,41566,5,2,0:0:0:0:
312,208,42166,6,0,L|232:216,1,75,4|0,0:0|0:0,0:0:0:0:
96,208,42466,2,0,L|32:144,1,75
144,120,42766,2,0,L|232:120,1,75,8|0,0:3|0:0,0:0:0:0:
280,120,43066,2,0,L|184:120,1,75
136,112,43366,1,0,0:0:0:0:
224,120,43516,5,0,0:0:0:0:
344,128,43666,1,0,0:0:0:0:
392,112,43816,2,0,L|472:112,1,75,0|8,0:0|0:3,0:0:0:0:
384,112,44116,1,0,0:0:0:0:
248,176,44266,2,0,L|88:176,1,150,8|4,0:3|0:0,0:0:0:0:
240,120,44716,6,0,L|320:120,1,75
384,128,45016,2,0,L|472:128,1,75,0|8,0:0|0:3,0:0:0:0:
352,112,45316,2,0,L|256:112,1,75
208,112,45616,1,0,0:0:0:0:
104,112,45766,1,4,0:3:0:0:
304,120,46066,1,4,0:3:0:0:
456,104,46366,1,4,0:3:0:0:
272,104,46666,1,4,0:3:0:0:
128,152,46966,6,0,L|40:152,1,75,4|0,0:0|0:0,0:0:0:0:
112,112,47266,2,0,L|200:112,1,75,0|8,0:0|0:3,0:0:0:0:
280,120,47566,2,0,L|368:120,1,75
448,136,47866,1,0,0:0:0:0:
408,128,48016,1,8,0:3:0:0:
360,112,48166,1,0,0:0:0:0:
304,104,48316,1,0,0:0:0:0:
200,96,48466,5,0,0:0:0:0:
144,88,48616,1,0,0:0:0:0:
96,96,48766,1,8,0:3:0:0:
160,96,48916,1,0,0:0:0:0:
224,96,49066,1,8,0:3:0:0:
152,96,49216,1,8,0:3:0:0:
256,104,49366,5,8,0:3:0:0:
384,96,49666,1,8,0:3:0:0:
264,112,49966,1,8,0:3:0:0:
136,112,50266,1,8,0:3:0:0:
264,104,50566,1,8,0:3:0:0:
416,104,50866,1,8,0:3:0:0:
280,112,51166,1,8,0:3:0:0:
96,112,51466,1,8,0:3:0:0:
48,128,51766,6,0,L|200:80,1,150,4|2,0:0|0:0,0:0:0:0:
360,80,52366,1,8,0:3:0:0:
288,168,52666,1,2,0:0:0:0:
224,168,52816,2,4,L|128:168,1,75,4|4,0:3|0:3,0:3:0:0:
264,168,53266,2,0,L|416:168,1,150,2|8,0:0|0:3,0:0:0:0:
256,168,53866,1,0,0:0:0:0:
112,184,54166,6,0,B|80:152|80:152|216:144,2,150,4|2|8,0:0|0:0|0:3,0:0:0:0:
232,176,55066,1,2,0:0:0:0:
336,184,55216,2,4,L|416:184,1,75,4|4,0:3|0:3,0:3:0:0:
232,184,55666,1,2,0:0:0:0:
168,200,55966,2,8,B|104:184|104:184|104:128|104:128|160:128,1,150,8|8,0:3|0:3,0:3:0:0:
256,192,56566,12,0,58891,0:0:0:0:
256,192,58966,12,4,61366,0:0:0:0:
