osu file format v14

[General]
AudioFilename: [MV] Super Pantsu Boy.mp3
AudioLeadIn: 0
PreviewTime: 42166
Countdown: 0
SampleSet: Soft
StackLeniency: 0.7
Mode: 2
LetterboxInBreaks: 1
EpilepsyWarning: 1
WidescreenStoryboard: 1

[Editor]
DistanceSpacing: 1.2
BeatDivisor: 4
GridSize: 8
TimelineZoom: 1

[Metadata]
Title:Super Pantsu Boy
TitleUnicode:Super Pantsu Boy
Artist:Jefaischierlesgens
ArtistUnicode:Jefaischierlesgens
Creator:Astreachan
Version:Cup
Source:Super Meat Boy
Tags:Sohara Sora no Otoshimono Boobs 414 Shad0w414
BeatmapID:1437134
BeatmapSetID:679620

[Difficulty]
HPDrainRate:2
CircleSize:3
OverallDifficulty:2
ApproachRate:2
SliderMultiplier:1
SliderTickRate:1

[Events]
//Background and Video events
0,0,"lol.jpg",0,0
Video,0,"[MV] Super Pantsu Boy.avi"
//Break Periods
//Storyboard Layer 0 (Background)
//Storyboard Layer 1 (Fail)
//Storyboard Layer 2 (Pass)
//Storyboard Layer 3 (Foreground)
//Storyboard Sound Samples

[TimingPoints]
3766,300,4,2,0,60,1,0
42166,-100,4,2,0,60,0,1
61366,-100,4,2,0,60,0,0

[Colours]
Combo1 : 255,0,0
Combo2 : 255,128,192
Combo3 : 255,128,0
Combo4 : 242,24,57

[HitObjects]
256,192,1666,12,0,2416,0:0:0:0:
256,192,2791,12,4,3766,0:0:0:0:
200,184,5716,6,0,L|136:184,4,50
256,200,7666,6,0,P|336:176|360:168,2,100,0|8|0,0:0|0:3|0:0,0:0:0:0:
168,192,8566,2,0,L|96:192,1,50,4|0,0:0|0:0,0:0:0:0:
136,176,10516,6,0,L|208:176,4,50,0|2|0|2|0,0:0|0:0|0:0|0:0|0:0,0:0:0:0:
312,160,12466,6,0,L|384:80,3,100,0|8|8|0,0:0|0:3|0:3|0:0,0:0:0:0:
152,152,14566,5,0,0:0:0:0:
264,168,15016,1,0,0:0:0:0:
320,192,15466,2,0,L|248:120,1,100,8|2,0:3|0:0,0:0:0:0:
112,192,16966,5,0,0:0:0:0:
256,192,17416,1,0,0:0:0:0:
432,192,17866,2,0,L|384:104,1,100,8|2,0:3|0:0,0:0:0:0:
280,112,18316,1,0,0:0:0:0:
96,144,19366,5,0,0:0:0:0:
200,176,19816,1,0,0:0:0:0:
272,200,20266,1,8,0:3:0:0:
192,184,20566,2,0,L|136:176,1,50
264,192,21766,5,0,0:0:0:0:
160,176,22216,1,0,0:0:0:0:
320,240,22666,1,0,0:0:0:0:
288,216,22816,1,0,0:0:0:0:
248,192,22966,6,0,L|168:112,2,100,2|0|0,0:0|0:0|0:0,0:0:0:0:
200,208,24766,6,2,B|296:88|296:88|328:32,2,200
152,224,27166,6,2,B|96:192|96:184|152:128|152:128|208:72,1,200
304,184,29566,2,2,B|360:176|360:176|312:40|312:40|304:32,1,200
152,264,31366,6,2,L|232:64,2,200,2|8|2,0:0|0:3|0:0,0:0:0:0:
408,208,33766,5,0,0:0:0:0:
264,208,34366,1,0,0:0:0:0:
368,192,34966,1,0,0:0:0:0:
264,192,35566,1,0,0:0:0:0:
136,208,36166,5,0,0:0:0:0:
248,200,36766,1,0,0:0:0:0:
336,176,37366,1,2,0:0:0:0:
168,168,38566,5,0,0:0:0:0:
288,184,39166,1,2,0:0:0:0:
400,176,39766,1,0,0:0:0:0:
232,192,40966,5,0,0:0:0:0:
304,192,41566,5,2,0:0:0:0:
248,192,42166,6,0,P|288:176|440:208,1,200,4|8,0:0|0:3,0:0:0:0:
248,184,43966,6,8,L|176:104,2,100,8|8|8,0:3|0:3|0:3,0:3:0:0:
368,176,45166,1,8,0:3:0:0:
248,176,45766,6,0,L|184:96,3,100,0|8|8|0,0:0|0:3|0:3|0:0,0:0:0:0:
320,192,46966,6,0,L|384:112,3,100,0|8|0|0,0:0|0:3|0:0|0:0,0:0:0:0:
312,96,48016,1,8,0:3:0:0:
248,168,48166,2,0,L|184:80,3,100,0|0|8|8,0:0|0:0|0:3|0:3,0:0:0:0:
256,192,49366,12,0,50491,0:0:0:0:
256,192,50566,12,4,51766,0:0:0:0:
240,176,52366,5,8,0:3:0:0:
336,168,52966,2,0,L|400:80,2,100,2|2|8,0:0|0:0|0:3,0:0:0:0:
216,176,54166,6,0,P|168:144|32:176,1,200,4|8,0:0|0:3,0:0:0:0:
216,216,55366,2,0,L|304:136,2,100,2|2|8,0:0|0:0|0:3,0:0:0:0:
256,192,56566,12,0,58891,0:0:0:0:
256,192,58966,12,0,60091,0:0:0:0:
256,192,60166,12,4,61366,0:0:0:0:
