osu file format v14

[General]
AudioFilename: audio.mp3
AudioLeadIn: 0
PreviewTime: 84893
Countdown: 0
SampleSet: Normal
StackLeniency: 0.7
Mode: 3
LetterboxInBreaks: 0
SpecialStyle: 0
WidescreenStoryboard: 0

[Editor]
DistanceSpacing: 0.8
BeatDivisor: 4
GridSize: 8
TimelineZoom: 3.999999

[Metadata]
Title:Tadhana (Up Dharma Down Cover)
TitleUnicode:Tadhana (Up Dharma Down Cover)
Artist:Jeeps Over Taxis
ArtistUnicode:Jeeps Over Taxis
Creator:Hezekiah-
Version:Storms of Fate
Source:
Tags:opm
BeatmapID:1213415
BeatmapSetID:572697

[Difficulty]
HPDrainRate:7
CircleSize:4
OverallDifficulty:9
ApproachRate:5
SliderMultiplier:1.5
SliderTickRate:1

[Events]
//Background and Video events
0,0,"736461.png",0,0
//Break Periods
//Storyboard Layer 0 (Background)
//Storyboard Layer 1 (Fail)
//Storyboard Layer 2 (Pass)
//Storyboard Layer 3 (Foreground)
//Storyboard Sound Samples

[TimingPoints]
470,384.615384615385,4,1,0,100,1,0

[HitObjects]
64,192,470,128,0,1431:0:0:0:0:
192,192,854,1,0,0:0:0:0:
320,192,854,128,0,950:0:0:0:0:
320,192,1239,1,0,0:0:0:0:
448,192,1239,128,0,1335:0:0:0:0:
448,192,1623,128,0,2393:0:0:0:0:
64,192,1816,1,0,0:0:0:0:
192,192,1816,128,0,1912:0:0:0:0:
192,192,2200,1,0,0:0:0:0:
320,192,2200,128,0,2296:0:0:0:0:
64,192,2200,128,0,2296:0:0:0:0:
64,192,2585,128,0,3354:0:0:0:0:
192,192,2777,1,0,0:0:0:0:
320,192,2777,128,0,2873:0:0:0:0:
320,192,3162,1,0,0:0:0:0:
448,192,3162,128,0,3258:0:0:0:0:
448,192,3546,128,0,4508:0:0:0:0:
320,192,3546,128,0,3643:0:0:0:0:
192,192,3546,1,0,0:0:0:0:
192,192,3931,1,0,0:0:0:0:
64,192,3931,128,0,4027:0:0:0:0:
320,192,4316,1,0,0:0:0:0:
192,192,4316,128,0,4412:0:0:0:0:
64,192,4700,128,0,5470:0:0:0:0:
320,192,4893,1,0,0:0:0:0:
192,192,4893,128,0,4989:0:0:0:0:
320,192,5277,1,0,0:0:0:0:
448,192,5277,128,0,5373:0:0:0:0:
448,192,5662,128,0,7489:0:0:0:0:
192,192,5854,1,0,0:0:0:0:
64,192,5854,128,0,5950:0:0:0:0:
320,192,6239,128,0,8258:0:0:0:0:
64,192,6623,128,0,7200:0:0:0:0:
192,192,7008,128,0,7873:0:0:0:0:
64,192,7393,128,0,8643:0:0:0:0:
448,192,7777,128,0,8835:0:0:0:0:
192,192,8162,128,0,9220:0:0:0:0:
320,192,8546,128,0,9027:0:0:0:0:
64,192,8931,128,0,10277:0:0:0:0:
320,192,9316,128,0,10181:0:0:0:0:
448,192,9700,128,0,10950:0:0:0:0:
192,192,10085,128,0,11431:0:0:0:0:
320,192,10470,128,0,11143:0:0:0:0:
64,192,10854,128,0,12200:0:0:0:0:
320,192,11239,128,0,12296:0:0:0:0:
192,192,12393,1,0,0:0:0:0:
320,192,12489,1,0,0:0:0:0:
192,192,12585,1,0,0:0:0:0:
448,192,12681,1,0,0:0:0:0:
64,192,12777,128,0,12970:0:0:0:0:
192,192,12970,1,0,0:0:0:0:
320,192,12970,128,0,13162:0:0:0:0:
448,192,13162,1,0,0:0:0:0:
192,192,13258,1,0,0:0:0:0:
320,192,13354,1,0,0:0:0:0:
320,192,13546,1,0,0:0:0:0:
448,192,13546,1,0,0:0:0:0:
64,192,13546,128,0,13835:0:0:0:0:
192,192,13739,1,0,0:0:0:0:
320,192,13931,1,0,0:0:0:0:
448,192,13931,1,0,0:0:0:0:
64,192,14123,1,0,0:0:0:0:
320,192,14123,1,0,0:0:0:0:
192,192,14316,128,0,15085:0:0:0:0:
320,192,14508,1,0,0:0:0:0:
448,192,14604,1,0,0:0:0:0:
320,192,14700,1,0,0:0:0:0:
64,192,14700,1,0,0:0:0:0:
448,192,14893,1,0,0:0:0:0:
448,192,15085,128,0,15854:0:0:0:0:
64,192,15085,128,0,15181:0:0:0:0:
320,192,15085,1,0,0:0:0:0:
192,192,15277,1,0,0:0:0:0:
320,192,15470,1,0,0:0:0:0:
64,192,15470,1,0,0:0:0:0:
64,192,15662,128,0,15758:0:0:0:0:
192,192,15662,1,0,0:0:0:0:
320,192,15854,128,0,16623:0:0:0:0:
192,192,16046,1,0,0:0:0:0:
448,192,16046,1,0,0:0:0:0:
64,192,16239,1,0,0:0:0:0:
192,192,16335,1,0,0:0:0:0:
64,192,16431,1,0,0:0:0:0:
192,192,16623,128,0,17008:0:0:0:0:
448,192,16623,1,0,0:0:0:0:
64,192,16816,1,0,0:0:0:0:
320,192,17008,128,0,17200:0:0:0:0:
448,192,17008,1,0,0:0:0:0:
448,192,17104,1,0,0:0:0:0:
448,192,17200,1,0,0:0:0:0:
64,192,17393,128,0,17585:0:0:0:0:
192,192,17393,1,0,0:0:0:0:
320,192,17585,1,0,0:0:0:0:
192,192,17777,128,0,17970:0:0:0:0:
448,192,17777,1,0,0:0:0:0:
320,192,17970,128,0,18162:0:0:0:0:
448,192,18162,128,0,18354:0:0:0:0:
64,192,18162,1,0,0:0:0:0:
192,192,18546,128,0,18931:0:0:0:0:
64,192,18546,128,0,19027:0:0:0:0:
320,192,18546,1,0,0:0:0:0:
448,192,18643,1,0,0:0:0:0:
320,192,18739,1,0,0:0:0:0:
448,192,18931,128,0,19316:0:0:0:0:
320,192,19123,1,0,0:0:0:0:
320,192,19316,128,0,19604:0:0:0:0:
192,192,19412,1,0,0:0:0:0:
64,192,19508,1,0,0:0:0:0:
192,192,19700,128,0,20085:0:0:0:0:
448,192,19700,1,0,0:0:0:0:
64,192,19893,1,0,0:0:0:0:
320,192,20085,128,0,20470:0:0:0:0:
448,192,20085,1,0,0:0:0:0:
64,192,20277,1,0,0:0:0:0:
448,192,20277,1,0,0:0:0:0:
192,192,20470,128,0,21239:0:0:0:0:
320,192,20662,1,0,0:0:0:0:
448,192,20758,1,0,0:0:0:0:
320,192,20854,1,0,0:0:0:0:
64,192,21046,1,0,0:0:0:0:
320,192,21239,128,0,24316:0:0:0:0:
448,192,21239,1,0,0:0:0:0:
192,192,21431,1,0,0:0:0:0:
448,192,21431,1,0,0:0:0:0:
64,192,21623,1,0,0:0:0:0:
448,192,21623,1,0,0:0:0:0:
192,192,21816,1,0,0:0:0:0:
64,192,21816,1,0,0:0:0:0:
192,192,22008,128,0,24027:0:0:0:0:
64,192,22008,128,0,24604:0:0:0:0:
448,192,22008,128,0,24893:0:0:0:0:
64,192,25085,128,0,25373:0:0:0:0:
320,192,25085,128,0,25373:0:0:0:0:
192,192,25085,128,0,25373:0:0:0:0:
448,192,25085,128,0,25373:0:0:0:0:
320,192,25470,1,0,0:0:0:0:
192,192,25470,1,0,0:0:0:0:
448,192,25662,1,0,0:0:0:0:
192,192,25662,1,0,0:0:0:0:
64,192,25662,1,0,0:0:0:0:
64,192,25854,128,0,26143:0:0:0:0:
448,192,25854,128,0,26143:0:0:0:0:
320,192,25854,128,0,26143:0:0:0:0:
192,192,26239,1,0,0:0:0:0:
448,192,26239,1,0,0:0:0:0:
320,192,26431,1,0,0:0:0:0:
64,192,26431,1,0,0:0:0:0:
448,192,26623,128,0,26912:0:0:0:0:
192,192,26623,128,0,26912:0:0:0:0:
64,192,26623,128,0,26912:0:0:0:0:
320,192,27008,1,0,0:0:0:0:
448,192,27008,1,0,0:0:0:0:
64,192,27200,1,0,0:0:0:0:
320,192,27200,1,0,0:0:0:0:
448,192,27393,128,0,27681:0:0:0:0:
320,192,27393,128,0,27681:0:0:0:0:
192,192,27393,128,0,27681:0:0:0:0:
64,192,27777,1,0,0:0:0:0:
320,192,27777,1,0,0:0:0:0:
192,192,27777,1,0,0:0:0:0:
192,192,27970,128,0,28258:0:0:0:0:
64,192,27970,128,0,28450:0:0:0:0:
448,192,27970,128,0,28450:0:0:0:0:
320,192,27970,128,0,28258:0:0:0:0:
192,192,28354,128,0,28643:0:0:0:0:
320,192,28354,128,0,28643:0:0:0:0:
64,192,28546,128,0,28835:0:0:0:0:
448,192,28546,128,0,28835:0:0:0:0:
192,192,28739,1,0,0:0:0:0:
320,192,28739,1,0,0:0:0:0:
64,192,28931,128,0,29220:0:0:0:0:
320,192,28931,128,0,29412:0:0:0:0:
448,192,28931,128,0,29220:0:0:0:0:
192,192,28931,128,0,29412:0:0:0:0:
448,192,29316,1,0,0:0:0:0:
64,192,29316,1,0,0:0:0:0:
320,192,29508,1,0,0:0:0:0:
192,192,29508,1,0,0:0:0:0:
320,192,29700,128,0,29989:0:0:0:0:
64,192,29700,128,0,29989:0:0:0:0:
192,192,29700,128,0,30181:0:0:0:0:
448,192,29700,128,0,30181:0:0:0:0:
320,192,30085,1,0,0:0:0:0:
64,192,30085,1,0,0:0:0:0:
192,192,30277,1,0,0:0:0:0:
448,192,30277,1,0,0:0:0:0:
448,192,30470,128,0,30950:0:0:0:0:
320,192,30470,128,0,30566:0:0:0:0:
64,192,30470,1,0,0:0:0:0:
192,192,30662,128,0,30758:0:0:0:0:
64,192,30662,1,0,0:0:0:0:
64,192,30854,128,0,30950:0:0:0:0:
320,192,30854,1,0,0:0:0:0:
192,192,31046,128,0,31527:0:0:0:0:
320,192,31046,128,0,31527:0:0:0:0:
448,192,31046,128,0,31335:0:0:0:0:
64,192,31046,128,0,31335:0:0:0:0:
64,192,31431,128,0,31720:0:0:0:0:
448,192,31431,128,0,31720:0:0:0:0:
192,192,31623,128,0,31912:0:0:0:0:
320,192,31623,128,0,31912:0:0:0:0:
64,192,31816,1,0,0:0:0:0:
448,192,31816,1,0,0:0:0:0:
64,192,32008,128,0,32296:0:0:0:0:
448,192,32008,128,0,32296:0:0:0:0:
192,192,32008,128,0,32489:0:0:0:0:
320,192,32008,128,0,32489:0:0:0:0:
64,192,32393,128,0,32681:0:0:0:0:
448,192,32393,128,0,32681:0:0:0:0:
192,192,32585,1,0,0:0:0:0:
320,192,32585,1,0,0:0:0:0:
320,192,32777,128,0,33066:0:0:0:0:
448,192,32777,128,0,33066:0:0:0:0:
64,192,32777,128,0,33066:0:0:0:0:
192,192,33162,1,0,0:0:0:0:
320,192,33354,1,0,0:0:0:0:
448,192,33354,1,0,0:0:0:0:
64,192,33546,1,0,0:0:0:0:
320,192,33546,1,0,0:0:0:0:
448,192,33546,1,0,0:0:0:0:
192,192,33546,1,0,0:0:0:0:
64,192,33739,128,0,33931:0:0:0:0:
320,192,33739,128,0,33931:0:0:0:0:
192,192,33931,128,0,34123:0:0:0:0:
448,192,33931,128,0,34123:0:0:0:0:
320,192,34123,128,0,34316:0:0:0:0:
64,192,34123,128,0,34316:0:0:0:0:
192,192,34508,1,0,0:0:0:0:
320,192,34508,1,0,0:0:0:0:
320,192,34700,1,0,0:0:0:0:
64,192,34700,1,0,0:0:0:0:
448,192,34700,1,0,0:0:0:0:
192,192,34893,1,0,0:0:0:0:
448,192,34893,1,0,0:0:0:0:
64,192,35085,128,0,35470:0:0:0:0:
192,192,35085,128,0,35470:0:0:0:0:
320,192,35085,128,0,35470:0:0:0:0:
448,192,35470,1,0,0:0:0:0:
320,192,35662,1,0,0:0:0:0:
192,192,35662,1,0,0:0:0:0:
320,192,35854,128,0,37296:0:0:0:0:
448,192,35854,128,0,37296:0:0:0:0:
64,192,36431,1,0,0:0:0:0:
192,192,36527,1,0,0:0:0:0:
64,192,36623,1,0,0:0:0:0:
192,192,36816,128,0,36912:0:0:0:0:
64,192,37008,128,0,37104:0:0:0:0:
192,192,37200,128,0,37296:0:0:0:0:
448,192,37441,128,0,37921:0:0:0:0:
64,192,37441,128,0,37921:0:0:0:0:
192,192,37441,128,0,37921:0:0:0:0:
320,192,37825,1,0,0:0:0:0:
320,192,38018,1,0,0:0:0:0:
320,192,38210,1,0,0:0:0:0:
64,192,38354,1,0,0:0:0:0:
192,192,38354,1,0,0:0:0:0:
448,192,38546,128,0,40470:0:0:0:0:
320,192,38546,1,0,0:0:0:0:
192,192,38739,1,0,0:0:0:0:
64,192,38931,1,0,0:0:0:0:
192,192,39123,1,0,0:0:0:0:
64,192,39316,1,0,0:0:0:0:
192,192,39508,1,0,0:0:0:0:
320,192,39700,1,0,0:0:0:0:
64,192,39700,1,0,0:0:0:0:
192,192,39893,1,0,0:0:0:0:
64,192,40085,1,0,0:0:0:0:
320,192,40277,1,0,0:0:0:0:
192,192,40277,1,0,0:0:0:0:
192,192,40470,128,0,41623:0:0:0:0:
64,192,40470,1,0,0:0:0:0:
320,192,40470,1,0,0:0:0:0:
448,192,40662,1,0,0:0:0:0:
320,192,40854,1,0,0:0:0:0:
64,192,41046,1,0,0:0:0:0:
320,192,41239,1,0,0:0:0:0:
448,192,41239,1,0,0:0:0:0:
64,192,41431,1,0,0:0:0:0:
320,192,41623,128,0,42296:0:0:0:0:
448,192,41623,1,0,0:0:0:0:
192,192,41816,1,0,0:0:0:0:
64,192,42008,1,0,0:0:0:0:
448,192,42200,1,0,0:0:0:0:
64,192,42393,1,0,0:0:0:0:
192,192,42585,1,0,0:0:0:0:
320,192,42777,1,0,0:0:0:0:
448,192,42777,1,0,0:0:0:0:
64,192,42970,1,0,0:0:0:0:
320,192,43162,128,0,43546:0:0:0:0:
192,192,43162,128,0,43546:0:0:0:0:
448,192,43546,1,0,0:0:0:0:
64,192,43546,128,0,44700:0:0:0:0:
192,192,43739,1,0,0:0:0:0:
320,192,43931,1,0,0:0:0:0:
448,192,44123,1,0,0:0:0:0:
320,192,44316,1,0,0:0:0:0:
192,192,44316,1,0,0:0:0:0:
320,192,44508,1,0,0:0:0:0:
320,192,44700,128,0,46623:0:0:0:0:
192,192,44700,1,0,0:0:0:0:
448,192,44893,1,0,0:0:0:0:
192,192,45085,1,0,0:0:0:0:
64,192,45277,1,0,0:0:0:0:
192,192,45470,1,0,0:0:0:0:
448,192,45662,1,0,0:0:0:0:
192,192,45854,1,0,0:0:0:0:
64,192,45854,1,0,0:0:0:0:
192,192,46046,1,0,0:0:0:0:
448,192,46239,1,0,0:0:0:0:
192,192,46431,128,0,46623:0:0:0:0:
448,192,46431,1,0,0:0:0:0:
448,192,46623,128,0,47393:0:0:0:0:
64,192,46623,1,0,0:0:0:0:
192,192,46816,1,0,0:0:0:0:
320,192,47008,1,0,0:0:0:0:
192,192,47200,1,0,0:0:0:0:
320,192,47393,1,0,0:0:0:0:
192,192,47585,1,0,0:0:0:0:
64,192,47777,1,0,0:0:0:0:
192,192,47970,1,0,0:0:0:0:
320,192,48162,1,0,0:0:0:0:
192,192,48354,128,0,48931:0:0:0:0:
448,192,48354,1,0,0:0:0:0:
320,192,48546,1,0,0:0:0:0:
64,192,48739,1,0,0:0:0:0:
320,192,48931,128,0,49700:0:0:0:0:
448,192,48931,1,0,0:0:0:0:
64,192,49123,1,0,0:0:0:0:
192,192,49316,1,0,0:0:0:0:
448,192,49508,128,0,49700:0:0:0:0:
64,192,49700,128,0,50854:0:0:0:0:
192,192,49700,128,0,50854:0:0:0:0:
320,192,50085,1,0,0:0:0:0:
448,192,50277,1,0,0:0:0:0:
320,192,50470,1,0,0:0:0:0:
448,192,50470,1,0,0:0:0:0:
448,192,50662,1,0,0:0:0:0:
320,192,50854,128,0,52777:0:0:0:0:
448,192,50854,1,0,0:0:0:0:
192,192,51046,1,0,0:0:0:0:
64,192,51239,1,0,0:0:0:0:
448,192,51239,1,0,0:0:0:0:
192,192,51431,1,0,0:0:0:0:
448,192,51623,1,0,0:0:0:0:
192,192,51816,1,0,0:0:0:0:
448,192,52008,1,0,0:0:0:0:
64,192,52008,1,0,0:0:0:0:
192,192,52008,1,0,0:0:0:0:
192,192,52200,1,0,0:0:0:0:
64,192,52393,1,0,0:0:0:0:
192,192,52585,1,0,0:0:0:0:
448,192,52585,1,0,0:0:0:0:
448,192,52777,128,0,53931:0:0:0:0:
64,192,52777,1,0,0:0:0:0:
192,192,52970,1,0,0:0:0:0:
320,192,53162,1,0,0:0:0:0:
192,192,53354,1,0,0:0:0:0:
320,192,53546,1,0,0:0:0:0:
64,192,53546,1,0,0:0:0:0:
192,192,53739,1,0,0:0:0:0:
64,192,53931,128,0,55470:0:0:0:0:
320,192,53931,1,0,0:0:0:0:
192,192,54123,1,0,0:0:0:0:
320,192,54316,1,0,0:0:0:0:
448,192,54508,1,0,0:0:0:0:
192,192,54700,1,0,0:0:0:0:
320,192,54700,1,0,0:0:0:0:
448,192,54893,1,0,0:0:0:0:
192,192,55085,1,0,0:0:0:0:
320,192,55277,1,0,0:0:0:0:
192,192,55470,128,0,55854:0:0:0:0:
448,192,55470,128,0,55854:0:0:0:0:
320,192,55854,128,0,57200:0:0:0:0:
64,192,55854,1,0,0:0:0:0:
192,192,56046,1,0,0:0:0:0:
64,192,56239,1,0,0:0:0:0:
448,192,56239,128,0,56623:0:0:0:0:
192,192,56431,1,0,0:0:0:0:
64,192,56623,1,0,0:0:0:0:
192,192,56816,1,0,0:0:0:0:
192,192,57008,128,0,57296:0:0:0:0:
448,192,57008,1,0,0:0:0:0:
64,192,57200,1,0,0:0:0:0:
64,192,57393,128,0,57681:0:0:0:0:
448,192,57393,1,0,0:0:0:0:
320,192,57585,1,0,0:0:0:0:
192,192,57777,128,0,58066:0:0:0:0:
64,192,57970,1,0,0:0:0:0:
320,192,58162,128,0,58931:0:0:0:0:
448,192,58162,1,0,0:0:0:0:
192,192,58546,1,0,0:0:0:0:
64,192,58739,128,0,58931:0:0:0:0:
192,192,58931,128,0,59508:0:0:0:0:
448,192,58931,1,0,0:0:0:0:
320,192,59123,1,0,0:0:0:0:
64,192,59316,1,0,0:0:0:0:
320,192,59508,1,0,0:0:0:0:
448,192,59700,128,0,59989:0:0:0:0:
192,192,59893,1,0,0:0:0:0:
320,192,60085,128,0,60373:0:0:0:0:
64,192,60277,1,0,0:0:0:0:
192,192,60470,128,0,60854:0:0:0:0:
448,192,60662,1,0,0:0:0:0:
64,192,60854,1,0,0:0:0:0:
320,192,61046,1,0,0:0:0:0:
192,192,61239,128,0,61816:0:0:0:0:
64,192,61239,128,0,61431:0:0:0:0:
320,192,61431,1,0,0:0:0:0:
448,192,61527,1,0,0:0:0:0:
320,192,61623,1,0,0:0:0:0:
64,192,61816,1,0,0:0:0:0:
448,192,62008,128,0,62681:0:0:0:0:
192,192,62008,128,0,62296:0:0:0:0:
64,192,62008,128,0,62104:0:0:0:0:
320,192,62008,128,0,62489:0:0:0:0:
64,192,62200,128,0,63258:0:0:0:0:
192,192,62393,128,0,62873:0:0:0:0:
320,192,62585,128,0,63066:0:0:0:0:
448,192,62777,128,0,64027:0:0:0:0:
192,192,62970,128,0,63643:0:0:0:0:
320,192,63162,128,0,64412:0:0:0:0:
64,192,63354,128,0,65373:0:0:0:0:
192,192,63739,128,0,64220:0:0:0:0:
448,192,64123,128,0,64700:0:0:0:0:
192,192,64316,128,0,65181:0:0:0:0:
320,192,64508,128,0,65085:0:0:0:0:
448,192,64796,128,0,64989:0:0:0:0:
448,192,65085,1,0,0:0:0:0:
320,192,65181,1,0,0:0:0:0:
192,192,65277,1,0,0:0:0:0:
320,192,65470,128,0,65662:0:0:0:0:
192,192,65662,128,0,65854:0:0:0:0:
448,192,65854,128,0,66046:0:0:0:0:
64,192,65854,1,0,0:0:0:0:
320,192,65854,1,0,0:0:0:0:
64,192,66046,128,0,66239:0:0:0:0:
320,192,66239,128,0,66431:0:0:0:0:
448,192,66239,1,0,0:0:0:0:
192,192,66431,128,0,66816:0:0:0:0:
64,192,66431,1,0,0:0:0:0:
320,192,66623,1,0,0:0:0:0:
64,192,66623,1,0,0:0:0:0:
448,192,66816,128,0,67008:0:0:0:0:
320,192,66816,1,0,0:0:0:0:
320,192,67008,128,0,67296:0:0:0:0:
64,192,67104,1,0,0:0:0:0:
448,192,67200,1,0,0:0:0:0:
192,192,67393,1,0,0:0:0:0:
320,192,67489,1,0,0:0:0:0:
64,192,67585,128,0,67777:0:0:0:0:
448,192,67777,128,0,68066:0:0:0:0:
192,192,67777,1,0,0:0:0:0:
320,192,67970,1,0,0:0:0:0:
192,192,68162,1,0,0:0:0:0:
64,192,68162,1,0,0:0:0:0:
320,192,68258,1,0,0:0:0:0:
448,192,68258,1,0,0:0:0:0:
64,192,68354,128,0,68546:0:0:0:0:
192,192,68354,128,0,68546:0:0:0:0:
320,192,68546,128,0,68931:0:0:0:0:
192,192,68739,1,0,0:0:0:0:
64,192,68739,1,0,0:0:0:0:
448,192,68931,1,0,0:0:0:0:
192,192,68931,1,0,0:0:0:0:
448,192,69123,1,0,0:0:0:0:
192,192,69123,1,0,0:0:0:0:
320,192,69316,1,0,0:0:0:0:
192,192,69316,128,0,69508:0:0:0:0:
448,192,69508,128,0,69989:0:0:0:0:
64,192,69508,1,0,0:0:0:0:
320,192,69508,1,0,0:0:0:0:
192,192,69700,1,0,0:0:0:0:
320,192,69893,1,0,0:0:0:0:
64,192,69989,128,0,70277:0:0:0:0:
192,192,70085,1,0,0:0:0:0:
320,192,70277,128,0,70662:0:0:0:0:
448,192,70277,1,0,0:0:0:0:
64,192,70470,1,0,0:0:0:0:
448,192,70470,1,0,0:0:0:0:
192,192,70662,128,0,71046:0:0:0:0:
64,192,70854,1,0,0:0:0:0:
448,192,70950,1,0,0:0:0:0:
320,192,71046,128,0,71239:0:0:0:0:
64,192,71239,1,0,0:0:0:0:
192,192,71335,1,0,0:0:0:0:
64,192,71431,1,0,0:0:0:0:
320,192,71623,128,0,71816:0:0:0:0:
192,192,71816,128,0,72008:0:0:0:0:
448,192,72008,128,0,72200:0:0:0:0:
64,192,72008,1,0,0:0:0:0:
192,192,72200,128,0,72393:0:0:0:0:
320,192,72200,1,0,0:0:0:0:
448,192,72393,128,0,72585:0:0:0:0:
64,192,72585,128,0,72681:0:0:0:0:
192,192,72585,1,0,0:0:0:0:
192,192,72777,128,0,72873:0:0:0:0:
320,192,72777,1,0,0:0:0:0:
320,192,72970,128,0,73066:0:0:0:0:
448,192,72970,1,0,0:0:0:0:
192,192,73162,128,0,73258:0:0:0:0:
64,192,73162,1,0,0:0:0:0:
64,192,73354,128,0,73450:0:0:0:0:
448,192,73354,1,0,0:0:0:0:
320,192,73546,1,0,0:0:0:0:
192,192,73643,1,0,0:0:0:0:
64,192,73739,1,0,0:0:0:0:
192,192,73931,1,0,0:0:0:0:
320,192,74027,1,0,0:0:0:0:
448,192,74123,1,0,0:0:0:0:
448,192,74316,1,0,0:0:0:0:
192,192,74316,1,0,0:0:0:0:
64,192,74316,1,0,0:0:0:0:
192,192,74412,1,0,0:0:0:0:
192,192,74508,1,0,0:0:0:0:
320,192,74508,1,0,0:0:0:0:
448,192,74700,128,0,74796:0:0:0:0:
320,192,74700,1,0,0:0:0:0:
320,192,74893,128,0,74989:0:0:0:0:
192,192,74893,1,0,0:0:0:0:
192,192,75085,128,0,75181:0:0:0:0:
64,192,75085,1,0,0:0:0:0:
64,192,75277,128,0,75373:0:0:0:0:
320,192,75277,1,0,0:0:0:0:
192,192,75470,128,0,75566:0:0:0:0:
320,192,75470,1,0,0:0:0:0:
320,192,75662,128,0,75758:0:0:0:0:
64,192,75662,1,0,0:0:0:0:
448,192,75854,128,0,75950:0:0:0:0:
192,192,75854,1,0,0:0:0:0:
320,192,76046,128,0,76143:0:0:0:0:
64,192,76046,1,0,0:0:0:0:
192,192,76239,128,0,76335:0:0:0:0:
448,192,76239,1,0,0:0:0:0:
320,192,76431,128,0,76623:0:0:0:0:
64,192,76623,1,0,0:0:0:0:
192,192,76816,128,0,76912:0:0:0:0:
448,192,76816,1,0,0:0:0:0:
320,192,77008,128,0,77104:0:0:0:0:
64,192,77008,1,0,0:0:0:0:
448,192,77200,1,0,0:0:0:0:
192,192,77200,128,0,77489:0:0:0:0:
448,192,77393,1,0,0:0:0:0:
320,192,77489,1,0,0:0:0:0:
448,192,77585,1,0,0:0:0:0:
192,192,77777,128,0,77873:0:0:0:0:
64,192,77777,1,0,0:0:0:0:
64,192,77970,128,0,78066:0:0:0:0:
448,192,77970,1,0,0:0:0:0:
320,192,78162,128,0,78258:0:0:0:0:
448,192,78162,1,0,0:0:0:0:
192,192,78354,128,0,78450:0:0:0:0:
64,192,78354,1,0,0:0:0:0:
448,192,78546,128,0,78643:0:0:0:0:
320,192,78546,1,0,0:0:0:0:
320,192,78739,128,0,78835:0:0:0:0:
192,192,78739,1,0,0:0:0:0:
192,192,78931,128,0,79027:0:0:0:0:
448,192,78931,1,0,0:0:0:0:
64,192,79123,128,0,79220:0:0:0:0:
320,192,79123,1,0,0:0:0:0:
320,192,79316,128,0,79412:0:0:0:0:
448,192,79316,1,0,0:0:0:0:
192,192,79316,1,0,0:0:0:0:
192,192,79508,128,0,79604:0:0:0:0:
64,192,79508,1,0,0:0:0:0:
448,192,79700,1,0,0:0:0:0:
320,192,79796,1,0,0:0:0:0:
192,192,79893,1,0,0:0:0:0:
64,192,79989,1,0,0:0:0:0:
448,192,80085,1,0,0:0:0:0:
320,192,80181,1,0,0:0:0:0:
192,192,80277,1,0,0:0:0:0:
448,192,80470,1,0,0:0:0:0:
320,192,80470,1,0,0:0:0:0:
64,192,80470,1,0,0:0:0:0:
320,192,80566,1,0,0:0:0:0:
192,192,80566,1,0,0:0:0:0:
320,192,80662,1,0,0:0:0:0:
448,192,80662,1,0,0:0:0:0:
192,192,80854,128,0,80950:0:0:0:0:
64,192,80854,1,0,0:0:0:0:
320,192,81046,128,0,81143:0:0:0:0:
448,192,81046,1,0,0:0:0:0:
192,192,81239,128,0,81335:0:0:0:0:
448,192,81239,128,0,81335:0:0:0:0:
64,192,81431,128,0,81527:0:0:0:0:
320,192,81431,1,0,0:0:0:0:
320,192,81623,1,0,0:0:0:0:
192,192,81623,128,0,81720:0:0:0:0:
320,192,81816,128,0,82104:0:0:0:0:
192,192,82104,1,0,0:0:0:0:
448,192,82296,128,0,82585:0:0:0:0:
64,192,82296,128,0,82585:0:0:0:0:
192,192,82585,1,0,0:0:0:0:
320,192,82585,1,0,0:0:0:0:
448,192,82777,1,0,0:0:0:0:
64,192,82777,1,0,0:0:0:0:
192,192,82970,1,0,0:0:0:0:
320,192,82970,128,0,83450:0:0:0:0:
64,192,83162,1,0,0:0:0:0:
192,192,83162,1,0,0:0:0:0:
448,192,83162,128,0,83450:0:0:0:0:
320,192,83546,1,0,0:0:0:0:
448,192,83546,1,0,0:0:0:0:
64,192,83546,1,0,0:0:0:0:
192,192,84123,1,0,0:0:0:0:
320,192,84123,1,0,0:0:0:0:
64,192,84220,1,0,0:0:0:0:
192,192,84268,1,0,0:0:0:0:
320,192,84316,1,0,0:0:0:0:
192,192,84604,1,0,0:0:0:0:
320,192,84604,1,0,0:0:0:0:
192,192,84796,128,0,85758:0:0:0:0:
64,192,84796,128,0,85758:0:0:0:0:
448,192,84796,128,0,85758:0:0:0:0:
320,192,85470,1,0,0:0:0:0:
320,192,85662,1,0,0:0:0:0:
320,192,85854,1,0,0:0:0:0:
448,192,85854,1,0,0:0:0:0:
64,192,85854,1,0,0:0:0:0:
64,192,86046,1,0,0:0:0:0:
320,192,86046,1,0,0:0:0:0:
448,192,86239,1,0,0:0:0:0:
64,192,86239,1,0,0:0:0:0:
320,192,86431,1,0,0:0:0:0:
192,192,86431,1,0,0:0:0:0:
192,192,86671,128,0,87056:0:0:0:0:
64,192,86671,128,0,87056:0:0:0:0:
320,192,86671,128,0,86960:0:0:0:0:
448,192,87104,128,0,87489:0:0:0:0:
320,192,87104,128,0,87489:0:0:0:0:
192,192,87489,1,0,0:0:0:0:
64,192,87873,1,0,0:0:0:0:
192,192,87873,1,0,0:0:0:0:
192,192,88066,1,0,0:0:0:0:
320,192,88098,1,0,0:0:0:0:
320,192,88739,1,0,0:0:0:0:
192,192,88739,1,0,0:0:0:0:
448,192,89027,1,0,0:0:0:0:
320,192,89123,1,0,0:0:0:0:
192,192,89220,1,0,0:0:0:0:
64,192,89316,1,0,0:0:0:0:
448,192,89316,1,0,0:0:0:0:
320,192,89412,1,0,0:0:0:0:
192,192,89508,1,0,0:0:0:0:
64,192,89604,1,0,0:0:0:0:
320,192,89700,1,0,0:0:0:0:
448,192,89700,1,0,0:0:0:0:
64,192,90085,128,0,91720:0:0:0:0:
192,192,90085,128,0,91623:0:0:0:0:
448,192,90470,1,0,0:0:0:0:
320,192,90854,1,0,0:0:0:0:
448,192,91046,1,0,0:0:0:0:
320,192,91816,1,0,0:0:0:0:
64,192,92008,1,0,0:0:0:0:
448,192,92008,1,0,0:0:0:0:
192,192,92104,1,0,0:0:0:0:
320,192,92200,1,0,0:0:0:0:
448,192,92296,1,0,0:0:0:0:
64,192,92296,1,0,0:0:0:0:
192,192,92393,1,0,0:0:0:0:
320,192,92489,1,0,0:0:0:0:
448,192,92585,1,0,0:0:0:0:
320,192,92681,1,0,0:0:0:0:
64,192,92777,128,0,93066:0:0:0:0:
448,192,92777,128,0,93066:0:0:0:0:
192,192,92777,128,0,93162:0:0:0:0:
64,192,93162,128,0,93450:0:0:0:0:
448,192,93162,128,0,93450:0:0:0:0:
320,192,93162,128,0,93546:0:0:0:0:
192,192,93546,1,0,0:0:0:0:
64,192,93931,1,0,0:0:0:0:
192,192,94123,1,0,0:0:0:0:
320,192,94123,1,0,0:0:0:0:
448,192,94508,1,0,0:0:0:0:
64,192,94508,1,0,0:0:0:0:
192,192,94508,1,0,0:0:0:0:
320,192,94604,1,0,0:0:0:0:
192,192,94700,1,0,0:0:0:0:
64,192,94796,1,0,0:0:0:0:
448,192,94893,1,0,0:0:0:0:
320,192,94893,1,0,0:0:0:0:
192,192,94893,1,0,0:0:0:0:
64,192,94989,1,0,0:0:0:0:
192,192,95085,1,0,0:0:0:0:
320,192,95181,1,0,0:0:0:0:
64,192,95277,1,0,0:0:0:0:
448,192,95277,1,0,0:0:0:0:
192,192,95277,1,0,0:0:0:0:
320,192,95373,1,0,0:0:0:0:
192,192,95470,1,0,0:0:0:0:
64,192,95566,1,0,0:0:0:0:
448,192,95566,1,0,0:0:0:0:
320,192,95566,1,0,0:0:0:0:
192,192,95662,1,0,0:0:0:0:
320,192,95758,1,0,0:0:0:0:
64,192,95854,128,0,96143:0:0:0:0:
192,192,95854,128,0,96143:0:0:0:0:
448,192,95854,128,0,96527:0:0:0:0:
320,192,96239,128,0,96527:0:0:0:0:
64,192,96239,128,0,97393:0:0:0:0:
192,192,96239,128,0,97104:0:0:0:0:
448,192,96623,1,0,0:0:0:0:
320,192,96623,1,0,0:0:0:0:
320,192,97104,128,0,97489:0:0:0:0:
448,192,97104,128,0,97393:0:0:0:0:
448,192,97489,1,0,0:0:0:0:
320,192,97585,1,0,0:0:0:0:
192,192,97681,1,0,0:0:0:0:
64,192,97777,1,0,0:0:0:0:
448,192,97777,1,0,0:0:0:0:
320,192,97873,1,0,0:0:0:0:
192,192,97970,1,0,0:0:0:0:
64,192,98066,1,0,0:0:0:0:
448,192,98066,1,0,0:0:0:0:
192,192,98162,1,0,0:0:0:0:
320,192,98258,1,0,0:0:0:0:
448,192,98354,1,0,0:0:0:0:
64,192,98354,1,0,0:0:0:0:
192,192,98354,1,0,0:0:0:0:
320,192,98450,1,0,0:0:0:0:
192,192,98546,1,0,0:0:0:0:
64,192,98643,1,0,0:0:0:0:
448,192,98643,1,0,0:0:0:0:
320,192,98739,1,0,0:0:0:0:
192,192,98835,1,0,0:0:0:0:
64,192,98931,128,0,99220:0:0:0:0:
448,192,98931,128,0,99604:0:0:0:0:
320,192,99123,128,0,99989:0:0:0:0:
192,192,99123,128,0,99412:0:0:0:0:
64,192,99316,128,0,100373:0:0:0:0:
192,192,99508,128,0,99796:0:0:0:0:
448,192,99700,128,0,101912:0:0:0:0:
192,192,99893,128,0,100181:0:0:0:0:
320,192,100085,128,0,101527:0:0:0:0:
192,192,100277,128,0,101143:0:0:0:0:
64,192,100470,128,0,104604:0:0:0:0:
192,192,101239,128,0,103066:0:0:0:0:
320,192,101623,128,0,102681:0:0:0:0:
448,192,102008,128,0,103450:0:0:0:0:
320,192,102777,128,0,103835:0:0:0:0:
192,192,103162,128,0,104027:0:0:0:0:
448,192,103546,128,0,104604:0:0:0:0:
320,192,103931,128,0,104220:0:0:0:0:
192,192,104123,128,0,104989:0:0:0:0:
320,192,104316,128,0,104989:0:0:0:0:
448,192,104700,128,0,105181:0:0:0:0:
64,192,104700,128,0,105181:0:0:0:0:
192,192,105085,1,0,0:0:0:0:
320,192,105085,1,0,0:0:0:0:
64,192,105277,1,0,0:0:0:0:
448,192,105277,1,0,0:0:0:0:
192,192,105470,128,0,105950:0:0:0:0:
64,192,105470,128,0,106335:0:0:0:0:
448,192,105662,128,0,107104:0:0:0:0:
320,192,105854,128,0,106143:0:0:0:0:
192,192,106046,128,0,106527:0:0:0:0:
320,192,106239,128,0,106912:0:0:0:0:
64,192,106431,128,0,108258:0:0:0:0:
192,192,106623,128,0,107489:0:0:0:0:
320,192,107008,128,0,107873:0:0:0:0:
448,192,107200,128,0,108450:0:0:0:0:
192,192,107585,128,0,108066:0:0:0:0:
320,192,107970,128,0,108643:0:0:0:0:
192,192,108162,128,0,108835:0:0:0:0:
64,192,108354,128,0,109027:0:0:0:0:
448,192,108546,128,0,109604:0:0:0:0:
320,192,108739,128,0,109220:0:0:0:0:
192,192,108931,128,0,109412:0:0:0:0:
64,192,109123,128,0,110181:0:0:0:0:
320,192,109316,128,0,109796:0:0:0:0:
192,192,109508,128,0,109989:0:0:0:0:
448,192,109700,1,0,0:0:0:0:
320,192,109893,1,0,0:0:0:0:
192,192,110085,1,0,0:0:0:0:
64,192,110277,1,0,0:0:0:0:
192,192,110470,1,0,0:0:0:0:
448,192,110470,1,0,0:0:0:0:
64,192,110470,1,0,0:0:0:0:
320,192,110566,1,0,0:0:0:0:
448,192,110662,1,0,0:0:0:0:
320,192,110758,1,0,0:0:0:0:
64,192,110758,1,0,0:0:0:0:
192,192,110854,1,0,0:0:0:0:
320,192,110950,1,0,0:0:0:0:
448,192,111046,1,0,0:0:0:0:
64,192,111046,1,0,0:0:0:0:
192,192,111046,1,0,0:0:0:0:
320,192,111143,1,0,0:0:0:0:
192,192,111239,128,0,113546:0:0:0:0:
448,192,111239,128,0,113546:0:0:0:0:
64,192,111623,128,0,111816:0:0:0:0:
320,192,111623,1,0,0:0:0:0:
320,192,112008,128,0,112200:0:0:0:0:
64,192,112008,1,0,0:0:0:0:
64,192,112393,128,0,112489:0:0:0:0:
320,192,112393,1,0,0:0:0:0:
320,192,112585,128,0,112873:0:0:0:0:
64,192,112585,1,0,0:0:0:0:
64,192,112970,128,0,113258:0:0:0:0:
320,192,112970,1,0,0:0:0:0:
320,192,113354,128,0,113739:0:0:0:0:
64,192,113835,1,0,0:0:0:0:
192,192,113979,1,0,0:0:0:0:
320,192,114123,1,0,0:0:0:0:
320,192,114316,1,0,0:0:0:0:
448,192,114412,1,0,0:0:0:0:
320,192,114508,1,0,0:0:0:0:
192,192,114700,128,0,114796:0:0:0:0:
320,192,114700,1,0,0:0:0:0:
320,192,114893,128,0,114989:0:0:0:0:
64,192,114893,1,0,0:0:0:0:
192,192,115085,1,0,0:0:0:0:
64,192,115085,128,0,115277:0:0:0:0:
192,192,115277,1,0,0:0:0:0:
320,192,115277,1,0,0:0:0:0:
320,192,115470,1,0,0:0:0:0:
448,192,115470,1,0,0:0:0:0:
192,192,115662,128,0,115950:0:0:0:0:
64,192,115662,1,0,0:0:0:0:
448,192,115854,128,0,116046:0:0:0:0:
320,192,115854,1,0,0:0:0:0:
64,192,116046,1,0,0:0:0:0:
320,192,116239,128,0,116335:0:0:0:0:
192,192,116239,1,0,0:0:0:0:
64,192,116431,1,0,0:0:0:0:
192,192,116623,1,0,0:0:0:0:
64,192,116720,1,0,0:0:0:0:
192,192,116816,128,0,117008:0:0:0:0:
320,192,117008,128,0,117393:0:0:0:0:
192,192,117200,1,0,0:0:0:0:
448,192,117200,1,0,0:0:0:0:
64,192,117393,128,0,118066:0:0:0:0:
448,192,117393,128,0,118066:0:0:0:0:
192,192,117393,128,0,117873:0:0:0:0:
320,192,117585,1,0,0:0:0:0:
320,192,117777,128,0,118354:0:0:0:0:
192,192,117970,1,0,0:0:0:0:
192,192,118162,1,0,0:0:0:0:
448,192,118354,128,0,118643:0:0:0:0:
192,192,118546,128,0,118835:0:0:0:0:
64,192,118739,128,0,119412:0:0:0:0:
448,192,118979,128,0,119652:0:0:0:0:
320,192,119171,128,0,119748:0:0:0:0:
192,192,119604,128,0,120373:0:0:0:0:
64,192,119893,128,0,120662:0:0:0:0:
320,192,120085,128,0,120950:0:0:0:0:
448,192,120277,128,0,120662:0:0:0:0:
192,192,120662,128,0,121431:0:0:0:0:
448,192,120854,128,0,122008:0:0:0:0:
320,192,121046,128,0,121623:0:0:0:0:
64,192,121239,128,0,122008:0:0:0:0:
192,192,121623,128,0,122296:0:0:0:0:
320,192,121816,128,0,122393:0:0:0:0:
64,192,122200,128,0,122681:0:0:0:0:
448,192,122393,128,0,122970:0:0:0:0:
320,192,122585,128,0,122873:0:0:0:0:
192,192,122777,1,0,0:0:0:0:
64,192,122873,1,0,0:0:0:0:
192,192,122970,1,0,0:0:0:0:
320,192,123066,1,0,0:0:0:0:
448,192,123162,1,0,0:0:0:0:
320,192,123258,1,0,0:0:0:0:
192,192,123354,1,0,0:0:0:0:
64,192,123450,1,0,0:0:0:0:
192,192,123546,1,0,0:0:0:0:
448,192,123546,1,0,0:0:0:0:
320,192,123643,1,0,0:0:0:0:
64,192,123643,128,0,125854:0:0:0:0:
192,192,123739,1,0,0:0:0:0:
320,192,123931,1,0,0:0:0:0:
192,192,123931,128,0,124316:0:0:0:0:
320,192,124123,1,0,0:0:0:0:
448,192,124123,1,0,0:0:0:0:
448,192,124316,128,0,124700:0:0:0:0:
320,192,124508,1,0,0:0:0:0:
192,192,124508,1,0,0:0:0:0:
192,192,124700,1,0,0:0:0:0:
320,192,124700,1,0,0:0:0:0:
192,192,124893,1,0,0:0:0:0:
448,192,124893,1,0,0:0:0:0:
320,192,124893,128,0,125277:0:0:0:0:
192,192,125085,1,0,0:0:0:0:
192,192,125277,1,0,0:0:0:0:
448,192,125277,128,0,125662:0:0:0:0:
320,192,125470,1,0,0:0:0:0:
192,192,125470,1,0,0:0:0:0:
192,192,125662,128,0,125854:0:0:0:0:
448,192,125854,128,0,126623:0:0:0:0:
320,192,125854,1,0,0:0:0:0:
320,192,126046,128,0,126335:0:0:0:0:
64,192,126046,1,0,0:0:0:0:
64,192,126239,128,0,126527:0:0:0:0:
192,192,126239,1,0,0:0:0:0:
320,192,126431,128,0,126623:0:0:0:0:
64,192,126623,128,0,127393:0:0:0:0:
192,192,126623,1,0,0:0:0:0:
320,192,126720,1,0,0:0:0:0:
448,192,126816,1,0,0:0:0:0:
192,192,127008,1,0,0:0:0:0:
320,192,127008,1,0,0:0:0:0:
320,192,127200,1,0,0:0:0:0:
192,192,127393,1,0,0:0:0:0:
320,192,127393,1,0,0:0:0:0:
448,192,127393,128,0,128162:0:0:0:0:
64,192,127585,1,0,0:0:0:0:
192,192,127777,1,0,0:0:0:0:
320,192,127777,1,0,0:0:0:0:
64,192,127970,1,0,0:0:0:0:
192,192,127970,1,0,0:0:0:0:
64,192,128162,128,0,128931:0:0:0:0:
192,192,128162,1,0,0:0:0:0:
320,192,128162,1,0,0:0:0:0:
320,192,128354,1,0,0:0:0:0:
448,192,128354,1,0,0:0:0:0:
192,192,128546,1,0,0:0:0:0:
448,192,128546,1,0,0:0:0:0:
320,192,128739,1,0,0:0:0:0:
192,192,128739,1,0,0:0:0:0:
448,192,128931,128,0,129700:0:0:0:0:
192,192,128931,1,0,0:0:0:0:
320,192,129027,1,0,0:0:0:0:
192,192,129123,1,0,0:0:0:0:
64,192,129220,1,0,0:0:0:0:
192,192,129316,1,0,0:0:0:0:
320,192,129316,1,0,0:0:0:0:
64,192,129412,1,0,0:0:0:0:
192,192,129508,1,0,0:0:0:0:
320,192,129604,1,0,0:0:0:0:
64,192,129700,128,0,132970:0:0:0:0:
192,192,129700,1,0,0:0:0:0:
320,192,129893,1,0,0:0:0:0:
448,192,129893,1,0,0:0:0:0:
192,192,130085,128,0,130277:0:0:0:0:
320,192,130277,1,0,0:0:0:0:
448,192,130277,1,0,0:0:0:0:
192,192,130470,1,0,0:0:0:0:
448,192,130470,1,0,0:0:0:0:
320,192,130470,128,0,130854:0:0:0:0:
192,192,130662,1,0,0:0:0:0:
448,192,130662,1,0,0:0:0:0:
448,192,130854,1,0,0:0:0:0:
192,192,130854,128,0,131046:0:0:0:0:
448,192,131046,128,0,131431:0:0:0:0:
320,192,131046,1,0,0:0:0:0:
320,192,131239,1,0,0:0:0:0:
320,192,131431,128,0,132008:0:0:0:0:
192,192,131431,1,0,0:0:0:0:
192,192,131623,1,0,0:0:0:0:
192,192,131816,1,0,0:0:0:0:
448,192,131816,1,0,0:0:0:0:
448,192,132008,128,0,132393:0:0:0:0:
192,192,132008,1,0,0:0:0:0:
320,192,132200,1,0,0:0:0:0:
192,192,132200,1,0,0:0:0:0:
320,192,132393,1,0,0:0:0:0:
192,192,132393,128,0,132777:0:0:0:0:
320,192,132585,1,0,0:0:0:0:
320,192,132777,1,0,0:0:0:0:
448,192,132777,1,0,0:0:0:0:
320,192,132970,1,0,0:0:0:0:
448,192,132970,1,0,0:0:0:0:
192,192,133162,128,0,133835:0:0:0:0:
320,192,133546,128,0,134220:0:0:0:0:
64,192,133739,128,0,134893:0:0:0:0:
448,192,133931,128,0,134604:0:0:0:0:
192,192,134123,128,0,134796:0:0:0:0:
320,192,134508,128,0,134893:0:0:0:0:
448,192,135085,1,0,0:0:0:0:
64,192,135085,1,0,0:0:0:0:
320,192,135085,1,0,0:0:0:0:
192,192,135181,1,0,0:0:0:0:
320,192,135277,1,0,0:0:0:0:
448,192,135373,1,0,0:0:0:0:
64,192,135470,1,0,0:0:0:0:
320,192,135470,1,0,0:0:0:0:
192,192,135470,1,0,0:0:0:0:
448,192,135566,1,0,0:0:0:0:
320,192,135662,1,0,0:0:0:0:
192,192,135758,1,0,0:0:0:0:
320,192,135854,1,0,0:0:0:0:
64,192,135854,128,0,136431:0:0:0:0:
448,192,135854,128,0,136431:0:0:0:0:
192,192,136046,1,0,0:0:0:0:
320,192,136046,1,0,0:0:0:0:
64,192,136575,1,0,0:0:0:0:
192,192,136623,1,0,0:0:0:0:
320,192,136671,1,0,0:0:0:0:
448,192,136720,1,0,0:0:0:0:
64,192,136768,1,0,0:0:0:0:
192,192,136816,1,0,0:0:0:0:
320,192,136864,1,0,0:0:0:0:
448,192,136912,1,0,0:0:0:0:
64,192,136960,1,0,0:0:0:0:
192,192,137008,1,0,0:0:0:0:
320,192,137056,1,0,0:0:0:0:
448,192,137104,1,0,0:0:0:0:
64,192,137152,1,0,0:0:0:0:
192,192,137200,1,0,0:0:0:0:
320,192,137248,1,0,0:0:0:0:
448,192,137296,1,0,0:0:0:0:
320,192,137393,128,0,137970:0:0:0:0:
192,192,137393,128,0,137970:0:0:0:0:
64,192,137537,1,0,0:0:0:0:
448,192,137537,1,0,0:0:0:0:
448,192,137970,1,0,0:0:0:0:
64,192,137970,1,0,0:0:0:0:
448,192,138162,1,0,0:0:0:0:
320,192,138210,1,0,0:0:0:0:
192,192,138258,1,0,0:0:0:0:
64,192,138306,1,0,0:0:0:0:
448,192,138354,1,0,0:0:0:0:
320,192,138402,1,0,0:0:0:0:
192,192,138450,1,0,0:0:0:0:
64,192,138498,1,0,0:0:0:0:
448,192,138546,1,0,0:0:0:0:
320,192,138595,1,0,0:0:0:0:
192,192,138643,1,0,0:0:0:0:
64,192,138691,1,0,0:0:0:0:
448,192,138739,1,0,0:0:0:0:
320,192,138787,1,0,0:0:0:0:
192,192,138835,1,0,0:0:0:0:
64,192,138931,128,0,139508:0:0:0:0:
448,192,138931,128,0,139508:0:0:0:0:
192,192,139123,1,0,0:0:0:0:
320,192,139123,1,0,0:0:0:0:
192,192,139508,1,0,0:0:0:0:
320,192,139508,1,0,0:0:0:0:
64,192,139700,1,0,0:0:0:0:
192,192,139748,1,0,0:0:0:0:
448,192,139796,1,0,0:0:0:0:
320,192,139845,1,0,0:0:0:0:
64,192,139893,1,0,0:0:0:0:
192,192,139941,1,0,0:0:0:0:
448,192,139989,1,0,0:0:0:0:
320,192,140037,1,0,0:0:0:0:
64,192,140085,1,0,0:0:0:0:
192,192,140133,1,0,0:0:0:0:
448,192,140181,1,0,0:0:0:0:
320,192,140229,1,0,0:0:0:0:
64,192,140277,1,0,0:0:0:0:
192,192,140325,1,0,0:0:0:0:
448,192,140373,1,0,0:0:0:0:
320,192,140421,1,0,0:0:0:0:
64,192,140470,1,0,0:0:0:0:
192,192,140518,1,0,0:0:0:0:
448,192,140566,1,0,0:0:0:0:
320,192,140614,1,0,0:0:0:0:
64,192,140662,1,0,0:0:0:0:
192,192,140710,1,0,0:0:0:0:
448,192,140758,1,0,0:0:0:0:
320,192,140806,1,0,0:0:0:0:
64,192,140854,1,0,0:0:0:0:
192,192,140902,1,0,0:0:0:0:
448,192,140950,1,0,0:0:0:0:
320,192,140998,1,0,0:0:0:0:
64,192,141239,1,0,0:0:0:0:
448,192,141239,1,0,0:0:0:0:
192,192,141431,1,0,0:0:0:0:
320,192,141431,1,0,0:0:0:0:
64,192,141623,1,0,0:0:0:0:
448,192,141623,1,0,0:0:0:0:
448,192,142008,128,0,142585:0:0:0:0:
320,192,142008,128,0,142585:0:0:0:0:
192,192,142008,128,0,142585:0:0:0:0:
64,192,142585,1,0,0:0:0:0:
64,192,142729,1,0,0:0:0:0:
192,192,142777,1,0,0:0:0:0:
320,192,142825,1,0,0:0:0:0:
448,192,142873,1,0,0:0:0:0:
64,192,142921,1,0,0:0:0:0:
192,192,142970,1,0,0:0:0:0:
320,192,143018,1,0,0:0:0:0:
448,192,143066,1,0,0:0:0:0:
64,192,143114,1,0,0:0:0:0:
192,192,143162,1,0,0:0:0:0:
320,192,143210,1,0,0:0:0:0:
448,192,143258,1,0,0:0:0:0:
64,192,143306,1,0,0:0:0:0:
192,192,143354,1,0,0:0:0:0:
320,192,143402,1,0,0:0:0:0:
448,192,143450,1,0,0:0:0:0:
320,192,143546,128,0,144123:0:0:0:0:
192,192,143546,128,0,144123:0:0:0:0:
64,192,143739,1,0,0:0:0:0:
448,192,143739,1,0,0:0:0:0:
448,192,144123,1,0,0:0:0:0:
64,192,144123,1,0,0:0:0:0:
448,192,144316,1,0,0:0:0:0:
320,192,144364,1,0,0:0:0:0:
192,192,144412,1,0,0:0:0:0:
64,192,144460,1,0,0:0:0:0:
448,192,144508,1,0,0:0:0:0:
320,192,144556,1,0,0:0:0:0:
192,192,144604,1,0,0:0:0:0:
64,192,144652,1,0,0:0:0:0:
448,192,144700,1,0,0:0:0:0:
320,192,144748,1,0,0:0:0:0:
192,192,144796,1,0,0:0:0:0:
64,192,144845,1,0,0:0:0:0:
448,192,144893,1,0,0:0:0:0:
320,192,144941,1,0,0:0:0:0:
192,192,144989,1,0,0:0:0:0:
64,192,145037,1,0,0:0:0:0:
448,192,145085,1,0,0:0:0:0:
320,192,145133,1,0,0:0:0:0:
192,192,145181,1,0,0:0:0:0:
448,192,145277,128,0,145662:0:0:0:0:
64,192,145277,128,0,145662:0:0:0:0:
192,192,145662,1,0,0:0:0:0:
320,192,145662,1,0,0:0:0:0:
64,192,145854,1,0,0:0:0:0:
192,192,145902,1,0,0:0:0:0:
320,192,145950,1,0,0:0:0:0:
448,192,145998,1,0,0:0:0:0:
64,192,146046,1,0,0:0:0:0:
192,192,146095,1,0,0:0:0:0:
320,192,146143,1,0,0:0:0:0:
448,192,146191,1,0,0:0:0:0:
64,192,146239,1,0,0:0:0:0:
192,192,146287,1,0,0:0:0:0:
320,192,146335,1,0,0:0:0:0:
448,192,146383,1,0,0:0:0:0:
64,192,146431,1,0,0:0:0:0:
192,192,146479,1,0,0:0:0:0:
320,192,146527,1,0,0:0:0:0:
448,192,146575,1,0,0:0:0:0:
64,192,146623,1,0,0:0:0:0:
192,192,146671,1,0,0:0:0:0:
320,192,146720,1,0,0:0:0:0:
64,192,146816,128,0,147200:0:0:0:0:
448,192,146816,128,0,147200:0:0:0:0:
192,192,147200,1,0,0:0:0:0:
320,192,147200,1,0,0:0:0:0:
192,192,147345,1,0,0:0:0:0:
320,192,147345,1,0,0:0:0:0:
320,192,147537,1,0,0:0:0:0:
448,192,147537,1,0,0:0:0:0:
192,192,147777,1,0,0:0:0:0:
320,192,147825,1,0,0:0:0:0:
64,192,148162,1,0,0:0:0:0:
448,192,148162,1,0,0:0:0:0:
320,192,148162,1,0,0:0:0:0:
192,192,148354,1,0,0:0:0:0:
320,192,148354,1,0,0:0:0:0:
448,192,148546,1,0,0:0:0:0:
64,192,148546,1,0,0:0:0:0:
192,192,148739,1,0,0:0:0:0:
320,192,148739,1,0,0:0:0:0:
448,192,148739,1,0,0:0:0:0:
64,192,148931,1,0,0:0:0:0:
320,192,148931,1,0,0:0:0:0:
448,192,148931,1,0,0:0:0:0:
448,192,149123,1,0,0:0:0:0:
320,192,149123,1,0,0:0:0:0:
192,192,149123,1,0,0:0:0:0:
448,192,149316,1,0,0:0:0:0:
64,192,149316,1,0,0:0:0:0:
192,192,149508,1,0,0:0:0:0:
320,192,149508,1,0,0:0:0:0:
192,192,149700,1,0,0:0:0:0:
448,192,149700,1,0,0:0:0:0:
64,192,149700,1,0,0:0:0:0:
64,192,149893,1,0,0:0:0:0:
192,192,149893,1,0,0:0:0:0:
320,192,149893,1,0,0:0:0:0:
64,192,150085,1,0,0:0:0:0:
320,192,150085,1,0,0:0:0:0:
448,192,150277,1,0,0:0:0:0:
320,192,150277,1,0,0:0:0:0:
192,192,150470,1,0,0:0:0:0:
320,192,150470,1,0,0:0:0:0:
64,192,150662,1,0,0:0:0:0:
192,192,150662,1,0,0:0:0:0:
64,192,150854,1,0,0:0:0:0:
192,192,150854,1,0,0:0:0:0:
320,192,151046,1,0,0:0:0:0:
192,192,151046,1,0,0:0:0:0:
320,192,151239,1,0,0:0:0:0:
448,192,151239,1,0,0:0:0:0:
64,192,151431,1,0,0:0:0:0:
320,192,151431,1,0,0:0:0:0:
448,192,151431,1,0,0:0:0:0:
192,192,151623,1,0,0:0:0:0:
320,192,151623,1,0,0:0:0:0:
192,192,151816,1,0,0:0:0:0:
448,192,151816,1,0,0:0:0:0:
64,192,151816,1,0,0:0:0:0:
64,192,152008,1,0,0:0:0:0:
192,192,152008,1,0,0:0:0:0:
320,192,152008,1,0,0:0:0:0:
448,192,152200,1,0,0:0:0:0:
320,192,152200,1,0,0:0:0:0:
192,192,152200,1,0,0:0:0:0:
64,192,152393,1,0,0:0:0:0:
320,192,152393,1,0,0:0:0:0:
64,192,152585,1,0,0:0:0:0:
192,192,152585,1,0,0:0:0:0:
64,192,152777,1,0,0:0:0:0:
448,192,152777,1,0,0:0:0:0:
192,192,152970,1,0,0:0:0:0:
320,192,152970,1,0,0:0:0:0:
320,192,153162,1,0,0:0:0:0:
448,192,153162,1,0,0:0:0:0:
64,192,153162,1,0,0:0:0:0:
192,192,153354,1,0,0:0:0:0:
320,192,153354,1,0,0:0:0:0:
448,192,153354,1,0,0:0:0:0:
64,192,153546,1,0,0:0:0:0:
192,192,153546,1,0,0:0:0:0:
448,192,153546,1,0,0:0:0:0:
192,192,153931,1,0,0:0:0:0:
320,192,153931,1,0,0:0:0:0:
64,192,154316,128,0,154604:0:0:0:0:
192,192,154316,128,0,154604:0:0:0:0:
320,192,154316,128,0,154604:0:0:0:0:
448,192,154316,128,0,154604:0:0:0:0:
448,192,154700,128,0,154796:0:0:0:0:
320,192,154700,128,0,154796:0:0:0:0:
192,192,154700,128,0,154796:0:0:0:0:
64,192,154700,128,0,154796:0:0:0:0:
448,192,154893,128,0,155181:0:0:0:0:
320,192,154893,128,0,155181:0:0:0:0:
192,192,154893,128,0,155181:0:0:0:0:
64,192,154893,128,0,155181:0:0:0:0:
64,192,155277,128,0,155373:0:0:0:0:
192,192,155277,128,0,155373:0:0:0:0:
320,192,155277,128,0,155373:0:0:0:0:
448,192,155277,128,0,155373:0:0:0:0:
448,192,155470,128,0,155758:0:0:0:0:
320,192,155470,128,0,155758:0:0:0:0:
192,192,155470,128,0,155758:0:0:0:0:
64,192,155470,128,0,155758:0:0:0:0:
64,192,155854,128,0,155950:0:0:0:0:
192,192,155854,128,0,155950:0:0:0:0:
320,192,155854,128,0,155950:0:0:0:0:
448,192,155854,128,0,155950:0:0:0:0:
64,192,156046,128,0,156335:0:0:0:0:
192,192,156046,128,0,156335:0:0:0:0:
320,192,156046,128,0,156335:0:0:0:0:
448,192,156046,128,0,156335:0:0:0:0:
448,192,156431,128,0,156527:0:0:0:0:
320,192,156431,128,0,156527:0:0:0:0:
192,192,156431,128,0,156527:0:0:0:0:
64,192,156431,128,0,156527:0:0:0:0:
64,192,156623,128,0,156912:0:0:0:0:
192,192,156623,128,0,156912:0:0:0:0:
320,192,156623,128,0,156912:0:0:0:0:
448,192,156623,128,0,156912:0:0:0:0:
448,192,157008,128,0,157296:0:0:0:0:
320,192,157008,128,0,157296:0:0:0:0:
192,192,157008,128,0,157296:0:0:0:0:
64,192,157008,128,0,157296:0:0:0:0:
448,192,157393,128,0,158066:0:0:0:0:
64,192,157393,128,0,158066:0:0:0:0:
192,192,157393,128,0,157873:0:0:0:0:
320,192,157393,128,0,157873:0:0:0:0:
192,192,157970,1,0,0:0:0:0:
320,192,157970,1,0,0:0:0:0:
448,192,158162,1,0,0:0:0:0:
64,192,158162,1,0,0:0:0:0:
320,192,158354,1,0,0:0:0:0:
448,192,158354,1,0,0:0:0:0:
64,192,158354,1,0,0:0:0:0:
448,192,158546,128,0,159027:0:0:0:0:
320,192,158546,128,0,159556:0:0:0:0:
192,192,158546,128,0,159556:0:0:0:0:
64,192,158546,128,0,159027:0:0:0:0:
64,192,159316,1,0,0:0:0:0:
448,192,159316,1,0,0:0:0:0:
448,192,159556,1,0,0:0:0:0:
64,192,159556,1,0,0:0:0:0:
320,192,159700,1,0,0:0:0:0:
448,192,159796,1,0,0:0:0:0:
320,192,159893,1,0,0:0:0:0:
192,192,159989,1,0,0:0:0:0:
64,192,160085,1,0,0:0:0:0:
448,192,160085,1,0,0:0:0:0:
320,192,160085,1,0,0:0:0:0:
192,192,160181,1,0,0:0:0:0:
320,192,160277,1,0,0:0:0:0:
448,192,160373,1,0,0:0:0:0:
192,192,160470,1,0,0:0:0:0:
64,192,160470,128,0,161239:0:0:0:0:
320,192,160470,128,0,161239:0:0:0:0:
192,192,160854,1,0,0:0:0:0:
448,192,160854,1,0,0:0:0:0:
448,192,161239,1,0,0:0:0:0:
192,192,161239,1,0,0:0:0:0:
192,192,161623,1,0,0:0:0:0:
64,192,161623,1,0,0:0:0:0:
448,192,161623,1,0,0:0:0:0:
320,192,161816,1,0,0:0:0:0:
192,192,161864,1,0,0:0:0:0:
64,192,162008,1,0,0:0:0:0:
448,192,162008,1,0,0:0:0:0:
64,192,162441,1,0,0:0:0:0:
448,192,162441,1,0,0:0:0:0:
192,192,162633,1,0,0:0:0:0:
320,192,162633,1,0,0:0:0:0:
448,192,162777,1,0,0:0:0:0:
320,192,162873,1,0,0:0:0:0:
64,192,162970,1,0,0:0:0:0:
192,192,163066,1,0,0:0:0:0:
448,192,163162,1,0,0:0:0:0:
320,192,163258,1,0,0:0:0:0:
64,192,163354,1,0,0:0:0:0:
320,192,163450,1,0,0:0:0:0:
192,192,163450,128,0,165037:0:0:0:0:
448,192,163450,128,0,163931:0:0:0:0:
320,192,163931,1,0,0:0:0:0:
64,192,163931,128,0,165037:0:0:0:0:
448,192,164220,1,0,0:0:0:0:
320,192,164268,1,0,0:0:0:0:
320,192,164700,1,0,0:0:0:0:
448,192,164700,1,0,0:0:0:0:
448,192,165037,1,0,0:0:0:0:
320,192,165037,1,0,0:0:0:0:
192,192,165470,1,0,0:0:0:0:
320,192,165470,1,0,0:0:0:0:
64,192,165470,1,0,0:0:0:0:
448,192,165758,1,0,0:0:0:0:
64,192,165758,1,0,0:0:0:0:
192,192,165854,1,0,0:0:0:0:
320,192,165902,1,0,0:0:0:0:
448,192,165998,1,0,0:0:0:0:
64,192,165998,1,0,0:0:0:0:
320,192,166095,1,0,0:0:0:0:
192,192,166143,1,0,0:0:0:0:
64,192,166239,1,0,0:0:0:0:
448,192,166239,1,0,0:0:0:0:
192,192,166335,1,0,0:0:0:0:
320,192,166383,1,0,0:0:0:0:
448,192,166479,1,0,0:0:0:0:
64,192,166479,1,0,0:0:0:0:
192,192,166623,1,0,0:0:0:0:
64,192,166623,128,0,167345:0:0:0:0:
448,192,166623,128,0,167345:0:0:0:0:
192,192,166960,1,0,0:0:0:0:
320,192,166960,1,0,0:0:0:0:
192,192,167393,1,0,0:0:0:0:
320,192,167393,1,0,0:0:0:0:
192,192,167777,128,0,167873:0:0:0:0:
448,192,167970,1,0,0:0:0:0:
320,192,168018,1,0,0:0:0:0:
192,192,168354,1,0,0:0:0:0:
64,192,168354,1,0,0:0:0:0:
320,192,168450,1,0,0:0:0:0:
448,192,168450,1,0,0:0:0:0:
192,192,168546,1,0,0:0:0:0:
64,192,168546,1,0,0:0:0:0:
320,192,168643,1,0,0:0:0:0:
448,192,168643,1,0,0:0:0:0:
192,192,168739,1,0,0:0:0:0:
64,192,168739,1,0,0:0:0:0:
448,192,168835,1,0,0:0:0:0:
320,192,168835,1,0,0:0:0:0:
64,192,168931,1,0,0:0:0:0:
192,192,168931,1,0,0:0:0:0:
448,192,169027,1,0,0:0:0:0:
320,192,169027,1,0,0:0:0:0:
64,192,169123,1,0,0:0:0:0:
192,192,169123,1,0,0:0:0:0:
448,192,169220,1,0,0:0:0:0:
320,192,169220,1,0,0:0:0:0:
64,192,169316,1,0,0:0:0:0:
192,192,169316,1,0,0:0:0:0:
448,192,169412,1,0,0:0:0:0:
320,192,169412,1,0,0:0:0:0:
192,192,169508,1,0,0:0:0:0:
64,192,169508,1,0,0:0:0:0:
320,192,169604,1,0,0:0:0:0:
448,192,169604,1,0,0:0:0:0:
64,192,169700,128,0,170229:0:0:0:0:
192,192,169700,128,0,169989:0:0:0:0:
320,192,169700,128,0,169989:0:0:0:0:
448,192,169700,128,0,170181:0:0:0:0:
192,192,170085,1,0,0:0:0:0:
320,192,170085,1,0,0:0:0:0:
64,192,170421,1,0,0:0:0:0:
448,192,170421,1,0,0:0:0:0:
192,192,170470,1,0,0:0:0:0:
320,192,170470,1,0,0:0:0:0:
448,192,170854,128,0,170950:0:0:0:0:
320,192,170854,128,0,170950:0:0:0:0:
64,192,170854,128,0,170950:0:0:0:0:
64,192,171095,1,0,0:0:0:0:
192,192,171143,1,0,0:0:0:0:
320,192,171191,1,0,0:0:0:0:
448,192,171239,1,0,0:0:0:0:
448,192,171575,128,0,171671:0:0:0:0:
320,192,171575,1,0,0:0:0:0:
192,192,171623,1,0,0:0:0:0:
320,192,171768,128,0,171864:0:0:0:0:
192,192,171816,1,0,0:0:0:0:
64,192,171864,1,0,0:0:0:0:
448,192,172008,1,0,0:0:0:0:
192,192,172008,1,0,0:0:0:0:
320,192,172200,128,0,172393:0:0:0:0:
64,192,172200,1,0,0:0:0:0:
192,192,172248,1,0,0:0:0:0:
320,192,172489,128,0,172681:0:0:0:0:
64,192,172489,1,0,0:0:0:0:
192,192,172537,1,0,0:0:0:0:
320,192,172777,128,0,172970:0:0:0:0:
192,192,172777,1,0,0:0:0:0:
64,192,172825,1,0,0:0:0:0:
64,192,172970,128,0,173739:0:0:0:0:
320,192,173162,128,0,173450:0:0:0:0:
448,192,173354,128,0,173835:0:0:0:0:
192,192,173546,128,0,174027:0:0:0:0:
320,192,173739,128,0,174220:0:0:0:0:
64,192,173931,128,0,174412:0:0:0:0:
448,192,174123,128,0,174508:0:0:0:0:
192,192,174316,128,0,175085:0:0:0:0:
64,192,174508,128,0,175277:0:0:0:0:
320,192,174508,1,0,0:0:0:0:
320,192,174700,128,0,174893:0:0:0:0:
448,192,174700,1,0,0:0:0:0:
448,192,174893,128,0,175470:0:0:0:0:
320,192,175085,128,0,176239:0:0:0:0:
192,192,175277,128,0,175566:0:0:0:0:
64,192,175470,128,0,176335:0:0:0:0:
448,192,175662,128,0,176431:0:0:0:0:
192,192,175854,128,0,177200:0:0:0:0:
320,192,176335,128,0,176671:0:0:0:0:
64,192,176623,128,0,177585:0:0:0:0:
320,192,176816,128,0,177104:0:0:0:0:
448,192,177008,128,0,177681:0:0:0:0:
320,192,177393,128,0,178162:0:0:0:0:
192,192,177777,128,0,178643:0:0:0:0:
448,192,177970,128,0,178643:0:0:0:0:
64,192,178162,128,0,178450:0:0:0:0:
320,192,178546,128,0,178931:0:0:0:0:
64,192,178643,128,0,178931:0:0:0:0:
192,192,178931,1,0,0:0:0:0:
448,192,178931,1,0,0:0:0:0:
448,192,179123,128,0,179220:0:0:0:0:
320,192,179123,128,0,179220:0:0:0:0:
192,192,179123,128,0,179220:0:0:0:0:
64,192,179123,128,0,179220:0:0:0:0:
448,192,179316,128,0,180373:0:0:0:0:
320,192,179508,128,0,179796:0:0:0:0:
64,192,179700,128,0,180085:0:0:0:0:
192,192,179893,128,0,180229:0:0:0:0:
320,192,180085,128,0,180518:0:0:0:0:
64,192,180277,128,0,181046:0:0:0:0:
192,192,180518,128,0,181143:0:0:0:0:
320,192,180662,128,0,180902:0:0:0:0:
448,192,180854,128,0,181335:0:0:0:0:
320,192,181046,128,0,181527:0:0:0:0:
64,192,181239,128,0,182056:0:0:0:0:
192,192,181431,128,0,181671:0:0:0:0:
448,192,181623,128,0,182489:0:0:0:0:
192,192,181816,128,0,182441:0:0:0:0:
320,192,182008,128,0,182248:0:0:0:0:
64,192,182200,128,0,182681:0:0:0:0:
320,192,182393,128,0,182729:0:0:0:0:
192,192,182585,128,0,183210:0:0:0:0:
448,192,182777,128,0,183450:0:0:0:0:
320,192,182970,128,0,183114:0:0:0:0:
64,192,183162,128,0,183835:0:0:0:0:
320,192,183354,128,0,183787:0:0:0:0:
192,192,183546,128,0,183979:0:0:0:0:
448,192,183739,128,0,184027:0:0:0:0:
320,192,183931,128,0,184171:0:0:0:0:
64,192,184123,128,0,184220:0:0:0:0:
448,192,184316,1,0,0:0:0:0:
320,192,184316,1,0,0:0:0:0:
64,192,184412,1,0,0:0:0:0:
192,192,184412,1,0,0:0:0:0:
320,192,184508,1,0,0:0:0:0:
448,192,184508,1,0,0:0:0:0:
192,192,184604,1,0,0:0:0:0:
64,192,184604,1,0,0:0:0:0:
320,192,184700,1,0,0:0:0:0:
448,192,184700,1,0,0:0:0:0:
192,192,184796,1,0,0:0:0:0:
64,192,184796,1,0,0:0:0:0:
320,192,184893,1,0,0:0:0:0:
448,192,184893,1,0,0:0:0:0:
192,192,184989,1,0,0:0:0:0:
64,192,184989,1,0,0:0:0:0:
320,192,185085,1,0,0:0:0:0:
448,192,185085,1,0,0:0:0:0:
64,192,185133,1,0,0:0:0:0:
192,192,185181,1,0,0:0:0:0:
320,192,185229,1,0,0:0:0:0:
448,192,185277,1,0,0:0:0:0:
64,192,185325,1,0,0:0:0:0:
192,192,185373,1,0,0:0:0:0:
320,192,185421,1,0,0:0:0:0:
448,192,185470,1,0,0:0:0:0:
64,192,185518,1,0,0:0:0:0:
192,192,185566,1,0,0:0:0:0:
320,192,185614,1,0,0:0:0:0:
448,192,185662,1,0,0:0:0:0:
64,192,185854,128,0,186335:0:0:0:0:
320,192,185854,128,0,186335:0:0:0:0:
448,192,185854,128,0,186335:0:0:0:0:
192,192,186431,1,0,0:0:0:0:
320,192,186431,1,0,0:0:0:0:
448,192,186623,1,0,0:0:0:0:
64,192,186623,1,0,0:0:0:0:
192,192,186671,1,0,0:0:0:0:
320,192,186720,1,0,0:0:0:0:
448,192,186768,1,0,0:0:0:0:
64,192,186816,1,0,0:0:0:0:
192,192,186864,1,0,0:0:0:0:
320,192,186912,1,0,0:0:0:0:
448,192,186960,1,0,0:0:0:0:
64,192,187008,1,0,0:0:0:0:
192,192,187056,1,0,0:0:0:0:
320,192,187104,1,0,0:0:0:0:
448,192,187152,1,0,0:0:0:0:
192,192,187200,1,0,0:0:0:0:
64,192,187200,1,0,0:0:0:0:
64,192,187393,128,0,187873:0:0:0:0:
320,192,187393,128,0,187873:0:0:0:0:
448,192,187393,128,0,187825:0:0:0:0:
448,192,187970,1,0,0:0:0:0:
320,192,187970,1,0,0:0:0:0:
64,192,188162,1,0,0:0:0:0:
192,192,188162,1,0,0:0:0:0:
320,192,188210,1,0,0:0:0:0:
448,192,188258,1,0,0:0:0:0:
64,192,188306,1,0,0:0:0:0:
192,192,188354,1,0,0:0:0:0:
320,192,188402,1,0,0:0:0:0:
448,192,188450,1,0,0:0:0:0:
64,192,188498,1,0,0:0:0:0:
192,192,188546,1,0,0:0:0:0:
320,192,188595,1,0,0:0:0:0:
448,192,188643,1,0,0:0:0:0:
192,192,188739,1,0,0:0:0:0:
64,192,188739,1,0,0:0:0:0:
64,192,188931,128,0,189412:0:0:0:0:
192,192,188931,128,0,189412:0:0:0:0:
320,192,188931,128,0,189412:0:0:0:0:
192,192,189508,1,0,0:0:0:0:
320,192,189508,1,0,0:0:0:0:
192,192,189700,1,0,0:0:0:0:
320,192,189700,1,0,0:0:0:0:
64,192,189796,1,0,0:0:0:0:
192,192,189845,1,0,0:0:0:0:
448,192,189893,1,0,0:0:0:0:
320,192,189941,1,0,0:0:0:0:
64,192,189989,1,0,0:0:0:0:
192,192,190037,1,0,0:0:0:0:
448,192,190085,1,0,0:0:0:0:
320,192,190133,1,0,0:0:0:0:
64,192,190181,1,0,0:0:0:0:
192,192,190229,1,0,0:0:0:0:
448,192,190277,1,0,0:0:0:0:
64,192,190277,1,0,0:0:0:0:
320,192,190470,1,0,0:0:0:0:
192,192,190470,128,0,191046:0:0:0:0:
448,192,190662,1,0,0:0:0:0:
320,192,190710,1,0,0:0:0:0:
448,192,190854,1,0,0:0:0:0:
64,192,190854,128,0,191046:0:0:0:0:
320,192,191046,1,0,0:0:0:0:
448,192,191046,1,0,0:0:0:0:
64,192,191239,1,0,0:0:0:0:
192,192,191239,1,0,0:0:0:0:
448,192,191239,1,0,0:0:0:0:
320,192,191335,1,0,0:0:0:0:
192,192,191383,1,0,0:0:0:0:
64,192,191431,1,0,0:0:0:0:
448,192,191479,1,0,0:0:0:0:
320,192,191527,1,0,0:0:0:0:
192,192,191575,1,0,0:0:0:0:
64,192,191623,1,0,0:0:0:0:
448,192,191671,1,0,0:0:0:0:
320,192,191720,1,0,0:0:0:0:
192,192,191768,1,0,0:0:0:0:
448,192,191816,1,0,0:0:0:0:
320,192,191816,1,0,0:0:0:0:
64,192,191816,1,0,0:0:0:0:
320,192,192008,128,0,192489:0:0:0:0:
448,192,192008,128,0,192489:0:0:0:0:
64,192,192008,128,0,192489:0:0:0:0:
192,192,192585,1,0,0:0:0:0:
320,192,192585,1,0,0:0:0:0:
448,192,192777,1,0,0:0:0:0:
320,192,192825,1,0,0:0:0:0:
192,192,192873,1,0,0:0:0:0:
64,192,192921,1,0,0:0:0:0:
448,192,192970,1,0,0:0:0:0:
320,192,193018,1,0,0:0:0:0:
192,192,193066,1,0,0:0:0:0:
64,192,193114,1,0,0:0:0:0:
448,192,193162,1,0,0:0:0:0:
320,192,193210,1,0,0:0:0:0:
64,192,193354,1,0,0:0:0:0:
192,192,193354,1,0,0:0:0:0:
64,192,193546,128,0,194027:0:0:0:0:
320,192,193546,128,0,194027:0:0:0:0:
448,192,193546,128,0,194027:0:0:0:0:
192,192,194123,1,0,0:0:0:0:
320,192,194123,1,0,0:0:0:0:
64,192,194316,1,0,0:0:0:0:
448,192,194316,1,0,0:0:0:0:
192,192,194364,1,0,0:0:0:0:
320,192,194412,1,0,0:0:0:0:
64,192,194460,1,0,0:0:0:0:
192,192,194508,1,0,0:0:0:0:
320,192,194556,1,0,0:0:0:0:
64,192,194604,1,0,0:0:0:0:
192,192,194652,1,0,0:0:0:0:
320,192,194700,1,0,0:0:0:0:
64,192,194748,1,0,0:0:0:0:
192,192,194796,1,0,0:0:0:0:
320,192,194845,1,0,0:0:0:0:
64,192,195085,128,0,195518:0:0:0:0:
192,192,195085,128,0,195518:0:0:0:0:
320,192,195085,128,0,195518:0:0:0:0:
448,192,195662,1,0,0:0:0:0:
192,192,195662,1,0,0:0:0:0:
320,192,195854,1,0,0:0:0:0:
64,192,195854,1,0,0:0:0:0:
192,192,195902,1,0,0:0:0:0:
320,192,195950,1,0,0:0:0:0:
448,192,195998,1,0,0:0:0:0:
192,192,196046,1,0,0:0:0:0:
320,192,196095,1,0,0:0:0:0:
448,192,196143,1,0,0:0:0:0:
192,192,196191,1,0,0:0:0:0:
320,192,196239,1,0,0:0:0:0:
448,192,196287,1,0,0:0:0:0:
192,192,196335,1,0,0:0:0:0:
320,192,196383,1,0,0:0:0:0:
448,192,196431,1,0,0:0:0:0:
192,192,196623,1,0,0:0:0:0:
448,192,196623,128,0,197248:0:0:0:0:
64,192,196816,1,0,0:0:0:0:
320,192,196864,1,0,0:0:0:0:
320,192,197008,1,0,0:0:0:0:
192,192,197008,128,0,197248:0:0:0:0:
192,192,197393,1,0,0:0:0:0:
448,192,197393,1,0,0:0:0:0:
320,192,197393,1,0,0:0:0:0:
64,192,197489,1,0,0:0:0:0:
192,192,197585,1,0,0:0:0:0:
320,192,197681,1,0,0:0:0:0:
64,192,197777,1,0,0:0:0:0:
448,192,197777,1,0,0:0:0:0:
192,192,197777,1,0,0:0:0:0:
320,192,197873,1,0,0:0:0:0:
192,192,197970,1,0,0:0:0:0:
64,192,198066,1,0,0:0:0:0:
192,192,198162,1,0,0:0:0:0:
320,192,198258,1,0,0:0:0:0:
64,192,198354,1,0,0:0:0:0:
448,192,198450,1,0,0:0:0:0:
192,192,198546,1,0,0:0:0:0:
64,192,198643,1,0,0:0:0:0:
192,192,198739,1,0,0:0:0:0:
320,192,198835,1,0,0:0:0:0:
448,192,198931,1,0,0:0:0:0:
64,192,198931,1,0,0:0:0:0:
192,192,199027,1,0,0:0:0:0:
320,192,199123,1,0,0:0:0:0:
448,192,199220,1,0,0:0:0:0:
64,192,199316,1,0,0:0:0:0:
192,192,199316,1,0,0:0:0:0:
320,192,199412,1,0,0:0:0:0:
448,192,199508,1,0,0:0:0:0:
64,192,199508,1,0,0:0:0:0:
192,192,199604,1,0,0:0:0:0:
320,192,199700,1,0,0:0:0:0:
64,192,199700,1,0,0:0:0:0:
448,192,199796,1,0,0:0:0:0:
320,192,199893,1,0,0:0:0:0:
192,192,199989,1,0,0:0:0:0:
448,192,199989,1,0,0:0:0:0:
320,192,200085,1,0,0:0:0:0:
192,192,200181,1,0,0:0:0:0:
320,192,200277,1,0,0:0:0:0:
64,192,200277,1,0,0:0:0:0:
192,192,200373,1,0,0:0:0:0:
320,192,200470,1,0,0:0:0:0:
192,192,200566,1,0,0:0:0:0:
448,192,200566,1,0,0:0:0:0:
64,192,200662,1,0,0:0:0:0:
192,192,200758,1,0,0:0:0:0:
64,192,200854,1,0,0:0:0:0:
448,192,200854,1,0,0:0:0:0:
320,192,200950,1,0,0:0:0:0:
192,192,201046,1,0,0:0:0:0:
64,192,201143,1,0,0:0:0:0:
448,192,201239,1,0,0:0:0:0:
192,192,201239,1,0,0:0:0:0:
64,192,201335,1,0,0:0:0:0:
320,192,201431,1,0,0:0:0:0:
448,192,201527,1,0,0:0:0:0:
320,192,201623,1,0,0:0:0:0:
192,192,201720,1,0,0:0:0:0:
64,192,201816,1,0,0:0:0:0:
192,192,201912,1,0,0:0:0:0:
448,192,202008,1,0,0:0:0:0:
320,192,202008,1,0,0:0:0:0:
64,192,202008,1,0,0:0:0:0:
192,192,202104,1,0,0:0:0:0:
320,192,202200,1,0,0:0:0:0:
448,192,202296,1,0,0:0:0:0:
64,192,202393,1,0,0:0:0:0:
320,192,202393,1,0,0:0:0:0:
192,192,202489,1,0,0:0:0:0:
448,192,202585,1,0,0:0:0:0:
64,192,202585,1,0,0:0:0:0:
320,192,202585,1,0,0:0:0:0:
192,192,202681,1,0,0:0:0:0:
448,192,202777,1,0,0:0:0:0:
320,192,202777,1,0,0:0:0:0:
64,192,202777,1,0,0:0:0:0:
192,192,202873,1,0,0:0:0:0:
320,192,202970,1,0,0:0:0:0:
448,192,203066,1,0,0:0:0:0:
320,192,203162,1,0,0:0:0:0:
192,192,203258,1,0,0:0:0:0:
320,192,203354,1,0,0:0:0:0:
64,192,203354,1,0,0:0:0:0:
448,192,203450,1,0,0:0:0:0:
64,192,203546,128,0,203835:0:0:0:0:
192,192,203546,128,0,203835:0:0:0:0:
320,192,203546,128,0,203835:0:0:0:0:
64,192,203931,128,0,204027:0:0:0:0:
192,192,203931,128,0,204027:0:0:0:0:
448,192,203931,1,0,0:0:0:0:
320,192,204123,128,0,204508:0:0:0:0:
448,192,204123,128,0,204508:0:0:0:0:
192,192,204123,1,0,0:0:0:0:
64,192,204123,1,0,0:0:0:0:
192,192,204604,128,0,204700:0:0:0:0:
448,192,204604,128,0,204700:0:0:0:0:
64,192,204796,128,0,204893:0:0:0:0:
192,192,204796,128,0,204893:0:0:0:0:
192,192,204989,128,0,205085:0:0:0:0:
320,192,204989,128,0,205085:0:0:0:0:
320,192,205181,128,0,205277:0:0:0:0:
64,192,205181,128,0,205277:0:0:0:0:
192,192,205373,128,0,205662:0:0:0:0:
320,192,205373,128,0,205662:0:0:0:0:
448,192,205373,128,0,205662:0:0:0:0:
192,192,205758,128,0,205854:0:0:0:0:
64,192,205758,128,0,205854:0:0:0:0:
448,192,205950,128,0,206046:0:0:0:0:
320,192,205950,128,0,206046:0:0:0:0:
64,192,206095,128,0,206239:0:0:0:0:
192,192,206095,128,0,206239:0:0:0:0:
448,192,206287,128,0,206623:0:0:0:0:
320,192,206287,128,0,206623:0:0:0:0:
192,192,206623,128,0,206720:0:0:0:0:
64,192,206623,128,0,206720:0:0:0:0:
64,192,206816,128,0,206912:0:0:0:0:
192,192,206816,128,0,206912:0:0:0:0:
320,192,207008,128,0,207104:0:0:0:0:
192,192,207008,128,0,207104:0:0:0:0:
320,192,207200,128,0,207296:0:0:0:0:
448,192,207200,128,0,207296:0:0:0:0:
192,192,207393,128,0,207681:0:0:0:0:
320,192,207393,128,0,207681:0:0:0:0:
64,192,207777,128,0,207873:0:0:0:0:
192,192,207777,128,0,207873:0:0:0:0:
192,192,207970,128,0,208258:0:0:0:0:
320,192,207970,128,0,208258:0:0:0:0:
448,192,207970,128,0,208258:0:0:0:0:
320,192,208354,128,0,208643:0:0:0:0:
448,192,208354,128,0,208643:0:0:0:0:
64,192,208739,128,0,208787:0:0:0:0:
192,192,208739,128,0,208787:0:0:0:0:
320,192,208931,1,0,0:0:0:0:
192,192,208931,1,0,0:0:0:0:
448,192,209027,1,0,0:0:0:0:
64,192,209027,1,0,0:0:0:0:
192,192,209123,1,0,0:0:0:0:
320,192,209123,1,0,0:0:0:0:
64,192,209220,1,0,0:0:0:0:
448,192,209220,1,0,0:0:0:0:
192,192,209316,1,0,0:0:0:0:
320,192,209316,1,0,0:0:0:0:
64,192,209412,1,0,0:0:0:0:
448,192,209412,1,0,0:0:0:0:
192,192,209508,1,0,0:0:0:0:
320,192,209508,1,0,0:0:0:0:
64,192,209604,1,0,0:0:0:0:
448,192,209604,1,0,0:0:0:0:
64,192,209700,128,0,210181:0:0:0:0:
448,192,209700,128,0,209989:0:0:0:0:
192,192,209893,128,0,210133:0:0:0:0:
320,192,210085,128,0,210325:0:0:0:0:
448,192,210277,128,0,210566:0:0:0:0:
64,192,210470,128,0,210806:0:0:0:0:
192,192,210470,128,0,210710:0:0:0:0:
320,192,210662,128,0,210950:0:0:0:0:
448,192,210854,128,0,211095:0:0:0:0:
192,192,211046,128,0,211335:0:0:0:0:
64,192,211239,128,0,211768:0:0:0:0:
448,192,211239,128,0,211671:0:0:0:0:
320,192,211431,128,0,211720:0:0:0:0:
192,192,211623,128,0,211912:0:0:0:0:
448,192,211816,128,0,212152:0:0:0:0:
64,192,212008,128,0,212345:0:0:0:0:
320,192,212008,128,0,212248:0:0:0:0:
192,192,212200,128,0,212441:0:0:0:0:
320,192,212393,128,0,212537:0:0:0:0:
448,192,212585,128,0,212873:0:0:0:0:
64,192,212585,128,0,212873:0:0:0:0:
320,192,212777,128,0,213018:0:0:0:0:
192,192,212873,128,0,213450:0:0:0:0:
64,192,212970,128,0,213210:0:0:0:0:
320,192,213114,128,0,213402:0:0:0:0:
64,192,213354,128,0,213979:0:0:0:0:
448,192,213546,128,0,214171:0:0:0:0:
320,192,213546,128,0,213787:0:0:0:0:
192,192,213739,128,0,214268:0:0:0:0:
320,192,213931,128,0,214652:0:0:0:0:
64,192,214123,128,0,214604:0:0:0:0:
448,192,214316,128,0,214748:0:0:0:0:
192,192,214508,128,0,215133:0:0:0:0:
64,192,214700,128,0,214941:0:0:0:0:
320,192,214893,128,0,214989:0:0:0:0:
448,192,215085,128,0,215421:0:0:0:0:
320,192,215181,128,0,215277:0:0:0:0:
64,192,215277,128,0,215518:0:0:0:0:
192,192,215373,128,0,215662:0:0:0:0:
320,192,215566,128,0,215950:0:0:0:0:
448,192,215566,128,0,215710:0:0:0:0:
192,192,215854,128,0,216431:0:0:0:0:
448,192,215854,128,0,216191:0:0:0:0:
320,192,216046,128,0,216335:0:0:0:0:
64,192,216239,128,0,216527:0:0:0:0:
448,192,216431,128,0,217104:0:0:0:0:
192,192,216623,128,0,217056:0:0:0:0:
320,192,216623,128,0,216864:0:0:0:0:
64,192,216816,128,0,217633:0:0:0:0:
320,192,217008,128,0,217489:0:0:0:0:
192,192,217200,128,0,217681:0:0:0:0:
448,192,217393,128,0,217873:0:0:0:0:
320,192,217585,128,0,218066:0:0:0:0:
64,192,217777,128,0,218450:0:0:0:0:
192,192,218018,128,0,218258:0:0:0:0:
448,192,218162,128,0,218595:0:0:0:0:
320,192,218162,128,0,218883:0:0:0:0:
192,192,218354,128,0,218546:0:0:0:0:
64,192,218546,128,0,219268:0:0:0:0:
192,192,218739,128,0,218979:0:0:0:0:
448,192,218931,128,0,219171:0:0:0:0:
320,192,219027,128,0,219556:0:0:0:0:
192,192,219123,128,0,219412:0:0:0:0:
448,192,219316,128,0,219460:0:0:0:0:
64,192,219508,128,0,219941:0:0:0:0:
320,192,219700,128,0,220373:0:0:0:0:
192,192,219700,128,0,219893:0:0:0:0:
448,192,219893,128,0,220277:0:0:0:0:
192,192,220085,128,0,220325:0:0:0:0:
64,192,220277,128,0,220902:0:0:0:0:
192,192,220470,128,0,220758:0:0:0:0:
448,192,220470,128,0,221287:0:0:0:0:
320,192,220662,128,0,221143:0:0:0:0:
192,192,220854,128,0,221095:0:0:0:0:
64,192,221046,128,0,221671:0:0:0:0:
192,192,221239,128,0,221864:0:0:0:0:
320,192,221335,128,0,221671:0:0:0:0:
448,192,221479,1,0,0:0:0:0:
448,192,221623,128,0,221960:0:0:0:0:
64,192,221816,128,0,222008:0:0:0:0:
320,192,221816,1,0,0:0:0:0:
192,192,222008,1,0,0:0:0:0:
320,192,222008,1,0,0:0:0:0:
448,192,222104,1,0,0:0:0:0:
320,192,222200,1,0,0:0:0:0:
192,192,222393,1,0,0:0:0:0:
448,192,222393,1,0,0:0:0:0:
320,192,222393,1,0,0:0:0:0:
64,192,222393,128,0,222777:0:0:0:0:
192,192,222777,1,0,0:0:0:0:
320,192,222777,1,0,0:0:0:0:
448,192,222777,128,0,223306:0:0:0:0:
320,192,222970,1,0,0:0:0:0:
64,192,222970,1,0,0:0:0:0:
64,192,223162,1,0,0:0:0:0:
192,192,223162,1,0,0:0:0:0:
320,192,223354,1,0,0:0:0:0:
64,192,223354,1,0,0:0:0:0:
192,192,223354,128,0,223691:0:0:0:0:
64,192,223546,1,0,0:0:0:0:
320,192,223546,1,0,0:0:0:0:
448,192,223546,1,0,0:0:0:0:
448,192,223691,1,0,0:0:0:0:
320,192,223691,128,0,224123:0:0:0:0:
64,192,223931,1,0,0:0:0:0:
192,192,223931,1,0,0:0:0:0:
448,192,223931,1,0,0:0:0:0:
192,192,224123,1,0,0:0:0:0:
64,192,224123,128,0,224508:0:0:0:0:
448,192,224316,1,0,0:0:0:0:
192,192,224316,1,0,0:0:0:0:
448,192,224508,1,0,0:0:0:0:
192,192,224508,128,0,224700:0:0:0:0:
64,192,224700,128,0,225085:0:0:0:0:
320,192,224700,128,0,224893:0:0:0:0:
448,192,224700,1,0,0:0:0:0:
192,192,224893,1,0,0:0:0:0:
448,192,224893,128,0,225085:0:0:0:0:
192,192,225085,1,0,0:0:0:0:
320,192,225181,1,0,0:0:0:0:
192,192,225277,1,0,0:0:0:0:
192,192,225470,1,0,0:0:0:0:
320,192,225470,1,0,0:0:0:0:
64,192,225470,128,0,225854:0:0:0:0:
448,192,225470,1,0,0:0:0:0:
192,192,225662,1,0,0:0:0:0:
448,192,225662,1,0,0:0:0:0:
192,192,225854,1,0,0:0:0:0:
448,192,225854,1,0,0:0:0:0:
320,192,225854,128,0,226239:0:0:0:0:
192,192,226046,1,0,0:0:0:0:
448,192,226046,1,0,0:0:0:0:
64,192,226239,1,0,0:0:0:0:
192,192,226239,1,0,0:0:0:0:
448,192,226239,1,0,0:0:0:0:
320,192,226431,128,0,227008:0:0:0:0:
192,192,226431,1,0,0:0:0:0:
64,192,226431,1,0,0:0:0:0:
64,192,226623,1,0,0:0:0:0:
192,192,226623,1,0,0:0:0:0:
448,192,226623,1,0,0:0:0:0:
192,192,226816,1,0,0:0:0:0:
448,192,226816,1,0,0:0:0:0:
64,192,227008,1,0,0:0:0:0:
448,192,227008,1,0,0:0:0:0:
192,192,227008,128,0,227393:0:0:0:0:
320,192,227200,1,0,0:0:0:0:
448,192,227200,1,0,0:0:0:0:
64,192,227393,1,0,0:0:0:0:
448,192,227393,1,0,0:0:0:0:
320,192,227393,1,0,0:0:0:0:
192,192,227537,1,0,0:0:0:0:
320,192,227633,1,0,0:0:0:0:
64,192,227777,1,0,0:0:0:0:
192,192,227777,128,0,228162:0:0:0:0:
448,192,227777,128,0,228162:0:0:0:0:
320,192,227970,1,0,0:0:0:0:
64,192,227970,1,0,0:0:0:0:
64,192,228162,1,0,0:0:0:0:
320,192,228162,1,0,0:0:0:0:
192,192,228354,1,0,0:0:0:0:
320,192,228354,1,0,0:0:0:0:
192,192,228546,1,0,0:0:0:0:
320,192,228546,1,0,0:0:0:0:
448,192,228546,1,0,0:0:0:0:
64,192,228546,128,0,228931:0:0:0:0:
192,192,228739,1,0,0:0:0:0:
448,192,228739,1,0,0:0:0:0:
192,192,228931,1,0,0:0:0:0:
448,192,228931,1,0,0:0:0:0:
320,192,228931,128,0,229316:0:0:0:0:
192,192,229123,1,0,0:0:0:0:
64,192,229316,1,0,0:0:0:0:
192,192,229316,1,0,0:0:0:0:
448,192,229316,1,0,0:0:0:0:
64,192,229508,1,0,0:0:0:0:
320,192,229508,1,0,0:0:0:0:
448,192,229508,128,0,229893:0:0:0:0:
64,192,229700,1,0,0:0:0:0:
192,192,229700,1,0,0:0:0:0:
320,192,229700,1,0,0:0:0:0:
192,192,229893,1,0,0:0:0:0:
320,192,229893,128,0,230229:0:0:0:0:
64,192,230085,1,0,0:0:0:0:
448,192,230085,1,0,0:0:0:0:
192,192,230229,128,0,230470:0:0:0:0:
64,192,230470,1,0,0:0:0:0:
448,192,230470,1,0,0:0:0:0:
320,192,230470,128,0,230854:0:0:0:0:
192,192,230662,1,0,0:0:0:0:
64,192,230662,1,0,0:0:0:0:
64,192,230854,1,0,0:0:0:0:
192,192,230854,128,0,231239:0:0:0:0:
448,192,230854,128,0,231239:0:0:0:0:
320,192,231046,1,0,0:0:0:0:
64,192,231046,1,0,0:0:0:0:
64,192,231239,128,0,231527:0:0:0:0:
320,192,231239,128,0,231527:0:0:0:0:
64,192,231623,1,0,0:0:0:0:
192,192,231623,1,0,0:0:0:0:
320,192,231623,1,0,0:0:0:0:
448,192,231623,1,0,0:0:0:0:
64,192,231912,1,0,0:0:0:0:
192,192,232008,1,0,0:0:0:0:
320,192,232104,1,0,0:0:0:0:
64,192,232104,1,0,0:0:0:0:
64,192,232248,128,0,232873:0:0:0:0:
448,192,232248,128,0,232873:0:0:0:0:
320,192,232393,128,0,233018:0:0:0:0:
192,192,232393,128,0,233018:0:0:0:0:
320,192,233162,1,0,0:0:0:0:
448,192,233162,1,0,0:0:0:0:
64,192,233162,1,0,0:0:0:0:
192,192,233258,5,0,0:0:0:0:
320,192,233354,1,0,0:0:0:0:
448,192,233354,1,0,0:0:0:0:
64,192,233354,1,0,0:0:0:0:
192,192,233450,1,0,0:0:0:0:
64,192,233546,1,0,0:0:0:0:
448,192,233546,1,0,0:0:0:0:
320,192,233546,1,0,0:0:0:0:
192,192,233739,1,0,0:0:0:0:
320,192,233787,1,0,0:0:0:0:
192,192,234027,1,0,0:0:0:0:
64,192,234075,1,0,0:0:0:0:
320,192,234220,1,0,0:0:0:0:
448,192,234268,1,0,0:0:0:0:
448,192,234412,128,0,248162:0:0:0:0:
320,192,234412,128,0,248114:0:0:0:0:
64,192,234412,128,0,248162:0:0:0:0:
192,192,234412,128,0,248066:0:0:0:0:
