osu file format v14

[General]
AudioFilename: audio.mp3
AudioLeadIn: 0
PreviewTime: 84027
Countdown: 0
SampleSet: None
StackLeniency: 0.7
Mode: 3
LetterboxInBreaks: 0
SpecialStyle: 0
WidescreenStoryboard: 1

[Editor]
Bookmarks: 25150,31087
DistanceSpacing: 0.8
BeatDivisor: 4
GridSize: 8
TimelineZoom: 3.999999

[Metadata]
Title:Tadhana (Up Dharma Down Cover)
TitleUnicode:Tadhana (Up Dharma Down Cover)
Artist:Jeeps Over Taxis
ArtistUnicode:Jeeps Over Taxis
Creator:Hezekiah-
Version:Storms of Fate v2
Source:
Tags:opm
BeatmapID:1483025
BeatmapSetID:572697

[Difficulty]
HPDrainRate:8.5
CircleSize:4
OverallDifficulty:8
ApproachRate:5
SliderMultiplier:1.5
SliderTickRate:1

[Events]
//Background and Video events
0,0,"764983.jpg",0,0
//Break Periods
2,31439,36289
//Storyboard Layer 0 (Background)
//Storyboard Layer 1 (Fail)
//Storyboard Layer 2 (Pass)
//Storyboard Layer 3 (Foreground)
//Storyboard Sound Samples

[TimingPoints]
470,384.615384615385,4,1,0,100,1,0

[HitObjects]
64,192,470,128,0,1239:0:0:0:0:
320,192,854,128,0,1239:0:0:0:0:
192,192,854,1,0,0:0:0:0:
192,192,1239,128,0,1623:0:0:0:0:
448,192,1239,1,0,0:0:0:0:
448,192,1623,128,0,2585:0:0:0:0:
64,192,1623,1,0,0:0:0:0:
64,192,1816,128,0,2200:0:0:0:0:
320,192,1816,1,0,0:0:0:0:
320,192,2200,128,0,2585:0:0:0:0:
64,192,2585,128,0,3546:0:0:0:0:
192,192,2585,1,0,0:0:0:0:
448,192,2777,128,0,3162:0:0:0:0:
320,192,3162,128,0,3546:0:0:0:0:
448,192,3546,128,0,4508:0:0:0:0:
192,192,3546,1,0,0:0:0:0:
64,192,3931,128,0,4316:0:0:0:0:
192,192,3931,1,0,0:0:0:0:
192,192,4316,128,0,4700:0:0:0:0:
320,192,4316,1,0,0:0:0:0:
320,192,4700,128,0,4893:0:0:0:0:
64,192,4893,128,0,5662:0:0:0:0:
448,192,4893,128,0,5277:0:0:0:0:
192,192,5277,128,0,5662:0:0:0:0:
448,192,5662,128,0,6239:0:0:0:0:
64,192,5854,128,0,6239:0:0:0:0:
320,192,6239,128,0,6623:0:0:0:0:
448,192,6623,128,0,7008:0:0:0:0:
192,192,6623,128,0,7008:0:0:0:0:
64,192,7008,128,0,7393:0:0:0:0:
320,192,7008,128,0,7393:0:0:0:0:
192,192,7393,128,0,7777:0:0:0:0:
64,192,7777,128,0,8162:0:0:0:0:
448,192,7777,1,0,0:0:0:0:
320,192,7777,128,0,7970:0:0:0:0:
448,192,7970,128,0,8162:0:0:0:0:
320,192,8162,128,0,8546:0:0:0:0:
64,192,8354,128,0,8546:0:0:0:0:
192,192,8546,128,0,8931:0:0:0:0:
448,192,8931,128,0,9316:0:0:0:0:
64,192,9316,128,0,9700:0:0:0:0:
448,192,9700,128,0,10085:0:0:0:0:
192,192,10085,128,0,10470:0:0:0:0:
64,192,10470,128,0,10854:0:0:0:0:
320,192,10854,128,0,11239:0:0:0:0:
448,192,11046,128,0,11431:0:0:0:0:
192,192,11239,128,0,12777:0:0:0:0:
64,192,11431,128,0,11816:0:0:0:0:
320,192,11816,128,0,12008:0:0:0:0:
448,192,12008,128,0,12393:0:0:0:0:
64,192,12393,128,0,12777:0:0:0:0:
320,192,12489,1,0,0:0:0:0:
448,192,12585,1,0,0:0:0:0:
320,192,12681,1,0,0:0:0:0:
448,192,12777,1,0,0:0:0:0:
192,192,12970,1,0,0:0:0:0:
320,192,12970,1,0,0:0:0:0:
64,192,13162,128,0,13546:0:0:0:0:
192,192,13162,128,0,13546:0:0:0:0:
320,192,13354,1,0,0:0:0:0:
448,192,13354,1,0,0:0:0:0:
448,192,13546,128,0,13931:0:0:0:0:
320,192,13546,128,0,13931:0:0:0:0:
64,192,13931,128,0,14316:0:0:0:0:
192,192,14123,128,0,14508:0:0:0:0:
448,192,14316,128,0,15085:0:0:0:0:
320,192,14508,128,0,14893:0:0:0:0:
192,192,14604,1,0,0:0:0:0:
64,192,14700,1,0,0:0:0:0:
64,192,14893,1,0,0:0:0:0:
64,192,15085,128,0,15470:0:0:0:0:
192,192,15085,128,0,15470:0:0:0:0:
320,192,15277,1,0,0:0:0:0:
448,192,15277,1,0,0:0:0:0:
448,192,15470,128,0,15662:0:0:0:0:
320,192,15470,128,0,15854:0:0:0:0:
64,192,15662,1,0,0:0:0:0:
192,192,15662,1,0,0:0:0:0:
448,192,15854,128,0,16623:0:0:0:0:
64,192,15854,1,0,0:0:0:0:
192,192,16046,1,0,0:0:0:0:
320,192,16046,1,0,0:0:0:0:
192,192,16239,128,0,16623:0:0:0:0:
64,192,16431,1,0,0:0:0:0:
64,192,16623,128,0,16816:0:0:0:0:
320,192,16623,128,0,17008:0:0:0:0:
64,192,17008,128,0,17393:0:0:0:0:
448,192,17104,1,0,0:0:0:0:
192,192,17200,128,0,17393:0:0:0:0:
448,192,17393,128,0,17777:0:0:0:0:
320,192,17585,128,0,17777:0:0:0:0:
64,192,17585,1,0,0:0:0:0:
64,192,17777,128,0,17970:0:0:0:0:
448,192,17970,128,0,18162:0:0:0:0:
64,192,18162,128,0,18546:0:0:0:0:
192,192,18162,128,0,18546:0:0:0:0:
448,192,18546,128,0,18931:0:0:0:0:
320,192,18546,128,0,18931:0:0:0:0:
192,192,18643,1,0,0:0:0:0:
64,192,18739,1,0,0:0:0:0:
64,192,18931,128,0,19316:0:0:0:0:
192,192,19123,1,0,0:0:0:0:
448,192,19123,1,0,0:0:0:0:
448,192,19316,128,0,19700:0:0:0:0:
320,192,19316,128,0,19700:0:0:0:0:
64,192,19508,1,0,0:0:0:0:
192,192,19508,1,0,0:0:0:0:
64,192,19700,128,0,20085:0:0:0:0:
192,192,19700,128,0,20085:0:0:0:0:
448,192,20085,128,0,20470:0:0:0:0:
320,192,20277,128,0,20470:0:0:0:0:
64,192,20470,128,0,21239:0:0:0:0:
192,192,20662,128,0,21046:0:0:0:0:
320,192,20758,1,0,0:0:0:0:
448,192,20854,1,0,0:0:0:0:
448,192,21046,1,0,0:0:0:0:
448,192,21239,128,0,21623:0:0:0:0:
320,192,21239,128,0,21623:0:0:0:0:
64,192,21431,1,0,0:0:0:0:
192,192,21431,1,0,0:0:0:0:
64,192,21623,128,0,22008:0:0:0:0:
192,192,21623,128,0,22008:0:0:0:0:
320,192,21816,1,0,0:0:0:0:
448,192,21816,1,0,0:0:0:0:
448,192,22008,128,0,24123:0:0:0:0:
320,192,22008,128,0,24123:0:0:0:0:
64,192,25085,1,0,0:0:0:0:
192,192,25085,1,0,0:0:0:0:
320,192,25085,1,0,0:0:0:0:
448,192,25085,1,0,0:0:0:0:
192,192,25470,1,0,0:0:0:0:
320,192,25470,1,0,0:0:0:0:
192,192,25662,1,0,0:0:0:0:
448,192,25662,1,0,0:0:0:0:
64,192,25854,1,0,0:0:0:0:
448,192,25854,1,0,0:0:0:0:
192,192,26239,1,0,0:0:0:0:
448,192,26239,1,0,0:0:0:0:
64,192,26431,1,0,0:0:0:0:
320,192,26431,1,0,0:0:0:0:
192,192,26623,1,0,0:0:0:0:
448,192,26623,1,0,0:0:0:0:
64,192,27008,1,0,0:0:0:0:
192,192,27008,1,0,0:0:0:0:
192,192,27200,1,0,0:0:0:0:
448,192,27200,1,0,0:0:0:0:
64,192,27393,1,0,0:0:0:0:
320,192,27393,1,0,0:0:0:0:
64,192,27777,1,0,0:0:0:0:
192,192,27777,1,0,0:0:0:0:
448,192,27777,1,0,0:0:0:0:
320,192,27970,128,0,28258:0:0:0:0:
192,192,27970,128,0,28258:0:0:0:0:
448,192,27970,128,0,28450:0:0:0:0:
64,192,27970,128,0,28450:0:0:0:0:
320,192,28354,128,0,28643:0:0:0:0:
192,192,28354,128,0,28643:0:0:0:0:
448,192,28546,128,0,28835:0:0:0:0:
64,192,28546,128,0,28835:0:0:0:0:
192,192,28739,1,0,0:0:0:0:
320,192,28739,1,0,0:0:0:0:
448,192,28931,128,0,29220:0:0:0:0:
64,192,28931,128,0,29220:0:0:0:0:
192,192,28931,128,0,29412:0:0:0:0:
320,192,28931,128,0,29412:0:0:0:0:
64,192,29316,1,0,0:0:0:0:
448,192,29316,1,0,0:0:0:0:
192,192,29508,1,0,0:0:0:0:
320,192,29508,1,0,0:0:0:0:
192,192,29700,128,0,30085:0:0:0:0:
448,192,29700,128,0,30085:0:0:0:0:
320,192,29700,128,0,29989:0:0:0:0:
64,192,29700,128,0,29989:0:0:0:0:
64,192,30085,128,0,30373:0:0:0:0:
320,192,30085,128,0,30373:0:0:0:0:
192,192,30277,128,0,30373:0:0:0:0:
448,192,30277,128,0,30373:0:0:0:0:
64,192,30470,128,0,30854:0:0:0:0:
192,192,30470,128,0,30662:0:0:0:0:
448,192,30662,128,0,30854:0:0:0:0:
320,192,30662,128,0,30854:0:0:0:0:
192,192,30854,128,0,31046:0:0:0:0:
448,192,31046,1,0,0:0:0:0:
64,192,31239,1,0,0:0:0:0:
64,192,37489,5,0,0:0:0:0:
448,192,37489,1,0,0:0:0:0:
