osu file format v14

[General]
AudioFilename: Jeden Osiem L - Jak Zapomnie-.mp3
AudioLeadIn: 0
PreviewTime: 68644
Countdown: 0
SampleSet: Normal
StackLeniency: 0.4
Mode: 0
LetterboxInBreaks: 0
WidescreenStoryboard: 1

[Editor]
DistanceSpacing: 0.9
BeatDivisor: 4
GridSize: 4
TimelineZoom: 2.599999

[Metadata]
Title:Jak Zapomniec
TitleUnicode:Jak Zapomnieć
Artist:Jeden Osiem L
ArtistUnicode:Jeden Osiem L
Creator:Raikozen
Version:SERCE KLEKA
Source:
Tags:
BeatmapID:952215
BeatmapSetID:338845

[Difficulty]
HPDrainRate:6
CircleSize:4
OverallDifficulty:8
ApproachRate:9.3
SliderMultiplier:1.8
SliderTickRate:1

[Events]
//Background and Video events
0,0,"anime_girl_crying-wallpaper-1920x1200.jpg",0,0
//Break Periods
//Storyboard Layer 0 (Background)
//Storyboard Layer 1 (Fail)
//Storyboard Layer 2 (Pass)
//Storyboard Layer 3 (Foreground)
//Storyboard Sound Samples

[TimingPoints]
145,352.941176470588,4,1,1,60,1,0
145,-200,4,1,1,60,0,0
2439,-125,4,1,1,60,0,0
3674,-200,4,1,1,60,0,0
3939,-142.857142857143,4,1,1,60,0,0
4380,-133.333333333333,4,1,1,60,0,0
7203,-181.818181818181,4,1,1,60,0,0
7733,-125,4,1,1,60,0,0
8086,-100,4,1,1,60,0,0
8615,-133.333333333333,4,1,1,60,0,0
9321,-161.290322580645,4,1,1,60,0,0
11439,-98.0392156862745,4,1,1,60,0,0
16733,-81.9672131147541,4,1,1,60,0,0
17086,-100,4,1,1,60,0,0
17439,-125,4,1,1,60,0,0
17792,-142.857142857143,4,1,1,60,0,0
18321,-100,4,1,1,60,0,0
22380,-90.9090909090909,4,1,1,60,0,0
22733,-111.111111111111,4,1,1,60,0,0
23086,-125,4,1,1,60,0,0
23439,-153.846153846153,4,1,1,60,0,0
24850,-105.263157894736,4,1,1,60,0,0
50615,-83.3333333333333,4,1,1,60,0,0
51674,-100,4,1,1,60,0,0
72497,-117.647058823529,4,1,1,60,0,0
72850,-133.333333333333,4,1,1,60,0,0
73556,-117.647058823529,4,1,1,60,0,0
73909,-105.263157894737,4,1,1,60,0,0
74262,-95.2380952380951,4,1,1,60,0,0
78497,-117.647058823529,4,1,1,60,0,0
79203,-133.333333333333,4,1,1,60,0,0
79909,-153.846153846153,4,1,1,60,0,0
81321,-105.263157894737,4,1,1,60,0,0
92615,-133.333333333333,4,1,1,60,0,0
93321,-100,4,1,1,60,0,0
101792,-133.333333333333,4,1,1,60,0,0
104262,-100,4,1,1,60,0,0
104615,-133.333333333333,4,1,1,60,0,0
105321,-100,4,1,1,60,0,0
121909,-125,4,1,1,60,0,0
122262,-133.333333333333,4,1,1,60,0,0
122968,-181.818181818181,4,1,1,60,0,0
124027,-200,4,1,1,60,0,0
124380,-100,4,1,1,60,0,0
129321,-125,4,1,1,60,0,0
130027,-142.857142857143,4,1,1,60,0,0
130380,-111.111111111111,4,1,1,60,0,0
130733,-90.9090909090909,4,1,1,60,0,0
132144,-111.111111111111,4,1,1,60,0,0
133556,-90.9090909090909,4,1,1,60,0,0
134615,-100,4,1,1,60,0,0
134968,-111.111111111111,4,1,1,60,0,0
135674,-133.333333333333,4,1,1,60,0,0
137086,-100,4,1,1,60,0,0
146262,-83.3333333333333,4,1,1,60,0,0
146968,-100,4,1,1,60,0,0
148380,-133.333333333333,4,1,1,60,0,0
149086,-181.818181818181,4,1,1,60,0,0
150850,-100,4,1,1,60,0,0
178027,-100,4,1,1,30,0,0
179439,-100,4,1,1,5,0,0
179571,-100,4,1,1,11,0,0
179703,-100,4,1,1,19,0,0
179836,-100,4,1,1,25,0,0
179924,-100,4,1,1,30,0,0
180056,-100,4,1,1,36,0,0
180189,-100,4,1,1,41,0,0
180321,-100,4,1,1,46,0,0
180453,-100,4,1,1,50,0,0
180542,-100,4,1,1,53,0,0
180674,-100,4,1,1,56,0,0
180850,-83.3333333333333,4,1,1,60,0,0
181556,-100,4,1,1,60,0,0
185439,-83.3333333333333,4,1,1,60,0,0
185792,-76.9230769230769,4,1,1,60,0,0
186144,-90.9090909090909,4,1,1,60,0,0
186497,-100,4,1,1,60,0,0
186850,-125,4,1,1,60,0,0
187203,-133.333333333333,4,1,1,60,0,0
187909,-111.111111111111,4,1,1,60,0,0
188439,-100,4,1,1,60,0,0

[HitObjects]
120,76,11439,6,0,B|104:144|104:144|120:184|120:184|100:272,1,183.600001120605,4|0,0:0|0:0,0:0:0:0:
28,320,11968,1,0,0:0:0:0:
180,256,12144,2,0,P|228:260|284:308,1,91.8000005603027,8|0,0:0|0:0,0:0:0:0:
136,380,12497,1,0,0:0:0:0:
104,252,12674,1,0,0:0:0:0:
284,312,12850,6,0,L|116:308,1,137.700000840454
116,296,13203,2,0,B|104:252|104:252|120:200,1,91.8000005603027
165,84,13556,2,0,L|154:208,1,91.8000005603027,8|0,0:0|0:0,0:0:0:0:
146,308,13909,1,0,0:0:0:0:
146,308,14262,6,0,L|283:311,1,137.700000840454
316,316,14615,2,0,B|353:275|353:275|364:220,1,91.8000005603027
277,34,14968,2,0,L|280:147,1,91.8000005603027,8|0,0:0|0:0,0:0:0:0:
283,313,15321,1,0,0:0:0:0:
432,190,15497,1,0,0:0:0:0:
432,190,15586,1,0,0:0:0:0:
432,190,15674,6,0,P|441:128|419:77,1,91.8000005603027
283,313,16027,2,0,P|341:315|391:284,1,91.8000005603027
254,100,16380,2,0,P|210:149|204:196,1,91.8000005603027,8|0,0:0|0:0,0:0:0:0:
127,351,16733,2,0,L|119:204,1,109.79999547638
70,26,17086,6,0,L|57:126,1,90
127,226,17439,2,0,L|143:133,1,72
253,81,17792,2,0,L|258:152,1,62.9999980773926,8|0,0:0|0:0,0:0:0:0:
328,226,18144,1,0,0:0:0:0:
372,111,18321,1,0,0:0:0:0:
372,111,18409,1,0,0:0:0:0:
372,111,18497,5,2,0:0:0:0:
197,17,18674,1,0,0:0:0:0:
241,181,18850,1,2,0:0:0:0:
296,25,19027,1,0,0:0:0:0:
175,120,19203,2,0,P|160:179|177:240,1,90,10|0,0:0|0:0,0:0:0:0:
176,228,19468,2,2,L|164:396,1,135,0|2,0:0|0:0,0:0:0:0:
471,149,19909,6,0,P|431:113|362:114,1,90,2|0,0:0|0:0,0:0:0:0:
386,277,20174,2,0,P|438:264|469:211,1,90,2|0,0:0|0:0,0:0:0:0:
336,156,20439,1,2,0:0:0:0:
376,366,20615,2,0,L|389:247,1,90,8|0,0:0|0:0,0:0:0:0:
342,62,20968,1,0,0:0:0:0:
298,228,21144,6,0,P|348:233|414:121,1,180
263,9,21674,1,0,0:0:0:0:
339,156,21850,1,0,0:0:0:0:
342,62,22027,6,0,P|286:81|248:141,1,90,8|0,0:0|0:0,0:0:0:0:
132,259,22380,2,0,P|152:195|143:127,1,99.0000030212403
8,31,22733,6,0,P|-9:98|-2:125,1,80.9999975280763
167,249,23086,2,0,P|180:183|175:162,1,72
6,229,23439,6,0,L|10:364,1,116.999994644165,8|0,0:0|0:0,0:0:0:0:
167,249,23968,1,0,0:0:0:0:
55,67,24144,5,2,0:0:0:0:
85,207,24321,1,2,0:0:0:0:
157,37,24497,1,2,0:0:0:0:
1,170,24674,1,2,0:0:0:0:
190,123,24850,2,0,B|153:101|138:58|138:58|91:85|30:57,1,170.999995433807,10|0,0:0|0:0,0:0:0:0:
92,0,25380,1,0,0:0:0:0:
130,180,25556,6,0,L|121:289,1,85.4999977169037
14,360,25909,2,0,P|41:299|40:258,1,85.4999977169037
6,43,26262,2,0,L|14:234,1,170.999995433807,8|0,0:0|0:0,0:0:0:0:
96,332,26792,1,0,0:0:0:0:
124,358,26880,1,0,0:0:0:0:
162,361,26968,6,0,P|211:331|239:279,1,85.4999977169037,2|2,0:0|0:0,0:0:0:0:
318,133,27321,1,2,0:0:0:0:
292,337,27497,1,2,0:0:0:0:
296,153,27674,2,0,L|311:341,1,170.999995433807,10|0,0:0|0:0,0:0:0:0:
394,369,28203,1,0,0:0:0:0:
394,171,28380,6,0,B|379:220|379:220|383:277,1,85.4999977169037
473,364,28733,2,0,B|485:331|486:329|486:329|482:275,1,85.4999977169037
305,166,29086,2,0,L|289:368,1,170.999995433807,8|0,0:0|0:0,0:0:0:0:
295,144,29615,1,0,0:0:0:0:
206,294,29792,6,0,P|156:309|70:270,1,128.249996575356
71,271,30144,2,0,L|65:176,1,85.4999977169037
190,45,30497,2,0,B|201:97|201:97|183:150,1,85.4999977169037,8|0,0:0|0:0,0:0:0:0:
59,181,30850,1,0,0:0:0:0:
103,37,31027,1,0,0:0:0:0:
214,257,31203,6,0,L|199:401,1,128.249996575356
246,374,31556,2,0,L|234:275,1,85.4999977169037
125,92,31909,2,0,L|103:275,1,170.999995433807,8|0,0:0|0:0,0:0:0:0:
30,362,32439,1,0,0:0:0:0:
15,182,32615,5,0,0:0:0:0:
216,304,32792,1,0,0:0:0:0:
14,254,32968,1,0,0:0:0:0:
136,16,33144,1,0,0:0:0:0:
247,226,33321,2,0,L|112:202,1,128.249996575356,8|0,0:0|0:0,0:0:0:0:
15,182,33674,1,0,0:0:0:0:
162,0,33850,1,0,0:0:0:0:
141,349,34027,5,4,0:0:0:0:
248,288,34203,1,0,0:0:0:0:
154,226,34380,2,0,P|133:270|134:319,1,85.4999977169037
262,320,34733,2,0,L|255:141,1,170.999995433807,8|0,0:0|0:0,0:0:0:0:
170,24,35262,1,0,0:0:0:0:
165,146,35439,5,0,0:0:0:0:
262,88,35615,2,0,P|221:41|192:29,1,85.4999977169037
165,146,35968,1,0,0:0:0:0:
296,242,36144,2,0,L|479:220,1,170.999995433807,8|0,0:0|0:0,0:0:0:0:
341,149,36674,1,0,0:0:0:0:
233,322,36850,6,0,L|221:223,1,85.4999977169037
154,131,37203,2,0,L|141:231,1,85.4999977169037
48,364,37556,2,0,L|40:175,1,170.999995433807,8|0,0:0|0:0,0:0:0:0:
96,50,38086,1,0,0:0:0:0:
183,206,38262,5,0,0:0:0:0:
44,128,38439,1,0,0:0:0:0:
170,6,38615,1,0,0:0:0:0:
84,266,38792,1,0,0:0:0:0:
36,107,38968,2,0,L|50:0,1,85.4999977169037,8|0,0:0|0:0,0:0:0:0:
190,233,39321,2,0,L|174:348,1,85.4999977169037
23,355,39674,5,0,0:0:0:0:
103,154,39850,1,0,0:0:0:0:
107,278,40027,1,0,0:0:0:0:
18,174,40203,1,0,0:0:0:0:
18,174,40292,1,0,0:0:0:0:
18,174,40380,2,0,P|33:107|71:73,1,85.4999977169037,8|0,0:0|0:0,0:0:0:0:
203,49,40733,1,0,0:0:0:0:
106,153,40909,1,0,0:0:0:0:
90,12,41086,6,0,P|157:19|194:45,1,85.4999977169037
257,279,41439,2,0,P|235:223|234:174,1,85.4999977169037
344,40,41792,1,8,0:0:0:0:
309,221,41968,1,0,0:0:0:0:
192,87,42144,1,0,0:0:0:0:
319,114,42321,1,0,0:0:0:0:
209,192,42497,6,0,P|189:135|196:83,1,85.4999977169037
271,20,42850,1,0,0:0:0:0:
131,213,43027,1,0,0:0:0:0:
192,87,43203,1,8,0:0:0:0:
192,87,43380,1,0,0:0:0:0:
257,279,43556,2,0,L|249:402,1,85.4999977169037
95,311,43909,5,0,0:0:0:0:
237,138,44086,1,0,0:0:0:0:
175,304,44262,1,0,0:0:0:0:
77,142,44439,1,0,0:0:0:0:
275,207,44615,1,8,0:0:0:0:
95,311,44792,1,0,0:0:0:0:
83,105,44968,2,0,L|94:-8,1,85.4999977169037
165,242,45321,6,0,P|132:291|81:313,1,85.4999977169037
85,221,45674,1,0,0:0:0:0:
210,329,45850,1,0,0:0:0:0:
210,329,46027,2,0,L|391:340,1,170.999995433807,8|0,0:0|0:0,0:0:0:0:
468,277,46556,1,0,0:0:0:0:
341,134,46733,5,0,0:0:0:0:
379,254,46909,1,0,0:0:0:0:
469,128,47085,2,0,L|480:27,1,85.4999977169037
263,26,47439,2,0,L|265:136,1,85.4999977169037,8|0,0:0|0:0,0:0:0:0:
343,320,47792,1,0,0:0:0:0:
350,92,47968,1,0,0:0:0:0:
132,171,48144,6,0,P|135:224|160:275,1,85.4999977169037
256,198,48497,1,0,0:0:0:0:
120,89,48674,1,0,0:0:0:0:
108,338,48850,1,8,0:0:0:0:
122,355,49203,2,0,L|228:349,1,85.4999977169037
385,292,49556,5,0,0:0:0:0:
268,184,49733,1,0,0:0:0:0:
315,378,49909,1,0,0:0:0:0:
363,164,50086,1,0,0:0:0:0:
214,265,50262,1,8,0:0:0:0:
411,368,50439,1,0,0:0:0:0:
277,27,50615,2,0,B|257:72|257:72|255:133,1,107.999996704102,2|0,0:0|0:0,0:0:0:0:
435,362,50968,5,4,0:0:0:0:
411,34,51144,1,0,0:0:0:0:
135,225,51321,2,0,P|174:282|228:306,1,107.999996704102
468,234,51674,2,0,L|295:245,1,135,8|0,0:0|0:0,0:0:0:0:
310,234,52027,2,0,B|288:189|288:189|293:126,1,90
392,0,52380,5,0,0:0:0:0:
358,175,52556,1,0,0:0:0:0:
228,61,52733,1,0,0:0:0:0:
426,118,52909,1,0,0:0:0:0:
187,186,53086,2,0,L|75:176,1,90,8|0,0:0|0:0,0:0:0:0:
2,329,53439,2,0,L|108:318,1,90
288,334,53792,5,0,0:0:0:0:
187,175,53968,1,0,0:0:0:0:
183,347,54144,1,0,0:0:0:0:
302,207,54321,1,0,0:0:0:0:
88,229,54497,2,0,L|92:345,1,90,8|0,0:0|0:0,0:0:0:0:
316,189,54850,2,0,L|312:75,1,90
225,12,55203,5,0,0:0:0:0:
186,229,55380,1,0,0:0:0:0:
395,172,55556,1,0,0:0:0:0:
217,119,55733,1,0,0:0:0:0:
241,353,55909,1,8,0:0:0:0:
241,353,56086,2,0,L|257:249,1,90
148,39,56439,1,0,0:0:0:0:
148,39,56527,1,0,0:0:0:0:
148,39,56615,6,0,P|112:84|108:149,1,90
131,285,56968,1,0,0:0:0:0:
193,111,57144,1,0,0:0:0:0:
36,214,57321,1,8,0:0:0:0:
232,209,57497,1,0,0:0:0:0:
106,48,57674,1,0,0:0:0:0:
134,310,57850,1,0,0:0:0:0:
104,25,58027,5,0,0:0:0:0:
51,243,58203,1,0,0:0:0:0:
212,93,58380,1,0,0:0:0:0:
30,156,58556,1,0,0:0:0:0:
138,334,58733,1,8,0:0:0:0:
113,169,58909,1,0,0:0:0:0:
15,290,59086,2,0,P|53:321|97:329,1,90
345,280,59439,5,0,0:0:0:0:
179,115,59615,1,0,0:0:0:0:
195,331,59792,1,0,0:0:0:0:
297,154,59968,1,0,0:0:0:0:
134,7,60144,1,8,0:0:0:0:
157,229,60321,1,0,0:0:0:0:
313,133,60497,2,0,L|310:22,1,90
239,224,60850,5,0,0:0:0:0:
431,95,61027,1,0,0:0:0:0:
215,18,61203,1,0,0:0:0:0:
305,282,61380,1,0,0:0:0:0:
336,10,61556,1,8,0:0:0:0:
143,190,61733,1,0,0:0:0:0:
383,218,61909,1,0,0:0:0:0:
199,13,62086,1,0,0:0:0:0:
173,307,62262,6,0,B|185:257|185:257|213:238|213:238|226:175,1,135
219,154,62615,2,0,P|182:198|185:266,1,90
208,328,62880,1,0,0:0:0:0:
208,328,62968,2,0,L|321:335,1,90,8|0,0:0|0:0,0:0:0:0:
494,254,63321,1,0,0:0:0:0:
288,242,63497,1,0,0:0:0:0:
384,378,63674,5,0,0:0:0:0:
342,109,63850,1,0,0:0:0:0:
300,262,64027,1,0,0:0:0:0:
439,159,64203,1,0,0:0:0:0:
218,36,64380,1,8,0:0:0:0:
213,219,64556,1,0,0:0:0:0:
362,102,64733,1,0,0:0:0:0:
96,42,64909,1,0,0:0:0:0:
164,306,65086,5,2,0:0:0:0:
214,21,65262,1,0,0:0:0:0:
39,222,65439,1,0,0:0:0:0:
329,277,65615,1,0,0:0:0:0:
74,18,65792,1,10,0:0:0:0:
161,347,65968,1,0,0:0:0:0:
299,28,66144,1,0,0:0:0:0:
102,260,66321,1,0,0:0:0:0:
255,192,66497,5,2,0:0:0:0:
156,139,66674,1,0,0:0:0:0:
109,291,66850,5,2,0:0:0:0:
181,259,67027,1,0,0:0:0:0:
119,212,67203,5,2,0:0:0:0:
119,212,67380,1,2,0:0:0:0:
200,358,67909,6,0,L|387:366,1,180,4|0,0:0|0:0,0:0:0:0:
490,237,68439,1,0,0:0:0:0:
279,118,68615,2,0,B|261:172|261:172|274:231,1,90,8|0,0:0|0:0,0:0:0:0:
371,253,68968,1,0,0:0:0:0:
335,58,69144,1,0,0:0:0:0:
196,217,69321,6,0,P|144:234|50:189,1,135
40,177,69674,2,0,L|26:273,1,90
207,340,70027,2,0,L|201:214,1,90,8|0,0:0|0:0,0:0:0:0:
162,28,70380,1,0,0:0:0:0:
126,222,70556,1,0,0:0:0:0:
284,184,70733,6,0,P|203:179|143:218,1,135
126,222,71086,2,0,L|32:211,1,90
162,28,71439,2,0,L|167:138,1,90,8|0,0:0|0:0,0:0:0:0:
206,364,71792,1,0,0:0:0:0:
406,233,71968,1,0,0:0:0:0:
432,202,72056,1,0,0:0:0:0:
444,163,72144,6,0,P|439:117|408:62,1,90
178,265,72497,2,0,P|178:322|199:366,1,76.5000014591217
338,201,72850,2,0,L|326:122,1,67.5000025749208,8|0,0:0|0:0,0:0:0:0:
219,16,73203,2,0,L|208:98,1,67.5000025749208
257,285,73556,6,0,L|253:188,1,76.5000014591217
140,29,73909,2,0,L|127:133,1,85.4999977169037
42,358,74262,2,0,L|40:163,1,188.999994232178,8|0,0:0|0:0,0:0:0:0:
168,17,74792,1,0,0:0:0:0:
119,251,74969,5,0,0:0:0:0:
81,44,75145,1,0,0:0:0:0:
300,157,75322,1,0,0:0:0:0:
300,157,75498,1,0,0:0:0:0:
99,235,75674,6,0,P|54:214|29:146,1,94.499997116089,10|0,0:0|0:0,0:0:0:0:
196,123,75939,2,0,P|179:201|150:225,1,94.499997116089,2|0,0:0|0:0,0:0:0:0:
65,109,76203,1,2,0:0:0:0:
276,40,76380,6,0,L|281:209,1,141.749995674133,2|0,0:0|0:0,0:0:0:0:
294,199,76733,2,0,B|334:170|334:170|357:103,1,94.499997116089,2|0,0:0|0:0,0:0:0:0:
174,20,77086,2,0,L|173:136,1,94.499997116089,10|0,0:0|0:0,0:0:0:0:
176,355,77439,1,0,0:0:0:0:
235,265,77615,6,0,P|162:257|79:346,1,188.999994232178
25,220,78144,2,0,P|63:188|81:122,1,94.499997116089
30,2,78497,6,0,L|35:101,1,76.5000014591217,8|0,0:0|0:0,0:0:0:0:
159,195,78850,2,0,L|174:100,1,76.5000014591217
293,12,79203,6,0,L|295:89,1,67.5000025749208,2|0,0:0|0:0,0:0:0:0:
374,173,79556,2,0,L|388:91,1,67.5000025749208,2|0,0:0|0:0,0:0:0:0:
465,6,79909,6,0,L|470:133,1,116.999994644165,10|0,0:0|0:0,0:0:0:0:
358,329,80439,1,0,0:0:0:0:
345,97,80615,5,2,0:0:0:0:
359,351,80792,1,2,0:0:0:0:
345,73,80968,1,2,0:0:0:0:
361,372,81144,1,2,0:0:0:0:
259,191,81321,2,0,B|308:173|308:173|454:205,1,170.999995433807,10|0,0:0|0:0,0:0:0:0:
312,248,81850,1,0,0:0:0:0:
278,268,81939,1,0,0:0:0:0:
239,267,82027,6,0,P|175:238|157:198,1,85.4999977169037
103,54,82380,2,0,P|98:128|76:160,1,85.4999977169037
1,233,82733,2,0,B|67:239|67:239|99:222|99:222|196:229,1,170.999995433807,8|0,0:0|0:0,0:0:0:0:
297,191,83262,1,0,0:0:0:0:
297,191,83350,1,0,0:0:0:0:
297,191,83439,6,0,L|311:101,1,85.4999977169037,2|2,0:0|0:0,0:0:0:0:
192,16,83792,2,0,L|195:135,1,85.4999977169037,2|2,0:0|0:0,0:0:0:0:
254,318,84144,2,0,B|319:300|319:300|368:315|368:315|451:286,1,170.999995433807,10|0,0:0|0:0,0:0:0:0:
371,228,84674,1,0,0:0:0:0:
146,351,84850,6,0,L|151:174,1,170.999995433807
260,73,85380,1,0,0:0:0:0:
327,180,85556,2,0,P|276:183|220:148,1,85.4999977169037,8|0,0:0|0:0,0:0:0:0:
370,17,85909,2,0,P|383:66|378:127,1,85.4999977169037
327,285,86262,6,0,B|376:297|376:297|412:280|412:280|462:293,2,128.249996575356,2|2|2,0:0|0:0|0:0,0:0:0:0:
164,227,86968,2,0,P|155:186|179:110,1,85.4999977169037,8|0,0:0|0:0,0:0:0:0:
316,34,87321,2,0,L|302:188,1,128.249996575356
314,193,87674,6,0,P|345:141|341:92,1,85.4999977169037,2|0,0:0|0:0,0:0:0:0:
308,26,87939,1,2,0:0:0:0:
308,26,88027,2,0,L|203:32,1,85.4999977169037,0|2,0:0|0:0,0:0:0:0:
11,146,88380,2,0,L|205:154,1,170.999995433807,8|0,0:0|0:0,0:0:0:0:
382,117,88909,1,0,0:0:0:0:
145,17,89086,5,0,0:0:0:0:
182,245,89262,1,0,0:0:0:0:
213,35,89439,1,0,0:0:0:0:
44,263,89615,1,0,0:0:0:0:
44,263,89792,2,0,L|204:272,1,128.249996575356,8|0,0:0|0:0,0:0:0:0:
289,289,90144,1,2,0:0:0:0:
213,35,90321,1,2,0:0:0:0:
206,353,90497,5,4,0:0:0:0:
206,353,92262,1,0,0:0:0:0:
214,194,92615,6,0,L|208:286,1,67.5000025749208,8|0,0:0|0:0,0:0:0:0:
206,353,92968,1,0,0:0:0:0:
206,353,93144,1,0,0:0:0:0:
115,264,93321,6,0,P|105:214|119:164,1,90
280,142,93674,2,0,P|290:186|278:248,1,90
197,120,94027,2,0,L|397:108,1,180,8|0,0:0|0:0,0:0:0:0:
360,0,94556,1,0,0:0:0:0:
194,13,94733,6,0,P|176:62|187:122,1,90
300,262,95086,1,0,0:0:0:0:
255,62,95262,1,0,0:0:0:0:
158,211,95439,2,0,L|272:199,1,90,8|0,0:0|0:0,0:0:0:0:
425,180,95792,1,0,0:0:0:0:
254,40,95969,1,0,0:0:0:0:
141,237,96144,5,0,0:0:0:0:
141,237,96674,1,0,0:0:0:0:
190,79,96850,2,0,L|192:192,1,90,8|0,0:0|0:0,0:0:0:0:
200,342,97203,1,0,0:0:0:0:
60,204,97380,1,0,0:0:0:0:
47,165,97468,1,0,0:0:0:0:
49,124,97556,6,0,P|77:62|120:35,1,90
277,144,97909,1,0,0:0:0:0:
121,265,98085,1,0,0:0:0:0:
190,79,98262,2,0,L|192:192,1,90,8|0,0:0|0:0,0:0:0:0:
267,353,98615,2,0,L|276:238,1,90
294,46,98968,5,0,0:0:0:0:
220,214,99144,1,0,0:0:0:0:
403,150,99321,1,0,0:0:0:0:
195,65,99497,1,0,0:0:0:0:
163,279,99674,2,0,L|150:391,1,90,8|0,0:0|0:0,0:0:0:0:
291,260,100027,2,0,P|282:151|272:137,1,90
195,65,100380,5,0,0:0:0:0:
220,214,100556,1,0,0:0:0:0:
266,21,100733,1,0,0:0:0:0:
144,133,100909,1,0,0:0:0:0:
330,173,101086,2,0,L|431:153,1,90,8|0,0:0|0:0,0:0:0:0:
266,21,101439,1,0,0:0:0:0:
266,21,101615,1,0,0:0:0:0:
220,250,101792,6,0,P|209:286|217:329,1,67.5000025749208
288,365,102144,2,0,P|297:319|290:288,1,67.5000025749208
293,299,103027,1,0,0:0:0:0:
217,251,103203,5,0,0:0:0:0:
251,362,103380,2,0,P|289:375|334:364,1,67.5000025749208
417,301,103733,1,0,0:0:0:0:
331,175,103909,1,8,0:0:0:0:
293,299,104086,1,0,0:0:0:0:
407,196,104262,2,0,P|404:143|366:100,1,90
218,39,104615,6,0,B|182:62|137:44|137:44|173:102|233:102|285:67,1,236.250009012223
292,61,105321,6,0,L|280:178,1,90,8|0,0:0|0:0,0:0:0:0:
183,348,105674,2,0,L|179:235,1,90
163,86,106027,5,0,0:0:0:0:
253,246,106203,1,0,0:0:0:0:
103,160,106380,1,0,0:0:0:0:
284,69,106556,1,0,0:0:0:0:
130,243,106733,1,8,0:0:0:0:
218,39,106909,1,0,0:0:0:0:
259,274,107086,2,0,L|245:369,1,90
50,255,107439,6,0,P|74:184|122:162,1,90
188,342,107792,2,0,P|139:352|80:316,1,90
194,151,108144,1,8,0:0:0:0:
259,274,108321,2,0,L|396:280,1,135
420,283,108674,1,0,0:0:0:0:
491,184,108850,6,0,L|487:80,1,90
332,7,109203,2,0,B|312:64|312:64|316:109,1,90
346,271,109556,1,8,0:0:0:0:
390,77,109733,1,0,0:0:0:0:
248,186,109909,1,0,0:0:0:0:
418,149,110086,1,0,0:0:0:0:
251,96,110262,6,0,L|247:205,1,90
241,357,110615,1,0,0:0:0:0:
241,357,110792,1,0,0:0:0:0:
419,325,110968,2,0,P|369:314|317:330,1,90,8|0,0:0|0:0,0:0:0:0:
241,357,111321,1,0,0:0:0:0:
241,357,111497,1,0,0:0:0:0:
125,231,111674,5,0,0:0:0:0:
281,85,111850,1,0,0:0:0:0:
205,268,112027,1,0,0:0:0:0:
203,48,112203,1,0,0:0:0:0:
281,238,112380,2,0,P|307:176|295:121,1,90,8|0,0:0|0:0,0:0:0:0:
105,85,112733,2,0,P|83:143|92:194,1,90
174,341,113086,5,0,0:0:0:0:
154,140,113262,1,0,0:0:0:0:
79,288,113439,1,0,0:0:0:0:
280,186,113615,1,0,0:0:0:0:
105,85,113792,1,8,0:0:0:0:
158,286,113968,1,0,0:0:0:0:
283,90,114144,2,0,L|278:-17,1,90
268,109,114497,5,0,0:0:0:0:
362,278,114674,1,0,0:0:0:0:
370,55,114850,1,0,0:0:0:0:
270,233,115027,1,0,0:0:0:0:
477,183,115203,2,0,P|431:166|361:172,1,90,8|0,0:0|0:0,0:0:0:0:
270,233,115556,1,0,0:0:0:0:
477,183,115732,1,0,0:0:0:0:
322,25,115909,5,0,0:0:0:0:
362,278,116085,1,0,0:0:0:0:
395,67,116262,1,0,0:0:0:0:
185,171,116439,1,0,0:0:0:0:
406,224,116615,2,0,L|505:206,1,90,8|0,0:0|0:0,0:0:0:0:
322,25,116968,2,0,L|315:147,1,90
320,335,117321,5,0,0:0:0:0:
316,114,117497,1,0,0:0:0:0:
201,216,117674,1,0,0:0:0:0:
406,224,117850,1,0,0:0:0:0:
322,25,118027,2,0,P|245:51|232:88,1,90,8|0,0:0|0:0,0:0:0:0:
385,175,118380,2,0,P|405:122|396:77,1,90
232,143,118644,1,0,0:0:0:0:
232,143,118733,6,0,P|272:189|328:197,1,90
470,173,119086,1,0,0:0:0:0:
316,114,119263,1,0,0:0:0:0:
278,280,119439,2,0,L|284:385,1,90,8|0,0:0|0:0,0:0:0:0:
385,175,119792,2,0,P|405:122|396:77,1,90
272,1,120144,5,0,0:0:0:0:
319,240,120321,1,0,0:0:0:0:
398,53,120497,1,0,0:0:0:0:
139,160,120674,1,0,0:0:0:0:
255,349,120850,1,8,0:0:0:0:
323,116,121027,1,0,0:0:0:0:
128,17,121203,1,0,0:0:0:0:
181,270,121380,1,0,0:0:0:0:
292,34,121556,6,0,P|249:66|234:129,1,90
255,349,121909,2,0,P|279:299|276:266,1,72
129,68,122262,2,0,L|138:215,1,135.000005149842
195,293,122792,1,0,0:0:0:0:
272,182,122968,6,0,L|206:195,1,49.5000015106202
67,262,123321,2,0,L|126:268,1,49.5000015106202
195,293,123674,1,8,0:0:0:0:
121,350,123850,1,0,0:0:0:0:
192,187,124027,6,0,L|193:270,1,67.5
195,293,124380,6,0,B|255:276|255:276|298:297|298:297|384:268,1,180,4|0,0:0|0:0,0:0:0:0:
486,210,124909,1,0,0:0:0:0:
360,91,125086,2,0,L|363:204,1,90,8|0,0:0|0:0,0:0:0:0:
375,363,125439,1,0,0:0:0:0:
484,169,125615,1,0,0:0:0:0:
255,140,125792,6,0,P|203:181|187:273,1,135
185,277,126144,2,0,P|220:235|222:179,1,90
127,67,126497,2,0,L|128:164,1,90,8|0,0:0|0:0,0:0:0:0:
139,354,126850,1,0,0:0:0:0:
139,354,127203,6,0,B|198:349|198:349|221:319|221:319|290:311,1,135
290,314,127556,2,0,P|312:269|305:224,1,90
149,179,127909,2,0,P|124:215|136:290,1,90,8|0,0:0|0:0,0:0:0:0:
219,250,128262,1,0,0:0:0:0:
138,100,128439,1,0,0:0:0:0:
100,115,128527,1,0,0:0:0:0:
74,145,128615,6,0,P|46:218|53:258,1,90
217,124,128968,2,0,P|214:64|180:22,1,90
148,212,129321,6,0,P|145:251|158:306,1,72,8|0,0:0|0:0,0:0:0:0:
250,357,129674,2,0,P|267:322|268:282,1,72
346,174,130027,6,0,L|343:256,1,62.9999980773926
393,364,130380,2,0,L|406:271,1,80.9999975280763
463,45,130733,2,0,L|471:278,1,198.000006042481,8|0,0:0|0:0,0:0:0:0:
393,364,131262,1,0,0:0:0:0:
266,222,131439,5,0,0:0:0:0:
323,55,131615,1,0,0:0:0:0:
338,255,131792,2,0,B|340:300|340:300|316:357,1,99.0000030212403
111,238,132144,2,0,L|256:224,1,121.499996292114,10|2,0:0|0:0,0:0:0:0:
266,222,132497,1,0,0:0:0:0:
152,90,132674,1,2,0:0:0:0:
62,296,132850,6,0,P|114:321|150:310,1,80.9999975280763,2|0,0:0|0:0,0:0:0:0:
102,158,133115,2,0,P|57:178|32:237,1,80.9999975280763,2|0,0:0|0:0,0:0:0:0:
189,255,133380,1,2,0:0:0:0:
316,146,133556,6,0,B|336:95|336:95|334:25,1,99.0000030212403,8|0,0:0|0:0,0:0:0:0:
111,238,133909,2,0,B|101:293|101:293|126:369,1,99.0000030212403
242,373,134262,5,0,0:0:0:0:
197,148,134439,1,0,0:0:0:0:
90,261,134615,2,2,P|144:277|192:253,1,90,0|2,0:0|0:0,0:0:0:0:
358,155,134968,6,0,P|408:146|459:173,1,80.9999975280763,10|0,0:0|0:0,0:0:0:0:
345,300,135321,2,0,P|309:252|310:206,1,80.9999975280763,2|0,0:0|0:0,0:0:0:0:
293,29,135674,6,0,L|283:124,1,67.5000025749208,2|0,0:0|0:0,0:0:0:0:
204,164,136027,2,0,L|214:77,1,67.5000025749208,2|0,0:0|0:0,0:0:0:0:
151,6,136380,2,0,L|133:157,1,135.000005149842,10|0,0:0|0:0,0:0:0:0:
123,295,136909,1,0,0:0:0:0:
125,325,136997,1,0,0:0:0:0:
137,350,137086,6,0,P|162:304|153:254,1,90
65,151,137439,1,0,0:0:0:0:
96,300,137615,1,0,0:0:0:0:
247,190,137792,2,0,L|47:174,1,180,8|0,0:0|0:0,0:0:0:0:
14,253,138321,1,0,0:0:0:0:
163,368,138497,6,0,P|185:299|170:251,1,90
9,125,138850,2,0,P|-3:173|8:239,1,90
109,310,139203,2,0,L|129:104,1,180,8|0,0:0|0:0,0:0:0:0:
241,16,139733,1,0,0:0:0:0:
272,41,139821,1,0,0:0:0:0:
286,78,139909,6,0,P|280:133|237:189,1,90
53,256,140262,1,0,0:0:0:0:
185,93,140439,1,0,0:0:0:0:
170,302,140615,2,0,L|189:104,1,180,8|8,0:0|0:0,0:0:0:0:
261,40,141144,1,0,0:0:0:0:
419,220,141321,6,0,B|332:253|332:253|232:213,1,180
332,133,141850,1,0,0:0:0:0:
332,342,142027,2,0,L|334:218,1,90,8|0,0:0|0:0,0:0:0:0:
383,65,142380,2,0,P|410:118|402:183,1,90
251,322,142733,6,0,L|95:335,2,135
434,254,143439,2,0,P|443:193|416:135,1,90,8|0,0:0|0:0,0:0:0:0:
289,38,143792,1,0,0:0:0:0:
362,209,143968,1,0,0:0:0:0:
462,56,144144,6,0,L|293:39,1,135
289,38,144497,1,0,0:0:0:0:
168,218,144674,1,0,0:0:0:0:
362,209,144850,2,0,P|311:183|242:188,1,90,8|0,0:0|0:0,0:0:0:0:
138,228,145203,1,0,0:0:0:0:
138,228,145380,1,0,0:0:0:0:
294,264,145556,5,0,0:0:0:0:
204,82,145733,1,0,0:0:0:0:
206,332,145909,1,0,0:0:0:0:
288,18,146086,1,0,0:0:0:0:
314,363,146262,6,8,P|373:368|414:340,1,107.999996704102,8|0,0:0|0:0,0:0:0:0:
162,8,146615,2,0,P|124:49|116:104,1,107.999996704102
206,332,146968,6,0,P|222:271|212:224,1,90
55,226,147321,2,0,P|106:263|148:264,1,90
384,149,147674,2,0,L|192:162,1,180,8|0,0:0|0:0,0:0:0:0:
123,86,148203,1,0,0:0:0:0:
226,309,148380,6,0,P|241:251|231:206,1,101.250003862381
79,215,148733,6,0,P|127:250|167:250,1,101.250003862381
393,165,149086,6,0,L|202:177,1,173.250005287171
149,181,149792,5,0,0:0:0:0:
149,181,150497,1,8,0:0:0:0:
186,34,150674,1,0,0:0:0:0:
225,228,150850,2,0,L|213:331,1,90
119,289,151203,5,0,0:0:0:0:
319,119,151380,1,0,0:0:0:0:
292,327,151556,1,0,0:0:0:0:
154,69,151733,1,0,0:0:0:0:
313,242,151909,1,8,0:0:0:0:
229,17,152086,1,0,0:0:0:0:
119,289,152262,2,0,L|130:401,1,90
313,242,152615,5,0,0:0:0:0:
145,64,152792,1,0,0:0:0:0:
214,298,152968,1,0,0:0:0:0:
222,17,153144,1,0,0:0:0:0:
94,219,153321,2,0,P|41:220|-2:192,1,90,8|0,0:0|0:0,0:0:0:0:
66,133,153674,1,0,0:0:0:0:
214,298,153850,1,0,0:0:0:0:
214,298,153939,1,0,0:0:0:0:
214,298,154027,5,0,0:0:0:0:
186,95,154203,1,0,0:0:0:0:
221,327,154380,1,0,0:0:0:0:
181,67,154556,1,0,0:0:0:0:
115,239,154733,2,0,B|150:253|150:253|222:240,1,90,8|0,0:0|0:0,0:0:0:0:
388,149,155086,1,0,0:0:0:0:
177,42,155262,1,0,0:0:0:0:
260,333,155439,6,0,L|272:210,1,90
294,36,155792,1,0,0:0:0:0:
294,36,155968,1,0,0:0:0:0:
192,159,156144,2,0,L|336:151,1,135,8|0,0:0|0:0,0:0:0:0:
359,151,156497,1,0,0:0:0:0:
202,24,156674,1,0,0:0:0:0:
186,248,156850,6,0,L|193:143,1,90
95,13,157203,2,0,L|99:143,1,90
111,349,157556,1,8,0:0:0:0:
192,73,157733,1,0,0:0:0:0:
40,226,157909,1,0,0:0:0:0:
40,226,158086,1,0,0:0:0:0:
288,300,158262,5,0,0:0:0:0:
134,120,158439,1,0,0:0:0:0:
194,342,158615,2,0,L|204:233,1,90
33,46,158968,2,0,L|41:257,1,180,8|0,0:0|0:0,0:0:0:0:
47,346,159497,1,0,0:0:0:0:
200,210,159674,6,0,B|215:163|215:163|206:113,1,90
166,4,160027,1,0,0:0:0:0:
134,162,160203,1,0,0:0:0:0:
294,75,160380,2,0,P|241:73|185:109,1,90,8|0,0:0|0:0,0:0:0:0:
86,251,160733,1,0,0:0:0:0:
261,157,160909,1,0,0:0:0:0:
60,49,161086,5,0,0:0:0:0:
152,302,161262,1,0,0:0:0:0:
135,10,161439,2,0,L|131:117,1,90
37,350,161792,2,0,L|32:132,1,180,8|0,0:0|0:0,0:0:0:0:
92,23,162321,1,0,0:0:0:0:
25,364,162497,6,0,L|20:146,1,180,8|0,0:0|0:0,0:0:0:0:
99,9,163027,1,0,0:0:0:0:
257,286,163203,1,8,0:0:0:0:
33,128,163380,1,0,0:0:0:0:
245,14,163556,2,0,L|237:129,1,90
213,362,163909,5,2,0:0:0:0:
92,137,164086,1,0,0:0:0:0:
366,116,164262,1,0,0:0:0:0:
218,267,164439,1,0,0:0:0:0:
245,14,164615,2,0,P|302:16|352:42,1,90,8|0,0:0|0:0,0:0:0:0:
123,205,164968,2,0,P|66:216|8:186,1,90
141,11,165321,5,0,0:0:0:0:
310,208,165497,1,0,0:0:0:0:
74,144,165674,1,0,0:0:0:0:
245,14,165850,1,0,0:0:0:0:
240,280,166027,2,0,L|236:400,1,90,8|0,0:0|0:0,0:0:0:0:
61,130,166380,2,0,L|65:24,1,90
230,29,166733,5,0,0:0:0:0:
103,232,166909,1,0,0:0:0:0:
147,10,167086,2,0,L|150:114,1,90
162,349,167439,1,8,0:0:0:0:
57,151,167615,1,0,0:0:0:0:
235,211,167792,2,0,P|171:225|120:200,1,90
241,80,168144,5,0,0:0:0:0:
380,311,168321,1,0,0:0:0:0:
110,294,168497,1,0,0:0:0:0:
337,154,168674,1,0,0:0:0:0:
164,369,168851,1,8,0:0:0:0:
237,37,169027,1,0,0:0:0:0:
297,382,169203,1,10,0:0:0:0:
48,129,169380,1,0,0:0:0:0:
386,14,169556,5,4,0:0:0:0:
404,128,170262,2,0,L|412:20,1,90,8|0,0:0|0:0,0:0:0:0:
240,96,170615,2,0,L|248:216,1,90
336,328,170968,5,0,0:0:0:0:
312,84,171144,1,0,0:0:0:0:
208,296,171321,1,0,0:0:0:0:
472,156,171497,1,0,0:0:0:0:
132,52,171674,1,10,0:0:0:0:
264,376,171850,1,0,0:0:0:0:
196,8,172027,1,10,0:0:0:0:
36,304,172203,1,0,0:0:0:0:
476,172,172380,5,4,0:0:0:0:
488,176,173086,2,0,L|472:264,1,90
304,364,173439,2,0,L|304:248,1,90
340,124,173792,5,0,0:0:0:0:
388,308,173968,1,0,0:0:0:0:
208,200,174144,1,0,0:0:0:0:
428,144,174321,1,0,0:0:0:0:
208,364,174497,1,8,0:0:0:0:
316,28,174674,1,0,0:0:0:0:
300,360,174850,2,0,L|292:252,1,90,10|0,0:0|0:0,0:0:0:0:
216,28,175203,5,4,0:0:0:0:
196,36,175909,1,8,0:0:0:0:
84,204,176086,1,0,0:0:0:0:
256,136,176262,1,0,0:0:0:0:
108,16,176439,1,0,0:0:0:0:
160,244,176615,6,0,P|212:256|304:200,1,135
304,200,176968,2,0,L|296:316,1,90
424,360,177321,2,0,L|420:260,1,90
400,52,177674,1,0,0:0:0:0:
368,200,177850,1,0,0:0:0:0:
484,148,178027,5,0,0:0:0:0:
436,84,178203,1,0,0:0:0:0:
356,72,178380,1,0,0:0:0:0:
292,120,178556,1,0,0:0:0:0:
300,340,178733,1,0,0:0:0:0:
360,288,178909,1,0,0:0:0:0:
368,208,179086,1,0,0:0:0:0:
320,144,179262,1,0,0:0:0:0:
100,104,179439,6,0,L|84:132,7,22.5
80,156,179792,2,0,L|72:196,7,22.5
72,208,180144,2,0,L|76:248,7,22.5
76,256,180497,2,0,L|84:280,7,22.5
96,296,180850,6,0,B|161:297|161:297|204:336|204:336|301:338,1,215.999993408203,4|0,0:0|0:0,0:0:0:0:
474,243,181380,1,0,0:0:0:0:
305,57,181556,2,0,P|267:113|275:200,1,135,8|0,0:0|0:0,0:0:0:0:
298,210,181909,2,0,P|306:155|278:106,1,90
136,30,182262,6,0,L|141:199,1,135
145,195,182615,2,0,L|130:298,1,90
253,364,182968,1,8,0:0:0:0:
311,274,183144,2,0,P|235:267|198:292,1,90
47,358,183497,1,0,0:0:0:0:
24,323,183586,1,0,0:0:0:0:
23,282,183674,6,0,P|46:228|81:200,1,90
292,189,184027,1,0,0:0:0:0:
165,340,184203,1,0,0:0:0:0:
167,97,184380,2,0,L|168:197,1,90,8|0,0:0|0:0,0:0:0:0:
147,357,184733,2,0,L|145:240,1,90
171,189,184997,1,0,0:0:0:0:
171,189,185086,6,0,P|223:170|276:177,1,90
435,147,185439,2,0,P|385:100|363:38,1,107.999996704102
106,22,185792,2,0,L|83:168,1,116.999994644165,8|0,0:0|0:0,0:0:0:0:
234,355,186144,2,0,L|227:243,1,99.0000030212403
170,97,186409,1,0,0:0:0:0:
170,97,186497,6,0,L|146:228,1,90
79,317,186850,2,0,P|37:322|0:302,1,72
227,256,187203,2,0,L|376:275,1,135.000005149842,8|0,0:0|0:0,0:0:0:0:
435,328,187733,1,0,0:0:0:0:
340,168,187909,5,0,0:0:0:0:
295,353,188086,1,0,0:0:0:0:
463,249,188262,1,0,0:0:0:0:
292,101,188439,1,0,0:0:0:0:
391,239,188615,6,0,P|427:184|427:142,1,90,10|0,0:0|0:0,0:0:0:0:
256,184,188879,2,0,P|294:238|354:262,1,90,2|0,0:0|0:0,0:0:0:0:
373,97,189144,1,2,0:0:0:0:
163,23,189321,6,0,L|168:178,1,135,2|2,0:0|0:0,0:0:0:0:
162,189,189674,2,0,B|123:210|123:210|68:197,1,90,0|2,0:0|0:0,0:0:0:0:
4,288,190027,1,8,0:0:0:0:
234,219,190203,1,0,0:0:0:0:
79,74,190380,2,0,L|80:171,1,90
117,328,190733,5,0,0:0:0:0:
290,160,190909,1,0,0:0:0:0:
172,41,191086,2,0,P|156:109|174:167,1,90
267,362,191439,2,0,L|287:165,1,180,8|0,0:0|0:0,0:0:0:0:
175,25,191968,1,0,0:0:0:0:
151,58,192056,1,0,0:0:0:0:
141,97,192144,6,0,P|143:160|174:208,1,90,2|0,0:0|0:0,0:0:0:0:
365,257,192497,2,0,P|305:247|245:260,1,90,2|0,0:0|0:0,0:0:0:0:
65,333,192850,2,0,L|249:322,1,180,10|0,0:0|0:0,0:0:0:0:
438,200,193380,1,0,0:0:0:0:
275,35,193556,5,2,0:0:0:0:
322,248,193733,1,2,0:0:0:0:
322,27,193909,1,2,0:0:0:0:
297,280,194086,1,2,0:0:0:0:
297,280,194174,1,0,0:0:0:0:
297,280,194262,2,0,L|173:270,1,90,10|0,0:0|0:0,0:0:0:0:
17,145,194615,2,0,L|134:143,1,90
339,132,194968,6,0,P|349:68|305:-8,1,135
298,3,195321,2,0,P|293:49|335:112,1,90
479,209,195674,2,0,L|259:195,1,180,8|0,0:0|0:0,0:0:0:0:
106,146,196203,1,0,0:0:0:0:
192,20,196380,6,0,L|179:122,1,90,2|2,0:0|0:0,0:0:0:0:
44,283,196733,2,0,L|56:185,1,90,2|2,0:0|0:0,0:0:0:0:
201,6,197086,2,0,L|206:208,1,180,10|8,0:0|0:0,0:0:0:0:
279,348,197615,1,0,0:0:0:0:
365,260,197792,6,0,B|299:266|299:266|265:306|265:306|204:311,1,180
20,218,198321,1,0,0:0:0:0:
112,69,198497,2,0,L|117:274,1,180,8|0,0:0|0:0,0:0:0:0:
49,349,199027,1,0,0:0:0:0:
209,342,199203,6,0,B|263:329|263:329|301:351|301:351|369:331,1,135
365,331,199556,2,0,P|377:279|357:229,1,90
130,74,199909,2,0,L|134:199,1,90,8|0,0:0|0:0,0:0:0:0:
143,355,200262,1,0,0:0:0:0:
220,124,200439,1,0,0:0:0:0:
59,155,200615,6,2,L|223:146,1,135,2|0,0:0|0:0,0:0:0:0:
220,124,200968,2,0,P|243:73|232:18,1,90,0|2,0:0|0:0,0:0:0:0:
17,218,201321,2,0,B|22:295|22:295|44:309|44:309|50:397,1,180,8|0,0:0|0:0,0:0:0:0:
150,242,201850,1,0,0:0:0:0:
88,70,202027,5,0,0:0:0:0:
22,246,202203,1,0,0:0:0:0:
266,148,202380,1,0,0:0:0:0:
14,14,202556,1,0,0:0:0:0:
95,335,202733,5,10,0:0:0:0:
496,186,203086,1,2,0:0:0:0:
6,84,203439,1,4,0:0:0:0:
