osu file format v14

[General]
AudioFilename: audio.mp3
AudioLeadIn: 0
PreviewTime: 127335
Countdown: 0
SampleSet: Soft
StackLeniency: 0.7
Mode: 0
LetterboxInBreaks: 0
WidescreenStoryboard: 0

[Editor]
Bookmarks: 1020,22072,38914,59967,78914,95756,110493,127335,139967,149967,166217
DistanceSpacing: 1.1
BeatDivisor: 3
GridSize: 16
TimelineZoom: 1

[Metadata]
Title:Waifu Baby (Christm/a/s 2015)
TitleUnicode:Waifu Baby (Christm/a/s 2015)
Artist:Jebus of /a/
ArtistUnicode:Jebus of /a/
Creator:Tarrasky
Version:Normal with Marianna
Source:
Tags:Marianna 4chan christmas
BeatmapID:1853234
BeatmapSetID:886470

[Difficulty]
HPDrainRate:5
CircleSize:3.2
OverallDifficulty:4
ApproachRate:5
SliderMultiplier:1.4
SliderTickRate:1

[Events]
//Background and Video events
0,0,"oh yeah baby.jpg",0,0
//Break Periods
2,55956,58065
2,123324,125434
//Storyboard Layer 0 (Background)
//Storyboard Layer 1 (Fail)
//Storyboard Layer 2 (Pass)
//Storyboard Layer 3 (Foreground)
//Storyboard Layer 4 (Overlay)
//Storyboard Sound Samples

[TimingPoints]
1020,526.315789473684,4,2,1,60,1,0

[Colours]
Combo1 : 255,128,192
Combo2 : 128,255,128
Combo3 : 128,128,255
Combo4 : 255,128,128

[HitObjects]
0,103,1020,6,0,P|98:154|194:97,1,233.333333333333
233,62,2072,2,0,P|205:124|233:186,1,140,2|8,0:0|0:0,0:0:0:0:
304,259,2949,1,0,0:0:0:0:
304,259,3125,6,0,P|240:234|178:262,1,140,2|8,0:0|0:0,0:0:0:0:
112,341,4002,2,0,L|107:294,1,46.6666666666667,0|2,0:0|0:0,0:0:0:0:
131,194,4528,2,0,L|126:147,1,46.6666666666667,0|8,0:0|0:0,0:0:0:0:
113,45,5055,1,0,0:0:0:0:
113,45,5230,6,0,P|178:66|242:43,1,140,2|8,0:0|0:0,0:0:0:0:
299,127,6107,1,0,0:0:0:0:
299,127,6282,2,0,P|364:105|428:128,2,140,2|8|2,0:0|0:0|0:0,0:0:0:0:
229,203,7686,5,0,0:0:0:0:
229,203,7862,2,0,L|136:193,1,93.3333333333333,8|0,0:0|0:0,0:0:0:0:
100,155,8388,2,0,L|8:145,1,93.3333333333333,2|0,0:0|0:0,0:0:0:0:
32,297,9265,1,0,0:0:0:0:
31,297,9441,6,0,P|95:270|158:297,1,140,4|8,0:0|0:0,0:0:0:0:
257,278,10318,1,0,0:0:0:0:
257,278,10494,2,0,P|320:304|383:277,1,140,0|8,0:0|0:0,0:0:0:0:
388,123,11546,6,0,P|343:110|299:122,1,93.3333333333333
252,143,12072,2,0,P|207:155|163:142,1,93.3333333333333,8|0,0:0|0:0,0:0:0:0:
129,103,12598,2,0,B|183:217|57:208|111:321,1,233.333333333333
139,363,13651,6,0,P|202:337|265:363,1,140,2|8,0:0|0:0,0:0:0:0:
367,368,14528,2,0,P|329:287|380:213,1,186.666666666667,0|8,0:0|0:0,0:0:0:0:
479,96,15756,6,0,P|435:112|391:99,1,93.3333333333333
355,62,16283,2,0,P|310:49|267:64,1,93.3333333333333,8|0,0:0|0:0,0:0:0:0:
223,91,16809,2,0,P|160:116|96:92,1,140,0|8,0:0|0:0,0:0:0:0:
17,224,17862,6,0,P|80:199|144:223,1,140,2|8,0:0|0:0,0:0:0:0:
208,304,18739,1,0,0:0:0:0:
208,304,18914,2,0,P|271:328|335:303,1,140,0|8,0:0|0:0,0:0:0:0:
409,230,19791,6,0,P|413:207|408:184,1,46.6666666666667,0|6,0:0|0:0,0:0:0:0:
258,18,21020,1,6,0:0:0:0:
104,184,22072,5,6,0:0:0:0:
158,271,22423,2,0,L|204:263,1,46.6666666666667,0|8,0:0|0:0,0:0:0:0:
270,341,22949,1,0,0:0:0:0:
270,341,23125,2,0,P|334:315|397:341,1,140,0|8,0:0|0:0,0:0:0:0:
480,211,24177,6,0,L|469:72,2,140,0|8|0,0:0|0:0|0:0,0:0:0:0:
421,295,25581,2,0,P|357:321|294:295,1,140,4|0,0:0|0:0,0:0:0:0:
257,259,26283,6,0,P|193:233|130:259,1,140,4|8,0:0|0:0,0:0:0:0:
43,313,27160,1,0,0:0:0:0:
43,313,27335,2,0,L|40:173,1,140,0|8,0:0|0:0,0:0:0:0:
149,64,28388,6,0,B|192:78|192:78|239:64,1,93.3333333333333
286,45,28914,2,0,B|333:31|333:31|376:45,1,93.3333333333333,8|0,0:0|0:0,0:0:0:0:
424,61,29441,2,0,L|411:200,1,140,0|8,0:0|0:0,0:0:0:0:
460,290,30318,6,0,P|379:248|296:284,1,186.666666666667,0|8,0:0|0:0,0:0:0:0:
210,338,31370,2,0,P|251:257|215:174,1,186.666666666667,0|8,0:0|0:0,0:0:0:0:
146,97,32423,1,0,0:0:0:0:
146,97,32598,6,0,B|205:87|205:87|229:94|229:94|284:85,1,140,0|8,0:0|0:0,0:0:0:0:
419,12,33651,2,0,P|406:55|422:99,1,93.3333333333333
446,144,34177,2,0,P|459:187|443:231,1,93.3333333333333,8|0,0:0|0:0,0:0:0:0:
412,273,34704,6,0,L|272:269,1,140,2|8,0:0|0:0,0:0:0:0:
191,332,35581,1,0,0:0:0:0:
191,332,35756,2,0,B|219:269|219:269|194:203,1,140,0|8,0:0|0:0,0:0:0:0:
109,143,36634,6,0,L|63:152,1,46.6666666666667,0|6,0:0|0:0,0:0:0:0:
254,27,37862,1,6,0:0:0:0:
449,151,38914,5,4,0:0:0:0:
394,237,39265,2,0,L|398:283,1,46.6666666666667,0|8,0:0|0:0,0:0:0:0:
309,334,39791,1,0,0:0:0:0:
309,334,39967,2,0,P|245:308|183:337,1,140,0|8,0:0|0:0,0:0:0:0:
91,212,41020,6,0,P|154:237|216:208,1,140,0|8,0:0|0:0,0:0:0:0:
288,135,41897,2,0,P|349:106|413:131,1,140,0|2,0:0|0:0,0:0:0:0:
418,336,43125,6,0,L|278:328,1,140,6|8,0:0|0:0,0:0:0:0:
226,239,44002,1,0,0:0:0:0:
226,239,44177,2,0,L|365:246,1,140,0|8,0:0|0:0,0:0:0:0:
479,142,45230,6,0,P|493:98|478:55,1,93.3333333333333
431,33,45756,2,0,P|386:42|356:77,1,93.3333333333333,8|0,0:0|0:0,0:0:0:0:
349,128,46283,2,0,L|209:119,1,140,0|8,0:0|0:0,0:0:0:0:
67,179,47335,6,0,P|77:223|63:267,1,93.3333333333333,2|0,0:0|0:0,0:0:0:0:
36,312,47862,2,0,P|80:301|124:315,1,93.3333333333333,8|0,0:0|0:0,0:0:0:0:
165,346,48388,2,0,B|244:355|214:306|298:321,1,140,0|8,0:0|0:0,0:0:0:0:
396,351,49265,6,0,P|374:287|405:227,1,140
450,200,49967,2,0,P|465:156|451:112,1,93.3333333333333,2|0,0:0|0:0,0:0:0:0:
409,82,50493,2,0,L|269:76,1,140,0|8,0:0|0:0,0:0:0:0:
119,38,51546,5,0,0:0:0:0:
174,124,51897,2,0,P|193:189|163:250,1,140
125,286,52598,2,0,L|218:275,1,93.3333333333333
269,268,53125,1,8,0:0:0:0:
404,340,53651,6,0,P|391:296|406:253,1,93.3333333333333
448,222,54177,2,0,P|461:177|446:134,1,93.3333333333333,8|0,0:0|0:0,0:0:0:0:
415,92,54704,2,0,L|275:83,1,140,0|8,0:0|0:0,0:0:0:0:
172,75,55581,6,0,L|182:120,1,46.6666666666667,0|6,0:0|0:0,0:0:0:0:
182,120,59265,6,0,L|172:75,1,46.6666666666667,0|8,0:0|0:0,0:0:0:0:
69,69,59791,1,0,0:0:0:0:
69,69,59967,6,0,L|101:205,1,140,4|8,0:0|0:0,0:0:0:0:
47,292,60844,1,0,0:0:0:0:
47,292,61020,2,0,P|109:263|171:292,1,140,0|8,0:0|0:0,0:0:0:0:
310,353,62072,6,0,P|295:310|306:266,1,93.3333333333333
348,235,62598,2,0,P|363:192|352:148,1,93.3333333333333,8|0,0:0|0:0,0:0:0:0:
324,102,63125,2,0,L|184:91,1,140,0|8,0:0|0:0,0:0:0:0:
99,33,64002,1,0,0:0:0:0:
98,32,64177,6,0,P|128:94|102:157,1,140,2|8,0:0|0:0,0:0:0:0:
23,221,65055,2,0,P|104:183|184:225,1,186.666666666667,0|8,0:0|0:0,0:0:0:0:
241,310,66107,1,0,0:0:0:0:
241,310,66283,6,0,L|380:297,1,140,0|8,0:0|0:0,0:0:0:0:
425,204,67159,1,0,0:0:0:0:
425,204,67335,2,0,L|285:216,1,140,0|8,0:0|0:0,0:0:0:0:
218,137,68212,1,0,0:0:0:0:
218,136,68388,6,0,P|154:163|91:137,1,140,2|8,0:0|0:0,0:0:0:0:
30,55,69265,1,0,0:0:0:0:
30,55,69441,2,0,P|93:28|156:54,1,140,0|8,0:0|0:0,0:0:0:0:
254,27,70318,6,0,L|288:58,1,46.6666666666667,0|6,0:0|0:0,0:0:0:0:
464,192,71546,1,6,0:0:0:0:
288,326,72598,5,8,0:0:0:0:
204,337,72862,6,0,L|169:340,2,35,2|0|0,0:0|0:0|0:0,0:0:0:0:
162,263,73388,2,0,L|127:266,2,35,2|0|0,0:0|0:0|0:0,0:0:0:0:
132,184,73914,2,0,P|118:152|120:117,2,70,2|8|2,0:0|0:0|0:0,0:0:0:0:
202,138,74704,5,8,0:0:0:0:
285,127,74967,2,0,L|319:123,2,35,2|0|0,0:0|0:0|0:0,0:0:0:0:
314,205,75493,2,0,L|348:201,2,35,2|0|0,0:0|0:0|0:0,0:0:0:0:
321,288,76019,6,0,B|221:261|242:366|127:332,1,210,4|4,0:0|0:0,0:0:0:0:
127,332,78388,1,8,0:0:0:0:
68,247,78739,1,0,0:0:0:0:
68,247,78914,6,0,P|83:203|71:159,1,93.3333333333333,2|0,0:0|0:0,0:0:0:0:
48,112,79441,2,0,P|91:127|135:115,1,93.3333333333333,8|0,0:0|0:0,0:0:0:0:
180,88,79967,2,0,P|244:65|309:88,1,140,0|8,0:0|0:0,0:0:0:0:
384,157,80844,6,0,B|347:252|434:236|392:334,1,186.666666666667,0|8,0:0|0:0,0:0:0:0:
294,299,81897,2,0,P|232:269|169:296,1,140
126,321,82598,1,8,0:0:0:0:
44,258,82949,1,0,0:0:0:0:
44,258,83125,6,0,L|30:118,1,140,0|8,0:0|0:0,0:0:0:0:
122,74,84002,1,0,0:0:0:0:
122,74,84178,2,0,L|135:213,1,140,0|8,0:0|0:0,0:0:0:0:
209,283,85055,1,0,0:0:0:0:
209,283,85230,6,0,P|272:309|334:281,1,140,2|8,0:0|0:0,0:0:0:0:
334,178,86107,1,0,0:0:0:0:
334,178,86282,2,0,P|270:151|208:179,1,140,0|8,0:0|0:0,0:0:0:0:
133,247,87160,1,0,0:0:0:0:
133,247,87335,6,0,B|146:200|146:200|134:157,1,93.3333333333333,4|0,0:0|0:0,0:0:0:0:
109,111,87862,2,0,L|200:92,1,93.3333333333333
248,109,88388,2,0,L|385:82,1,140,4|0,0:0|0:0,0:0:0:0:
468,211,89441,5,0,0:0:0:0:
424,282,89704,2,0,L|428:316,2,35,2|0|0,0:0|0:0|0:0,0:0:0:0:
348,319,90230,2,0,L|352:353,2,35,2|0|0,0:0|0:0|0:0,0:0:0:0:
270,286,90756,2,0,P|236:275|203:284,2,70,2|8|2,0:0|0:0|0:0,0:0:0:0:
337,236,91546,5,8,0:0:0:0:
389,170,91809,2,0,L|389:135,2,35,2|0|0,0:0|0:0|0:0,0:0:0:0:
313,133,92335,2,0,L|313:98,2,35,2|0|0,0:0|0:0|0:0,0:0:0:0:
241,177,92862,6,0,P|149:212|81:140,1,210,4|4,0:0|0:0,0:0:0:0:
80,139,95230,1,8,0:0:0:0:
145,218,95581,1,0,0:0:0:0:
145,218,95756,6,0,P|156:262|145:307,1,93.3333333333333,2|0,0:0|0:0,0:0:0:0:
121,353,96283,2,0,P|165:341|210:352,1,93.3333333333333,8|0,0:0|0:0,0:0:0:0:
257,331,96809,2,0,P|320:356|383:330,1,140,0|8,0:0|0:0,0:0:0:0:
455,255,97686,1,0,0:0:0:0:
455,255,97862,6,0,B|471:218|471:218|453:119,1,140,0|8,0:0|0:0,0:0:0:0:
361,73,98739,1,0,0:0:0:0:
361,73,98915,2,0,B|345:110|345:110|362:208,1,140,0|8,0:0|0:0,0:0:0:0:
358,310,99791,1,0,0:0:0:0:
357,309,99967,6,0,P|293:286|229:310,1,140,0|8,0:0|0:0,0:0:0:0:
141,365,100844,1,0,0:0:0:0:
141,365,101020,2,0,P|164:301|140:237,1,140,0|8,0:0|0:0,0:0:0:0:
231,195,101897,1,0,0:0:0:0:
231,195,102072,6,0,L|370:198,1,140,2|8,0:0|0:0,0:0:0:0:
409,102,102949,1,0,0:0:0:0:
409,102,103124,2,0,L|269:100,1,140,0|8,0:0|0:0,0:0:0:0:
186,49,104002,1,0,0:0:0:0:
186,49,104177,6,0,P|140:39|95:50,1,93.3333333333333,4|0,0:0|0:0,0:0:0:0:
68,93,104704,2,0,P|82:136|114:170,1,93.3333333333333
156,200,105230,2,0,L|295:184,1,140,4|0,0:0|0:0,0:0:0:0:
448,167,106283,5,0,0:0:0:0:
396,256,106634,2,0,L|402:302,1,46.6666666666667,0|8,0:0|0:0,0:0:0:0:
314,356,107160,1,0,0:0:0:0:
314,356,107335,2,0,P|250:329|188:356,1,140,0|8,0:0|0:0,0:0:0:0:
109,222,108388,6,0,P|171:248|234:222,1,140,0|8,0:0|0:0,0:0:0:0:
304,145,109265,2,0,P|367:118|429:145,1,140,2|2,0:0|0:0,0:0:0:0:
479,344,110493,6,0,L|386:334,1,93.3333333333333,4|0,0:0|0:0,0:0:0:0:
340,357,111019,2,0,L|247:347,1,93.3333333333333,8|0,0:0|0:0,0:0:0:0:
197,362,111546,2,0,P|228:300|206:236,1,140,0|8,0:0|0:0,0:0:0:0:
79,150,112598,6,0,P|60:85|91:25,2,140,0|8|0,0:0|0:0|0:0,0:0:0:0:
180,164,114002,1,0,0:0:0:0:
180,164,114177,2,0,L|272:153,1,93.3333333333333,8|0,0:0|0:0,0:0:0:0:
309,116,114704,6,0,P|288:181|314:244,1,140,2|8,0:0|0:0,0:0:0:0:
394,308,115581,1,0,0:0:0:0:
394,308,115756,2,0,P|328:286|265:312,1,140,0|8,0:0|0:0,0:0:0:0:
166,341,116634,1,0,0:0:0:0:
166,341,116809,6,0,L|26:356,2,140,0|8|0,0:0|0:0|0:0,0:0:0:0:
219,253,118212,1,0,0:0:0:0:
219,253,118388,2,0,B|230:207|230:207|214:163,1,93.3333333333333,8|0,0:0|0:0,0:0:0:0:
179,125,118914,6,0,P|242:151|306:128,1,140,2|8,0:0|0:0,0:0:0:0:
430,36,119967,2,0,L|421:128,1,93.3333333333333
458,163,120493,2,0,L|449:255,1,93.3333333333333,8|0,0:0|0:0,0:0:0:0:
472,301,121019,6,0,P|409:272|347:299,1,140,0|8,0:0|0:0,0:0:0:0:
266,235,121897,2,0,P|203:261|141:233,1,140
113,189,122598,1,8,0:0:0:0:
171,104,122949,6,0,L|162:58,1,46.6666666666667,0|4,0:0|0:0,0:0:0:0:
162,58,126634,6,0,L|207:49,1,46.6666666666667,0|2,0:0|0:0,0:0:0:0:
307,73,127160,1,0,0:0:0:0:
307,72,127335,6,0,P|281:135|310:197,1,140,4|8,0:0|0:0,0:0:0:0:
377,273,128212,1,0,0:0:0:0:
377,273,128387,2,0,P|314:247|252:276,1,140,0|8,0:0|0:0,0:0:0:0:
117,350,129441,6,0,P|135:307|127:261,1,93.3333333333333
92,224,129967,2,0,P|74:181|82:135,1,93.3333333333333,8|0,0:0|0:0,0:0:0:0:
107,91,130493,2,0,L|245:73,1,140,0|8,0:0|0:0,0:0:0:0:
338,27,131370,1,0,0:0:0:0:
338,27,131546,6,0,B|331:82|331:82|337:104|337:104|325:164,1,140,2|8,0:0|0:0,0:0:0:0:
388,245,132423,2,0,P|326:218|263:243,1,140
231,285,133125,2,0,L|138:274,1,93.3333333333333,8|0,0:0|0:0,0:0:0:0:
87,282,133651,6,0,P|116:220|90:157,1,140,0|8,0:0|0:0,0:0:0:0:
23,79,134528,1,0,0:0:0:0:
23,79,134704,2,0,P|84:107|147:81,1,140,0|8,0:0|0:0,0:0:0:0:
250,86,135581,1,0,0:0:0:0:
250,86,135756,6,0,P|312:59|374:88,1,140,2|8,0:0|0:0,0:0:0:0:
456,149,136634,1,0,0:0:0:0:
456,149,136809,2,0,L|444:288,1,140,0|8,0:0|0:0,0:0:0:0:
354,338,137686,6,0,L|311:322,1,46.6666666666667,0|6,0:0|0:0,0:0:0:0:
128,192,138914,1,6,0:0:0:0:
310,63,139967,6,0,P|293:106|308:150,1,93.3333333333333,4|0,0:0|0:0,0:0:0:0:
343,185,140493,1,8,0:0:0:0:
247,305,141019,2,0,L|200:297,2,46.6666666666667
293,282,141546,2,0,L|339:274,2,46.6666666666667,8|0|0,0:0|0:0|0:0,0:0:0:0:
256,245,142072,5,6,0:0:0:0:
257,18,143125,1,6,0:0:0:0:
256,245,144177,6,0,P|211:259|167:246,1,93.3333333333333,4|0,0:0|0:0,0:0:0:0:
128,212,144704,1,8,0:0:0:0:
240,106,145230,2,0,L|285:96,2,46.6666666666667
208,146,145756,2,0,L|163:136,2,46.6666666666667,8|0|0,0:0|0:0|0:0,0:0:0:0:
237,188,146283,5,6,0:0:0:0:
278,370,147335,1,6,0:0:0:0:
136,119,148914,6,0,P|154:77|191:50,1,93.3333333333333,6|0,0:0|0:0,0:0:0:0:
241,62,149441,2,0,P|268:99|273:144,1,93.3333333333333,6|0,0:0|0:0,0:0:0:0:
256,192,149967,1,6,0:0:0:0:
256,192,150142,12,2,152072,0:0:0:0:
