osu file format v14

[General]
AudioFilename: Jebus of -a- - Alone for Christm-a-s (With My Waifu).mp3
AudioLeadIn: 0
PreviewTime: 141059
Countdown: 0
SampleSet: Soft
StackLeniency: 0.7
Mode: 0
LetterboxInBreaks: 0
WidescreenStoryboard: 0

[Editor]
DistanceSpacing: 1.2
BeatDivisor: 6
GridSize: 32
TimelineZoom: 1

[Metadata]
Title:Alone for Christm/a/s 2013 (With My Waifu)
TitleUnicode:Alone for Christm/a/s 2013 (With My Waifu)
Artist:Jebus of /a/
ArtistUnicode:Jebus of /a/
Creator:Tarrasky
Version:Alone with my Waifu
Source:
Tags:4chan meme all i want for christmas is you
BeatmapID:855867
BeatmapSetID:393198

[Difficulty]
HPDrainRate:5
CircleSize:3.5
OverallDifficulty:5
ApproachRate:6
SliderMultiplier:1.2
SliderTickRate:1

[Events]
//Background and Video events
0,0,"tarraskybg.jpg",0,0
//Break Periods
//Storyboard Layer 0 (Background)
//Storyboard Layer 1 (Fail)
//Storyboard Layer 2 (Pass)
//Storyboard Layer 3 (Foreground)
//Storyboard Sound Samples

[TimingPoints]
2161,987.248046071575,3,2,2,40,1,0
4793,-100,3,2,2,5,0,0
5122,870.827285921626,3,2,2,40,1,0
7734,810.810810810811,3,2,2,40,1,0
8544,-100,3,2,2,5,0,0
8747,-100,3,2,2,40,0,0
11788,857.142857142857,3,2,2,40,1,0
12645,821.917808219178,3,2,2,40,1,0
22508,810.810810810811,3,2,2,40,1,0
23926,-100,3,2,2,5,0,0
24129,-100,3,2,2,40,0,0
24737,-100,3,2,2,5,0,0
24940,-100,3,2,2,40,0,0
27372,882.352941176471,3,2,2,40,1,0
28474,-100,3,2,2,5,0,0
28695,-100,3,2,2,40,0,0
31783,625,3,2,2,40,1,0
32408,810.810810810811,3,2,2,40,1,0
34840,882.352941176471,3,2,2,40,1,0
35501,-100,3,2,2,5,0,0
35722,506.329113924051,3,2,2,40,1,0
35722,-133.333333333333,3,2,2,40,0,0
36228,759.493670886076,3,2,2,40,1,0
36987,817.438692098093,3,2,2,40,1,0
37804,-100,3,2,2,5,0,0
38213,-100,3,2,2,40,0,0
41074,-100,3,2,2,5,0,0
41891,952.380952380952,3,2,2,40,1,0
46652,1003.34448160535,3,2,2,40,1,0
47153,-100,3,2,2,5,0,0
47655,942.35903879378,3,2,2,40,1,0
53309,903.886712865321,3,2,2,40,1,0
55568,-100,3,2,2,5,0,0
55870,-100,3,2,2,40,0,0
56924,-100,3,2,2,5,0,0
57376,-100,3,2,2,40,0,0
57828,1679.49615115465,3,2,2,5,1,0
58107,-100,3,2,2,40,0,0
59507,800,4,2,2,40,1,0
63507,895.522388059701,4,2,2,40,1,0
64402,2326.48313299729,4,2,2,40,1,0
65991,1474.20147420147,4,2,2,40,1,0
66728,1294.61010658957,4,2,2,40,1,0
71259,-100,4,2,2,5,0,0
71906,1034.47826086957,4,2,2,40,1,0
75526,-100,4,2,2,5,0,0
76043,912.54752851711,4,2,2,40,1,0
79236,-100,4,2,2,5,0,0
79693,912.54752851711,4,2,2,40,1,0
82430,1111.11111111111,4,2,2,40,1,0
83541,1016.94915254237,4,2,2,40,1,0
86083,-100,4,2,2,5,0,0
86591,-100,4,2,2,40,0,0
87354,-66.6666666666667,4,2,2,5,0,0
87608,923.076923076923,4,2,2,40,1,0
89915,-100,4,2,2,5,0,0
90377,1621.62162162162,4,2,2,40,1,0
91593,-100,4,2,2,5,0,0
91998,1016.94915254237,4,2,2,40,1,0
93523,-100,4,2,2,5,0,0
94031,-100,4,2,2,40,0,0
97082,-100,4,2,2,5,0,0
97702,1290.32258064516,4,2,2,40,1,0
104153,-100,4,2,2,20,0,0
107701,-100,4,2,2,5,0,0
108024,1051.70902716915,4,2,2,40,1,0
109075,399.813420403812,4,2,1,40,1,0
112272,-100,4,2,1,60,0,0
115471,-100,4,2,1,70,0,0
230618,-100,4,2,1,80,0,1
254607,-100,4,2,1,60,0,0
259404,-100,4,2,1,70,0,1
297786,-100,4,2,1,70,0,0

[Colours]
Combo1 : 255,128,192
Combo2 : 255,170,170
Combo3 : 255,128,255
Combo4 : 244,66,92

[HitObjects]
44,68,2161,6,0,L|223:79,1,180.000006866455,2|2,0:0|0:0,0:0:0:0:
323,106,4300,2,0,P|333:134|334:163,1,60.0000022888184,2|0,0:0|0:0,0:0:0:0:
316,222,5122,2,0,P|364:202|324:294,1,240,2|0,0:0|0:0,0:0:0:0:
104,340,7734,6,0,L|116:197,1,120,2|0,0:0|0:0,0:0:0:0:
132,185,8747,2,0,P|173:169|249:191,1,120,2|0,0:0|0:0,0:0:0:0:
349,239,10166,2,0,B|339:83|339:83|378:120|428:122,1,240,2|0,0:0|0:0,0:0:0:0:
220,216,12645,6,0,B|208:40|208:40|156:32|125:72,1,260,2|2,0:0|0:0,0:0:0:0:
131,215,15110,2,0,P|217:303|299:238,1,240,2|0,0:0|0:0,0:0:0:0:
353,47,17576,6,0,P|398:156|383:274,1,240,2|2,0:0|0:0,0:0:0:0:
276,348,20042,2,0,P|168:358|80:296,1,220,2|0,0:0|0:0,0:0:0:0:
109,155,22508,6,0,B|148:140|156:68|156:68|184:132|231:132,1,210,2|0,0:0|0:0,0:0:0:0:
270,139,24129,2,0,P|314:141|354:121,1,90,2|0,0:0|0:0,0:0:0:0:
385,97,24940,2,0,P|377:161|393:217,2,120,2|2|2,0:0|0:0|0:0,0:0:0:0:
288,48,28033,6,0,P|243:44|216:48,1,60.0000022888184,2|0,0:0|0:0,0:0:0:0:
188,60,28695,2,0,P|157:93|139:137,1,90,2|2,0:0|0:0,0:0:0:0:
122,249,30019,2,0,B|115:308|75:355|75:355|158:331|201:351,1,240,2|0,0:0|0:0,0:0:0:0:
315,353,32408,6,0,B|380:330|380:330|426:285|411:186|324:194,1,240,2|0,0:0|0:0,0:0:0:0:
210,236,34840,2,0,P|210:188|226:132,1,90.0000034332277,2|0,0:0|0:0,0:0:0:0:
242,109,35722,2,0,P|282:90|326:84,1,90.0000034332277,2|2,0:0|0:0,0:0:0:0:
457,166,36987,6,0,L|445:296,1,120,2|0,0:0|0:0,0:0:0:0:
384,333,38213,2,0,P|326:336|284:309,1,90,2|0,0:0|0:0,0:0:0:0:
209,259,39439,2,0,P|161:207|265:219,1,240,2|0,0:0|0:0,0:0:0:0:
87,240,41891,6,0,P|115:124|224:77,1,240,2|2,0:0|0:0,0:0:0:0:
246,282,44748,2,0,P|264:206|322:132,1,160,2|2,0:0|0:0,0:0:0:0:
422,192,46652,2,0,P|407:222|388:245,1,60,2|0,0:0|0:0,0:0:0:0:
256,192,47772,12,0,52209,0:0:0:0:
373,303,53309,6,0,P|365:244|372:185,1,120,2|0,0:0|0:0,0:0:0:0:
433,41,55116,2,0,P|401:43|359:55,1,60,2|0,0:0|0:0,0:0:0:0:
326,70,55870,6,0,P|265:89|193:65,1,140,2|0,0:0|0:0,0:0:0:0:
121,25,57376,2,0,L|118:106,1,60,2|2,0:0|0:0,0:0:0:0:
115,135,58107,1,2,0:0:0:0:
4,164,59507,5,2,0:0:0:0:
40,236,59907,1,0,0:0:0:0:
116,258,60307,1,2,0:0:0:0:
194,241,60707,1,2,0:0:0:0:
255,195,61107,5,2,0:0:0:0:
317,151,61507,1,0,0:0:0:0:
395,133,61907,1,2,0:0:0:0:
472,154,62307,1,2,0:0:0:0:
508,223,62707,6,0,L|504:292,1,60,2|0,0:0|0:0,0:0:0:0:
444,332,63507,2,0,P|414:340|385:344,1,60,2|2,0:0|0:0,0:0:0:0:
308,340,64402,5,2,0:0:0:0:
232,349,66728,6,0,B|185:335|125:351|125:351|119:307|95:279|95:279|121:251|134:222|134:222|106:172|99:115|138:66,1,420,4|0,0:0|0:0,0:0:0:0:
240,59,71906,6,0,P|310:60|189:130,1,420,4|0,0:0|0:0,0:0:0:0:
273,135,76043,6,0,B|268:183|289:224|289:224|263:270|253:343|253:343|312:307|312:307|393:353|439:299,1,420,4|0,0:0|0:0,0:0:0:0:
462,213,79693,6,0,B|463:96|463:96|359:23|359:23|251:65,1,360,4|2,0:0|0:0,2:0:0:0:
131,71,83541,6,0,B|29:205|232:205|131:340,1,300,4|0,0:0|0:0,0:0:0:0:
231,326,86591,2,0,P|239:281|238:236,1,90,4|0,0:0|0:0,0:0:0:0:
226,173,87608,6,0,B|203:108|225:56|225:56|289:73|317:129|317:129|352:122|379:92,1,300,4|0,0:0|0:0,0:0:0:0:
459,40,90377,6,0,P|445:82|443:127,1,90,4|0,0:0|0:0,0:0:0:0:
472,201,91998,6,0,B|384:241|384:169|292:205,1,180,4|0,0:0|0:0,0:0:0:0:
205,262,94031,6,0,P|137:290|201:166,1,360,4|0,0:0|0:0,0:0:0:0:
301,226,97702,6,0,B|373:95|238:134|310:3,2,240,4|4|4,0:0|0:0|0:0,0:0:0:0:
256,192,104476,12,0,107701,0:0:0:0:
96,296,109075,6,0,L|215:288,1,120,2|2,0:0|0:0,0:0:0:0:
236,172,109874,2,0,L|116:179,1,120,2|2,0:0|0:0,0:0:0:0:
72,67,110674,2,0,P|124:41|183:48,1,120,2|2,0:0|0:0,0:0:0:0:
296,84,111473,2,0,P|354:90|407:64,1,120,2|2,0:0|0:0,0:0:0:0:
436,180,112273,6,0,L|440:219,2,40,10|0|0,0:0|0:0|0:0,0:0:0:0:
360,208,112673,2,8,L|344:244,2,40,10|0|0,0:0|0:0|0:0,0:0:0:0:
280,192,113073,2,0,L|247:215,2,40,10|0|0,0:0|0:0|0:0,0:0:0:0:
217,140,113473,2,8,L|177:144,2,40,10|0|0,0:0|0:0|0:0,0:0:0:0:
180,68,113872,5,8,0:0:0:0:
92,108,114139,1,0,0:0:0:0:
92,108,114272,2,0,L|100:216,1,80,8|0,0:0|0:0,0:0:0:0:
116,232,114672,2,0,P|153:245|193:247,1,80,8|0,0:0|0:0,0:0:0:0:
240,236,115072,2,0,P|279:237|317:251,1,80,8|0,0:0|0:0,0:0:0:0:
348,288,115472,6,0,P|372:224|364:160,1,120,4|8,0:0|0:0,0:0:0:0:
296,52,116271,2,0,P|239:37|180:44,1,120,0|8,0:0|0:0,0:0:0:0:
56,116,117071,2,0,L|59:235,1,120,0|8,0:0|0:0,0:0:0:0:
184,308,117870,2,0,L|180:188,1,120,0|8,0:0|0:0,0:0:0:0:
300,108,118670,6,0,P|364:96|428:120,2,120,0|8|0,0:0|0:0|0:0,0:0:0:0:
256,244,119869,1,8,0:0:0:0:
212,108,120269,2,0,P|148:96|84:120,2,120,0|8|0,0:0|0:0|0:0,0:0:0:0:
256,244,121469,1,8,0:0:0:0:
364,336,121869,6,0,P|436:304|424:140,1,240,6|0,0:0|0:0,0:0:0:0:
336,64,123068,1,8,0:0:0:0:
196,40,123468,2,0,L|76:47,1,120,0|8,0:0|0:0,0:0:0:0:
40,188,124267,2,0,L|159:180,1,120,0|8,0:0|0:0,0:0:0:0:
140,324,125067,6,0,P|254:354|376:320,1,240,6|0,0:0|0:0,0:0:0:0:
472,220,126266,1,8,0:0:0:0:
448,76,126666,2,0,L|328:66,1,120,0|8,0:0|0:0,0:0:0:0:
183,66,127466,2,0,L|64:76,1,120,0|8,0:0|0:0,0:0:0:0:
32,216,128266,6,0,P|60:267|112:297,1,120,4|8,0:0|0:0,0:0:0:0:
244,244,129065,1,0,0:0:0:0:
260,100,129465,1,8,0:0:0:0:
400,64,129865,2,0,P|444:103|466:158,1,120,0|8,0:0|0:0,0:0:0:0:
372,268,130664,2,0,P|327:228|305:173,1,120,0|8,0:0|0:0,0:0:0:0:
252,40,131464,6,0,L|120:32,1,120,0|8,0:0|0:0,0:0:0:0:
8,108,132264,1,0,0:0:0:0:
16,252,132663,1,8,0:0:0:0:
152,304,133063,2,0,L|271:294,1,120,0|8,0:0|0:0,0:0:0:0:
276,148,133863,2,0,L|156:157,1,120,0|8,0:0|0:0,0:0:0:0:
260,56,134663,6,0,P|352:96|324:228,1,240,6|0,0:0|0:0,0:0:0:0:
204,268,135862,1,8,0:0:0:0:
80,196,136262,2,0,L|86:76,1,120,0|8,0:0|0:0,0:0:0:0:
220,24,137061,2,0,L|213:143,1,120,0|8,0:0|0:0,0:0:0:0:
216,288,137861,6,0,P|304:316|436:228,1,240,6|0,0:0|0:0,0:0:0:0:
452,104,139061,1,8,0:0:0:0:
319,51,139460,2,0,P|260:43|202:55,1,120,0|8,0:0|0:0,0:0:0:0:
108,164,140260,2,0,L|105:203,2,40,8|0|0,0:0|0:0|0:0,0:0:0:0:
188,192,140660,2,0,L|185:231,2,40,8|0|0,0:0|0:0|0:0,0:0:0:0:
268,204,141060,6,0,P|324:223|383:215,1,120,4|8,0:0|0:0,0:0:0:0:
404,72,141859,2,0,P|347:52|288:60,1,120,0|8,0:0|0:0,0:0:0:0:
160,128,142659,2,0,L|163:247,1,120,2|8,0:0|0:0,0:0:0:0:
32,304,143458,2,0,L|28:184,1,120,2|8,0:0|0:0,0:0:0:0:
84,51,144258,6,0,P|139:29|198:31,1,120,2|8,0:0|0:0,0:0:0:0:
336,76,145058,2,0,P|395:77|450:55,1,120,0|8,0:0|0:0,0:0:0:0:
480,196,145857,2,0,L|476:315,1,120,2|8,0:0|0:0,0:0:0:0:
332,336,146657,2,0,L|335:216,1,120,2|8,0:0|0:0,0:0:0:0:
259,91,147457,6,0,P|202:78|143:89,1,120,2|8,0:0|0:0,0:0:0:0:
72,216,148256,2,0,P|88:273|128:317,1,120,0|8,2:0|2:0,2:0:0:0:
272,312,149056,2,0,P|312:268|332:212,1,120,2|8,2:0|2:0,2:0:0:0:
352,68,149855,1,0,0:0:0:0:
212,44,150255,1,8,0:0:0:0:
87,116,150655,6,0,P|56:226|134:310,1,240,6|0,0:0|0:0,0:0:0:0:
256,232,151855,1,8,0:0:0:0:
377,310,152254,2,0,P|455:226|424:116,1,240,2|0,0:0|0:0,0:0:0:0:
296,48,153454,1,8,0:0:0:0:
256,192,153854,12,0,156252,0:0:0:0:
136,176,157052,6,0,L|146:295,1,120,0|8,0:0|0:0,0:0:0:0:
280,344,157852,2,0,L|269:224,1,120,0|8,0:0|0:0,0:0:0:0:
336,96,158651,1,0,0:0:0:0:
424,132,158918,1,8,0:0:0:0:
424,132,159051,2,0,L|421:211,1,80,8|0,0:0|0:0,0:0:0:0:
344,188,159451,2,0,L|314:262,1,80,8|0,0:0|0:0,0:0:0:0:
248,216,159851,2,0,L|194:275,1,80,8|0,0:0|0:0,0:0:0:0:
147,208,160251,6,0,P|91:227|32:224,1,120,6|8,0:0|0:0,0:0:0:0:
76,88,161050,2,0,P|132:68|191:71,1,120,0|8,0:0|0:0,0:0:0:0:
296,172,161850,2,0,L|309:52,1,120,0|8,0:0|0:0,0:0:0:0:
452,44,162649,2,0,L|438:163,1,120,0|8,0:0|0:0,0:0:0:0:
492,296,163449,6,0,P|436:316|377:307,1,120,0|8,0:0|0:0,0:0:0:0:
256,232,164249,2,0,L|256:100,1,120,0|8,0:0|0:0,0:0:0:0:
132,40,165048,2,0,P|73:30|17:51,1,120,0|8,0:0|0:0,0:0:0:0:
4,196,165848,1,0,0:0:0:0:
80,316,166248,1,8,0:0:0:0:
224,336,166648,6,0,P|312:344|400:208,1,240,6|0,0:0|0:0,0:0:0:0:
384,92,167847,1,8,0:0:0:0:
248,48,168247,2,0,L|127:51,1,120,0|8,0:0|0:0,0:0:0:0:
88,192,169047,2,0,L|207:187,1,120,0|8,0:0|0:0,0:0:0:0:
340,124,169846,6,0,P|424:176|424:328,1,240,6|0,0:0|0:0,0:0:0:0:
296,348,171046,1,8,0:0:0:0:
156,320,171445,2,0,L|163:200,1,120,0|8,0:0|0:0,0:0:0:0:
28,148,172245,2,0,L|20:267,1,120,0|8,0:0|0:0,0:0:0:0:
156,320,173045,6,0,P|208:348|267:346,1,120,4|8,0:0|0:0,0:0:0:0:
404,300,173844,1,0,0:0:0:0:
452,164,174244,1,8,0:0:0:0:
351,59,174644,2,0,P|293:48|235:61,1,120,0|8,0:0|0:0,0:0:0:0:
92,36,175444,2,0,P|80:94|92:153,1,120,0|8,0:0|0:0,0:0:0:0:
88,296,176243,6,0,P|145:312|204:306,1,120,0|8,0:0|0:0,0:0:0:0:
324,224,177043,2,0,P|340:166|334:107,1,120,0|8,0:0|0:0,0:0:0:0:
204,48,177842,1,0,0:0:0:0:
60,52,178242,1,8,0:0:0:0:
44,196,178642,2,0,L|163:204,1,120,0|8,0:0|0:0,0:0:0:0:
300,256,179442,6,0,P|416:268|460:152,1,240,6|0,0:0|0:0,0:0:0:0:
396,44,180641,1,8,0:0:0:0:
252,36,181041,2,0,L|132:46,1,120,0|8,0:0|0:0,0:0:0:0:
84,184,181841,2,0,L|203:173,1,120,0|8,0:0|0:0,0:0:0:0:
340,128,182640,6,0,P|368:226|336:356,1,240,6|0,0:0|0:0,0:0:0:0:
192,352,183840,1,8,0:0:0:0:
83,259,184239,2,0,P|71:201|79:142,1,120,0|8,0:0|0:0,0:0:0:0:
200,64,185039,2,0,L|239:59,2,40,8|0|0,0:0|0:0|0:0,0:0:0:0:
232,136,185439,2,0,L|271:131,2,40,8|0|0,0:0|0:0|0:0,0:0:0:0:
260,212,185839,6,0,L|256:331,1,120,6|8,0:0|0:0,0:0:0:0:
396,364,186638,2,0,L|399:244,1,120,0|8,0:0|0:0,0:0:0:0:
460,111,187438,2,0,P|404:92|346:105,1,120,2|8,0:0|0:0,0:0:0:0:
284,236,188238,2,0,P|226:249|170:229,1,120,2|8,0:0|0:0,0:0:0:0:
52,148,189037,6,0,L|58:28,1,120,2|8,0:0|0:0,0:0:0:0:
204,16,189837,1,0,0:0:0:0:
340,60,190237,1,8,0:0:0:0:
420,180,190636,2,0,P|435:237|430:297,1,120,2|8,0:0|0:0,0:0:0:0:
291,338,191436,2,0,P|275:280|280:220,1,120,2|8,0:0|0:0,0:0:0:0:
351,95,192236,6,0,P|255:33|160:95,1,240,2|0,0:0|0:0,0:0:0:0:
53,191,193435,1,8,0:0:0:0:
161,289,193835,2,0,P|256:350|351:288,1,240,2|0,0:0|0:0,0:0:0:0:
459,193,195034,1,8,0:0:0:0:
380,72,195434,6,0,L|260:82,1,120,2|8,0:0|0:0,0:0:0:0:
300,220,196234,2,0,L|180:230,1,120,2|8,0:0|0:0,0:0:0:0:
67,143,197033,2,0,P|59:84|70:25,1,120,2|10,0:0|0:0,0:0:0:0:
216,32,197833,2,0,P|224:91|213:150,1,120,0|8,0:0|0:0,0:0:0:0:
256,192,198633,12,0,201032,0:0:0:0:
136,304,201831,6,0,L|255:311,1,120,0|8,0:0|0:0,0:0:0:0:
336,192,202631,2,0,L|216:184,1,120,0|8,0:0|0:0,0:0:0:0:
120,76,203430,1,0,0:0:0:0:
256,32,203830,1,8,0:0:0:0:
392,76,204230,2,0,L|431:73,2,40,8|0|0,0:0|0:0|0:0,0:0:0:0:
420,152,204630,2,0,L|459:149,2,40,8|0|0,0:0|0:0|0:0,0:0:0:0:
443,228,205030,6,0,P|456:286|445:344,1,120,4|8,0:0|0:0,0:0:0:0:
300,360,205829,2,0,P|287:301|298:243,1,120,0|8,0:0|0:0,0:0:0:0:
396,136,206629,2,0,L|276:128,1,120,0|8,0:0|0:0,0:0:0:0:
180,20,207429,2,0,L|60:27,1,120,0|8,0:0|0:0,0:0:0:0:
51,172,208228,6,0,P|46:231|60:289,1,120,0|8,0:0|0:0,0:0:0:0:
204,284,209028,2,0,P|209:224|195:166,1,120,0|8,0:0|0:0,0:0:0:0:
116,48,209827,1,2,0:0:0:0:
256,20,210227,1,8,0:0:0:0:
396,48,210627,1,2,0:0:0:0:
476,168,211027,1,8,0:0:0:0:
476,312,211427,6,0,P|392:336|348:328,1,120,0|8,0:0|0:0,0:0:0:0:
244,248,212226,2,0,L|244:124,1,120,0|8,0:0|0:0,0:0:0:0:
361,52,213026,2,0,P|420:50|476:72,1,120,0|8,0:0|0:0,0:0:0:0:
480,216,213826,1,0,0:0:0:0:
388,324,214225,1,8,0:0:0:0:
248,288,214625,6,0,L|251:168,1,120,0|8,0:0|0:0,0:0:0:0:
116,120,215425,2,0,L|112:239,1,120,0|8,0:0|0:0,0:0:0:0:
248,288,216224,2,0,P|307:291|363:270,1,120,2|8,0:0|0:0,0:0:0:0:
344,128,217024,2,0,P|399:106|459:110,1,120,2|8,0:0|0:0,0:0:0:0:
479,252,217824,6,0,P|388:321|281:278,1,240,4|0,0:0|0:0,0:0:0:0:
256,136,219023,1,8,0:0:0:0:
140,52,219423,2,0,L|20:55,1,120,0|8,0:0|0:0,0:0:0:0:
52,196,220223,2,0,L|171:192,1,120,0|8,0:0|0:0,0:0:0:0:
260,80,221022,6,0,P|384:60|448:164,1,240,6|0,0:0|0:0,0:0:0:0:
400,280,222222,1,8,0:0:0:0:
264,324,222622,2,0,L|144:331,1,120,0|8,0:0|0:0,0:0:0:0:
88,200,223421,2,0,L|207:192,1,120,0|8,0:0|0:0,0:0:0:0:
300,83,224221,6,0,P|440:99|329:185,1,360,0|8,0:0|0:0,0:0:0:0:
182,185,225820,2,0,P|71:99|212:84,1,360,0|8,0:0|0:0,0:0:0:0:
256,192,227419,12,0,229818,0:0:0:0:
136,104,230618,6,0,L|268:108,1,120,6|8,0:0|0:0,0:0:0:0:
268,252,231417,2,0,L|148:248,1,120,0|8,0:0|0:0,0:0:0:0:
252,348,232217,2,0,P|310:340|350:297,1,120,0|8,0:0|0:0,0:0:0:0:
396,160,233017,2,0,L|388:32,1,120,0|8,0:0|0:0,0:0:0:0:
243,47,233816,6,0,P|184:39|126:51,1,120,0|8,0:0|0:0,0:0:0:0:
88,192,234616,2,0,L|212:192,1,120,0|8,0:0|0:0,0:0:0:0:
243,336,235416,2,0,P|184:344|126:332,1,120,0|8,0:0|0:0,0:0:0:0:
88,192,236215,1,0,0:0:0:0:
126,51,236615,1,8,0:0:0:0:
268,27,237015,6,0,P|379:54|407:165,1,240,6|0,0:0|0:0,0:0:0:0:
352,300,238214,1,8,0:0:0:0:
216,340,238614,2,0,L|96:336,1,120,0|8,0:0|0:0,0:0:0:0:
36,204,239414,2,0,L|155:207,1,120,0|8,0:0|0:0,0:0:0:0:
284,276,240213,6,0,P|396:254|435:146,1,240,6|0,0:0|0:0,0:0:0:0:
340,36,241413,1,8,0:0:0:0:
196,36,241813,2,0,L|188:168,1,120,0|8,0:0|0:0,0:0:0:0:
100,268,242612,2,0,L|90:306,2,40,8|0|0,0:0|0:0|0:0,0:0:0:0:
176,296,243012,2,0,L|180:335,2,40,8|0|0,0:0|0:0|0:0,0:0:0:0:
256,280,243412,6,0,P|313:293|370:275,1,120,4|8,0:0|0:0,0:0:0:0:
460,164,244211,2,0,L|449:44,1,120,0|8,0:0|0:0,0:0:0:0:
304,44,245011,2,0,L|315:163,1,120,2|8,0:0|0:0,0:0:0:0:
216,268,245811,2,0,P|162:291|105:278,1,120,2|8,0:0|0:0,0:0:0:0:
84,136,246610,6,0,P|138:112|195:125,1,120,2|8,0:0|0:0,0:0:0:0:
292,236,247410,2,0,P|346:259|403:246,1,120,0|8,0:0|0:0,0:0:0:0:
504,144,248210,2,0,L|496:24,1,120,2|8,0:0|0:0,0:0:0:0:
352,8,249009,2,0,L|359:127,1,120,2|8,0:0|0:0,0:0:0:0:
444,244,249809,6,0,P|390:268|331:263,1,120,2|8,0:0|0:0,0:0:0:0:
182,262,250608,2,0,P|122:268|68:243,1,120,0|8,0:0|0:0,0:0:0:0:
60,99,251408,2,0,P|151:29|262:61,1,240,2|0,0:0|0:0,0:0:0:0:
256,208,252608,1,8,0:0:0:0:
384,272,253007,6,0,P|442:284|499:267,1,120,0|8,0:0|0:0,0:0:0:0:
492,124,253807,2,0,P|435:107|377:120,1,120,0|8,0:0|0:0,0:0:0:0:
256,196,254607,1,4,0:0:0:0:
256,340,255006,1,4,0:0:0:0:
256,192,255140,12,0,258605,0:0:0:0:
135,320,259404,6,0,P|184:353|243:353,1,120,6|8,0:0|0:0,0:0:0:0:
384,312,260204,2,0,P|417:263|417:204,1,120,0|8,0:0|0:0,0:0:0:0:
376,63,261004,2,0,P|327:30|268:30,1,120,0|8,0:0|0:0,0:0:0:0:
127,71,261804,2,0,P|94:120|94:179,1,120,0|8,0:0|0:0,0:0:0:0:
144,316,262603,6,0,L|263:312,1,120,2|8,0:0|0:0,0:0:0:0:
212,176,263402,2,0,L|331:172,1,120,0|8,0:0|0:0,0:0:0:0:
440,76,264202,2,0,P|470:126|473:186,1,120,2|8,0:0|0:0,0:0:0:0:
432,324,265002,2,0,L|416:372,2,40,8|0|0,0:0|0:0|0:0,0:0:0:0:
352,312,265402,2,0,L|308:338,2,40,8|0|0,0:0|0:0|0:0,0:0:0:0:
296,252,265801,6,0,L|288:132,1,120,2|10,0:0|0:0,0:0:0:0:
148,92,266601,2,0,L|155:211,1,120,2|10,0:0|0:0,0:0:0:0:
72,328,267401,2,0,P|128:345|186:333,1,120,2|10,0:0|0:0,0:0:0:0:
325,333,268200,2,0,P|383:345|440:328,1,120,0|10,0:0|0:0,0:0:0:0:
448,184,269000,5,2,0:0:0:0:
356,72,269400,1,8,0:0:0:0:
256,176,269799,1,0,0:0:0:0:
156,72,270199,1,8,0:0:0:0:
63,184,270599,6,0,P|57:223|61:263,1,80,2|8,0:0|0:0,0:0:0:0:
136,228,270999,2,0,P|156:262|185:290,1,80,8|8,0:0|0:0,0:0:0:0:
224,220,271399,2,0,P|242:227|261:232,2,40,8|0|0,0:0|0:0|0:0,0:0:0:0:
272,156,271799,2,0,P|291:156|311:155,2,40,8|0|0,0:0|0:0|0:0,0:0:0:0:
288,76,272198,6,0,L|140:72,1,120,6|8,0:0|0:0,0:0:0:0:
82,189,272998,2,0,L|201:192,1,120,2|8,0:0|0:0,0:0:0:0:
124,313,273798,2,0,L|243:316,1,120,2|8,0:0|0:0,0:0:0:0:
366,240,274597,2,0,P|377:181|366:123,1,120,0|10,0:0|0:0,0:0:0:0:
240,52,275397,6,0,L|120:61,1,120,2|8,0:0|0:0,0:0:0:0:
116,208,276197,2,0,L|125:327,1,120,0|8,0:0|0:0,0:0:0:0:
272,332,276996,2,0,L|391:322,1,120,2|8,0:0|0:0,0:0:0:0:
440,188,277796,2,0,L|445:148,2,40,10|0|0,0:0|0:0|0:0,0:0:0:0:
364,160,278196,2,0,L|369:120,2,40,8|0|0,0:0|0:0|0:0,0:0:0:0:
287,131,278595,6,0,P|235:103|176:104,1,120,6|8,0:0|0:0,0:0:0:0:
64,196,279395,2,0,P|65:255|96:306,1,120,2|8,0:0|0:0,0:0:0:0:
236,348,280195,2,0,P|286:316|315:264,1,120,2|8,0:0|0:0,0:0:0:0:
380,136,280994,2,0,L|372:4,1,120,0|10,0:0|0:0,0:0:0:0:
231,39,281794,6,0,P|172:37|114:52,1,120,2|8,0:0|0:0,0:0:0:0:
124,196,282594,2,0,P|183:198|241:183,1,120,0|8,0:0|0:0,0:0:0:0:
324,63,283393,2,0,P|363:66|402:77,1,80,2|8,0:0|0:0,0:0:0:0:
432,116,283793,2,0,L|446:153,2,40,8|0|0,0:0|0:0|0:0,0:0:0:0:
372,172,284193,2,0,L|386:209,2,40,10|0|0,0:0|0:0|0:0,0:0:0:0:
304,216,284593,2,0,L|318:253,2,40,8|0|0,0:0|0:0|0:0,0:0:0:0:
240,268,284992,6,0,L|120:264,1,120,6|8,0:0|0:0,0:0:0:0:
104,120,285792,2,0,L|223:123,1,120,2|8,0:0|0:0,0:0:0:0:
364,156,286592,2,0,P|392:208|397:267,1,120,2|8,0:0|0:0,0:0:0:0:
260,316,287391,2,0,P|231:263|226:204,1,120,0|10,0:0|0:0,0:0:0:0:
296,76,288191,6,0,P|412:60|484:168,1,240,2|0,0:0|0:0,0:0:0:0:
424,280,289390,1,8,0:0:0:0:
292,332,289790,2,0,L|172:328,1,120,2|8,0:0|0:0,0:0:0:0:
68,228,290590,2,0,L|59:189,2,40,10|0|0,0:0|0:0|0:0,0:0:0:0:
144,196,290990,2,0,L|135:157,2,40,8|0|0,0:0|0:0|0:0,0:0:0:0:
216,160,291389,6,0,L|335:163,1,120,6|8,0:0|0:0,0:0:0:0:
404,36,292189,2,0,L|284:32,1,120,2|8,0:0|0:0,0:0:0:0:
139,26,292989,2,0,P|120:82|127:141,1,120,2|8,0:0|0:0,0:0:0:0:
142,284,293788,2,0,L|274:289,1,120,0|10,0:0|0:0,0:0:0:0:
404,316,294588,6,0,P|468:264|388:128,1,240,2|0,0:0|0:0,0:0:0:0:
280,92,295787,1,8,0:0:0:0:
140,120,296187,2,0,P|151:158|150:197,1,80,0|8,0:0|0:0,0:0:0:0:
150,246,296587,2,0,P|148:285|160:323,1,80,8|8,0:0|0:0,0:0:0:0:
244,316,296987,2,0,L|288:348,2,40,8|0|0,0:0|0:0|0:0,0:0:0:0:
304,260,297387,2,0,L|358:256,2,40,8|0|0,0:0|0:0|0:0,0:0:0:0:
312,176,297786,6,0,L|315:56,1,120,2|10,0:0|0:0,0:0:0:0:
172,36,298586,2,0,L|168:155,1,120,2|10,0:0|0:0,0:0:0:0:
160,300,299386,5,2,0:0:0:0:
300,324,299786,1,8,0:0:0:0:
397,221,300185,1,2,0:0:0:0:
348,87,300585,1,10,0:0:0:0:
210,54,300985,5,2,0:0:0:0:
119,164,301385,1,8,0:0:0:0:
160,300,301785,1,2,0:0:0:0:
300,324,302185,1,10,0:0:0:0:
256,188,302584,5,6,0:0:0:0:
