osu file format v14

[General]
AudioFilename: audio.mp3
AudioLeadIn: 0
PreviewTime: 81106
Countdown: 0
SampleSet: Soft
StackLeniency: 0.7
Mode: 3
LetterboxInBreaks: 0
SpecialStyle: 0
WidescreenStoryboard: 1

[Editor]
DistanceSpacing: 1.4
BeatDivisor: 4
GridSize: 4
TimelineZoom: 1.017871

[Metadata]
Title:Le Tombeau de Couperin, M. 68: VI. Toccata
TitleUnicode:Le Tombeau de Couperin, M. 68: VI. Toccata
Artist:Jean-Philippe Collard
ArtistUnicode:Jean-Philippe Collard
Creator:-mint-
Version:Insane
Source:
Tags:maurice ravel impressionism impressionist suite vif françois francois complete works for solo piano 6 pièces pieces pour deux mains warner music france french virtuoso classical instrumental
BeatmapID:2737550
BeatmapSetID:1187093

[Difficulty]
HPDrainRate:8
CircleSize:4
OverallDifficulty:7.5
ApproachRate:5
SliderMultiplier:1.4
SliderTickRate:4

[Events]
//Background and Video events
0,0,"claude_monet_the_seine_at_vetheuil_oil_canvas_impressionism_117263_2560x1440.jpg",0,0
//Break Periods
//Storyboard Layer 0 (Background)
//Storyboard Layer 1 (Fail)
//Storyboard Layer 2 (Pass)
//Storyboard Layer 3 (Foreground)
//Storyboard Layer 4 (Overlay)
//Storyboard Sound Samples

[TimingPoints]
1710,402.684563758389,4,2,1,30,1,0
1710,-99.009900990099,4,2,1,30,0,0
4629,370.37037037037,4,2,1,30,1,8
4629,-107.52688172043,4,2,1,30,0,8
4906,408.163265306122,4,2,1,30,1,0
4906,-98.0392156862745,4,2,1,30,0,0
5620,454.545454545455,4,2,1,30,1,8
5620,-87.719298245614,4,2,1,30,0,8
5733,384.615384615385,4,2,1,30,1,8
5733,-104.166666666667,4,2,1,30,0,8
5925,340.909090909091,4,2,1,30,1,8
5925,-117.647058823529,4,2,1,30,0,8
6010,476.190476190476,4,2,1,30,1,8
6010,-84.0336134453782,4,2,1,30,0,8
6129,408.163265306122,4,2,1,30,1,8
6129,-98.0392156862745,4,2,1,30,0,8
6435,441.176470588235,4,2,1,30,1,8
6435,-90.9090909090909,4,2,1,30,0,8
6545,400,4,2,1,30,1,0
8145,416.666666666667,4,2,1,30,1,0
8145,-96.1538461538461,4,2,1,30,0,0
8770,394.736842105263,4,2,1,30,1,8
8770,-101.010101010101,4,2,1,30,0,8
9756,408.163265306122,4,2,1,30,1,0
9756,-98.0392156862745,4,2,1,30,0,0
12204,394.736842105263,4,2,1,30,1,8
12204,-101.010101010101,4,2,1,30,0,8
12993,394.736842105263,4,2,1,30,1,0
12993,-101.010101010101,4,2,1,30,0,0
13091,504.201680672269,4,2,1,30,1,8
13091,-79.3650793650794,4,2,1,30,0,8
13217,405.405405405405,4,2,1,30,1,8
13217,-99.009900990099,4,2,1,30,0,8
14635,405.405405405405,4,2,1,30,1,0
14635,-99.009900990099,4,2,1,30,0,0
15445,535.714285714286,4,2,1,30,1,8
15445,-74.6268656716418,4,2,1,30,0,8
15578,472.44094488189,4,2,1,30,1,8
15578,-84.7457627118644,4,2,1,30,0,8
15696,384.615384615385,4,2,1,30,1,8
15696,-104.166666666667,4,2,1,30,0,8
16080,408.163265306122,4,2,1,30,1,8
16080,-98.0392156862745,4,2,1,30,0,8
16284,408.163265306122,4,2,1,30,1,0
16284,-98.0392156862745,4,2,1,30,0,0
17916,384.615384615385,4,2,1,30,1,0
17916,-104.166666666667,4,2,1,30,0,0
18204,434.782608695652,4,2,1,30,1,8
18204,-91.743119266055,4,2,1,30,0,8
18312,394.736842105263,4,2,1,30,1,8
18312,-101.010101010101,4,2,1,30,0,8
18706,408.163265306122,4,2,1,30,1,8
18706,-98.0392156862745,4,2,1,30,0,8
19318,444.444444444444,4,2,1,30,1,8
19318,-90.0900900900901,4,2,1,30,0,8
19540,384.615384615385,4,2,1,30,1,0
19540,-104.166666666667,4,2,1,30,0,0
19828,408.163265306122,4,2,1,30,1,8
19828,-98.0392156862745,4,2,1,30,0,8
20134,434.782608695652,4,2,1,30,1,8
20134,-91.743119266055,4,2,1,30,0,8
20351,375,4,2,1,30,1,8
20351,-106.382978723404,4,2,1,30,0,8
20444,476.190476190476,4,2,1,30,1,8
20444,-84.0336134453782,4,2,1,30,0,8
20563,375,4,2,1,30,1,8
20563,-106.382978723404,4,2,1,30,0,8
20750,400,4,2,1,30,1,8
21050,441.176470588235,4,2,1,30,1,8
21050,-90.9090909090909,4,2,1,30,0,8
21160,370.37037037037,4,2,1,30,1,0
21160,-107.52688172043,4,2,1,30,0,0
21437,454.545454545455,4,2,1,30,1,8
21437,-87.719298245614,4,2,1,30,0,8
21550,340.909090909091,4,2,1,30,1,8
21550,-117.647058823529,4,2,1,30,0,8
21635,416.666666666667,4,2,1,30,1,8
21635,-96.1538461538461,4,2,1,30,0,8
21739,491.803278688525,4,2,1,30,1,8
21739,-81.3008130081301,4,2,1,30,0,8
21861,375,4,2,1,30,1,8
21861,-106.382978723404,4,2,1,30,0,8
21954,400,4,2,1,30,1,8
22154,357.142857142857,4,2,1,30,1,8
22154,-112.359550561798,4,2,1,30,0,8
22243,402.684563758389,4,2,1,30,1,8
22243,-99.009900990099,4,2,1,30,0,8
22746,402.684563758389,4,2,1,30,1,0
22746,-99.009900990099,4,2,1,30,0,0
23148,344.827586206897,4,2,1,30,1,8
23148,-116.279069767442,4,2,1,30,0,8
23234,400,4,2,1,30,1,8
24334,400,4,2,1,30,1,0
24834,500,4,2,1,30,1,8
24834,-80,4,2,1,30,0,8
24959,400,4,2,1,30,1,8
25959,400,4,2,1,30,1,0
26459,441.176470588235,4,2,1,30,1,8
26459,-90.9090909090909,4,2,1,30,0,8
26569,384.615384615385,4,2,1,30,1,8
26569,-104.166666666667,4,2,1,30,0,8
27434,517.241379310345,4,2,1,30,1,8
27434,-77.5193798449612,4,2,1,30,0,8
27563,394.736842105263,4,2,1,30,1,0
27563,-101.010101010101,4,2,1,30,0,0
27957,357.142857142857,4,2,1,30,1,8
27957,-112.359550561798,4,2,1,30,0,8
28046,434.782608695652,4,2,1,30,1,8
28046,-91.743119266055,4,2,1,30,0,8
28154,384.615384615385,4,2,1,30,1,8
28154,-104.166666666667,4,2,1,30,0,8
28250,454.545454545455,4,2,1,30,1,8
28250,-87.719298245614,4,2,1,30,0,8
28363,384.615384615385,4,2,1,30,1,8
28363,-104.166666666667,4,2,1,30,0,8
28939,434.782608695652,4,2,1,30,1,8
28939,-91.743119266055,4,2,1,30,0,8
29047,500,4,2,1,30,1,8
29047,-80,4,2,1,30,0,8
29172,400,4,2,1,30,1,0
29772,454.545454545455,4,2,1,30,1,8
29772,-87.719298245614,4,2,1,30,0,8
29999,375,4,2,1,30,1,8
29999,-106.382978723404,4,2,1,30,0,8
30280,454.545454545455,4,2,1,30,1,8
30280,-87.719298245614,4,2,1,30,0,8
30393,400,4,2,1,30,1,8
30793,400,4,2,1,30,1,0
30993,375,4,2,1,30,1,8
30993,-106.382978723404,4,2,1,30,0,8
31368,394.736842105263,4,2,1,30,1,8
31368,-101.010101010101,4,2,1,30,0,8
31762,416.666666666667,4,2,1,30,1,8
31762,-96.1538461538461,4,2,1,30,0,8
31970,384.615384615385,4,2,1,30,1,8
31970,-104.166666666667,4,2,1,30,0,8
32354,384.615384615385,4,2,1,30,1,0
32354,-104.166666666667,4,2,1,30,0,0
32546,357.142857142857,4,2,1,30,1,8
32546,-112.359550561798,4,2,1,30,0,8
32635,476.190476190476,4,2,1,30,1,8
32635,-84.0336134453782,4,2,1,30,0,8
32754,326.086956521739,4,2,1,30,1,8
32754,-121.951219512195,4,2,1,30,0,8
32835,434.782608695652,4,2,1,30,1,8
32835,-91.743119266055,4,2,1,30,0,8
32943,402.684563758389,4,2,1,30,1,8
32943,-99.009900990099,4,2,1,30,0,8
33547,384.615384615385,4,2,1,30,1,8
33547,-104.166666666667,4,2,1,30,0,8
33835,454.545454545455,4,2,1,30,1,8
33835,-87.719298245614,4,2,1,30,0,8
33948,394.736842105263,4,2,1,30,1,8
33948,-101.010101010101,4,2,1,30,0,8
34342,422.535211267606,4,2,1,30,1,8
34342,-94.3396226415094,4,2,1,30,0,8
34764,402.684563758389,4,2,1,30,1,0
34764,-99.009900990099,4,2,1,30,0,0
38086,476.190476190476,4,2,1,30,1,8
38086,-84.0336134453782,4,2,1,30,0,8
38205,400,4,2,1,30,1,8
38805,370.37037037037,4,2,1,30,1,8
38805,-107.52688172043,4,2,1,30,0,8
39545,454.545454545455,4,2,1,30,1,0
39545,-87.719298245614,4,2,1,30,0,0
39772,365.853658536585,4,2,1,30,1,8
39772,-109.89010989011,4,2,1,30,0,8
39954,428.571428571429,4,2,1,30,1,8
39954,-93.4579439252336,4,2,1,30,0,8
40168,326.086956521739,4,2,1,30,1,8
40168,-121.951219512195,4,2,1,30,0,8
40249,500,4,2,1,30,1,8
40249,-80,4,2,1,30,0,8
40374,400,4,2,1,30,1,8
41174,375,4,2,1,30,1,0
41174,-106.382978723404,4,2,1,30,0,0
41924,461.538461538462,4,2,1,30,1,8
41924,-86.9565217391304,4,2,1,30,0,8
42154,384.615384615385,4,2,1,30,1,8
42154,-104.166666666667,4,2,1,30,0,8
42634,454.545454545455,4,2,1,30,1,8
42634,-87.719298245614,4,2,1,30,0,8
42747,394.736842105263,4,2,1,30,1,8
42747,-101.010101010101,4,2,1,30,0,8
43043,416.666666666667,4,2,1,30,1,8
43043,-96.1538461538461,4,2,1,30,0,8
43563,384.615384615385,4,2,1,30,1,0
43563,-104.166666666667,4,2,1,30,0,0
44043,340.909090909091,4,2,1,30,1,8
44043,-117.647058823529,4,2,1,30,0,8
44128,405.405405405405,4,2,1,30,1,8
44128,-99.009900990099,4,2,1,30,0,8
44330,357.142857142857,4,2,1,30,1,8
44330,-112.359550561798,4,2,1,30,0,8
44419,454.545454545455,4,2,1,30,1,8
44419,-87.719298245614,4,2,1,30,0,8
44532,384.615384615385,4,2,1,30,1,8
44532,-104.166666666667,4,2,1,30,0,8
44628,476.190476190476,4,2,1,30,1,8
44628,-84.0336134453782,4,2,1,30,0,8
44747,379.746835443038,4,2,1,30,1,8
44747,-105.263157894737,4,2,1,30,0,8
44841,333.333333333333,4,2,1,30,1,8
44841,-120.481927710843,4,2,1,30,0,8
44924,428.571428571429,4,2,1,30,1,8
44924,-93.4579439252336,4,2,1,30,0,8
45138,370.37037037037,4,2,1,30,1,0
45138,-107.52688172043,4,2,1,30,0,0
45230,428.571428571429,4,2,1,30,1,8
45230,-93.4579439252336,4,2,1,30,0,8
45872,375,4,2,1,30,1,8
45872,-106.382978723404,4,2,1,30,0,8
46059,555.555555555556,4,2,1,30,1,8
46059,-71.9424460431655,4,2,1,30,0,8
46336,476.190476190476,4,2,1,30,1,8
46336,-84.0336134453782,4,2,1,30,0,8
46812,517.241379310345,4,2,1,30,1,8
46812,-77.5193798449612,4,2,1,30,0,8
47199,625,4,2,1,30,1,0
47199,-64.1025641025641,4,2,1,30,0,0
47511,400,4,2,1,30,1,8
47611,500,4,2,1,30,1,8
47611,-80,4,2,1,30,0,8
47736,422.535211267606,4,2,1,30,1,8
47736,-94.3396226415094,4,2,1,30,0,8
48369,454.545454545455,4,2,1,30,1,8
48369,-87.719298245614,4,2,1,30,0,8
49278,517.241379310345,4,2,1,30,1,8
49278,-77.5193798449612,4,2,1,30,0,8
49924,810.810810810811,4,2,1,30,1,8
49924,-49.2610837438424,4,2,1,30,0,8
50126,555.555555555556,4,2,1,30,1,0
50126,-71.9424460431655,4,2,1,30,0,0
50403,416.666666666667,4,2,1,30,1,8
50403,-96.1538461538461,4,2,1,30,0,8
50507,468.75,4,2,1,30,1,8
50507,-85.4700854700855,4,2,1,30,0,8
50858,352.941176470588,4,2,1,30,1,8
50858,-113.636363636364,4,2,1,30,0,8
50946,468.75,4,2,1,30,1,8
50946,-85.4700854700855,4,2,1,30,0,8
51297,517.241379310345,4,2,1,30,1,8
51297,-77.5193798449612,4,2,1,30,0,8
51426,400,4,2,1,30,1,8
51526,340.909090909091,4,2,1,30,1,8
51526,-117.647058823529,4,2,1,30,0,8
51824,476.190476190476,4,2,1,30,1,8
51824,-84.0336134453782,4,2,1,30,0,8
51943,416.666666666667,4,2,1,30,1,8
51943,-96.1538461538461,4,2,1,30,0,8
52047,491.803278688525,4,2,1,30,1,8
52047,-81.3008130081301,4,2,1,30,0,8
52415,576.923076923077,4,2,1,30,1,8
52415,-69.4444444444444,4,2,1,30,0,8
52703,750,4,2,1,30,1,8
52703,-53.1914893617021,4,2,1,30,0,8
53078,428.571428571429,4,2,1,30,1,0
53078,-93.4579439252336,4,2,1,30,0,0
53399,517.241379310345,4,2,1,30,1,8
53399,-77.5193798449612,4,2,1,30,0,8
53528,408.163265306122,4,2,1,30,1,8
53528,-98.0392156862745,4,2,1,30,0,8
54038,714.285714285714,4,2,1,30,1,8
54038,-55.8659217877095,4,2,1,30,0,8
54216,277.777777777778,4,2,1,30,1,8
54216,-144.927536231884,4,2,1,30,0,8
54285,428.571428571429,4,2,1,30,1,8
54285,-93.4579439252336,4,2,1,30,0,8
54820,400,4,2,1,30,1,0
55220,535.714285714286,4,2,1,30,1,8
55220,-74.6268656716418,4,2,1,30,0,8
55487,434.782608695652,4,2,1,30,1,8
55487,-91.743119266055,4,2,1,30,0,8
55704,400,4,2,1,30,1,8
56104,361.44578313253,4,2,1,30,1,8
56104,-111.111111111111,4,2,1,30,0,8
56194,422.535211267606,4,2,1,30,1,8
56194,-94.3396226415094,4,2,1,30,0,8
56510,422.535211267606,4,2,1,30,1,0
56510,-94.3396226415094,4,2,1,30,0,0
56721,357.142857142857,4,2,1,30,1,8
56721,-112.359550561798,4,2,1,30,0,8
56988,441.176470588235,4,2,1,30,1,8
56988,-90.9090909090909,4,2,1,30,0,8
57208,340.909090909091,4,2,1,30,1,8
57208,-117.647058823529,4,2,1,30,0,8
57293,400,4,2,1,30,1,8
57493,312.5,4,2,1,30,1,8
57493,-128.205128205128,4,2,1,30,0,8
57571,400,4,2,1,30,1,8
57871,434.782608695652,4,2,1,30,1,8
57871,-91.743119266055,4,2,1,30,0,8
58197,384.615384615385,4,2,1,30,1,8
58197,-104.166666666667,4,2,1,30,0,8
58677,444.444444444444,4,2,1,30,1,8
58677,-90.0900900900901,4,2,1,30,0,8
58899,400,4,2,1,30,1,0
58999,476.190476190476,4,2,1,30,1,8
58999,-84.0336134453782,4,2,1,30,0,8
59118,384.615384615385,4,2,1,30,1,8
59118,-104.166666666667,4,2,1,30,0,8
59214,428.571428571429,4,2,1,30,1,8
59214,-93.4579439252336,4,2,1,30,0,8
59321,535.714285714286,4,2,1,30,1,8
59321,-74.6268656716418,4,2,1,30,0,8
59454,416.666666666667,4,2,1,30,1,8
59454,-96.1538461538461,4,2,1,30,0,8
59662,375,4,2,1,30,1,8
59662,-106.382978723404,4,2,1,30,0,8
59755,500,4,2,1,30,1,8
59755,-80,4,2,1,30,0,8
59880,312.5,4,2,1,30,1,8
59880,-128.205128205128,4,2,1,30,0,8
59958,375,4,2,1,30,1,8
59958,-106.382978723404,4,2,1,30,0,8
60051,454.545454545455,4,2,1,30,1,8
60051,-87.719298245614,4,2,1,30,0,8
60278,340.909090909091,4,2,1,30,1,8
60278,-117.647058823529,4,2,1,30,0,8
60363,416.666666666667,4,2,1,30,1,8
60363,-96.1538461538461,4,2,1,30,0,8
60571,416.666666666667,4,2,1,30,1,0
60571,-96.1538461538461,4,2,1,30,0,0
60987,344.827586206897,4,2,1,30,1,8
60987,-116.279069767442,4,2,1,30,0,8
61073,555.555555555556,4,2,1,30,1,8
61073,-71.9424460431655,4,2,1,30,0,8
61211,375,4,2,1,30,1,8
61211,-106.382978723404,4,2,1,30,0,8
61398,408.163265306122,4,2,1,30,1,8
61398,-98.0392156862745,4,2,1,30,0,8
62010,357.142857142857,4,2,1,30,1,8
62010,-112.359550561798,4,2,1,30,0,8
62099,476.190476190476,4,2,1,30,1,8
62099,-84.0336134453782,4,2,1,30,0,8
62218,408.163265306122,4,2,1,30,1,0
62218,-98.0392156862745,4,2,1,30,0,0
62626,375,4,2,1,30,1,8
62626,-106.382978723404,4,2,1,30,0,8
62719,454.545454545455,4,2,1,30,1,8
62719,-87.719298245614,4,2,1,30,0,8
62832,416.666666666667,4,2,1,30,1,8
62832,-96.1538461538461,4,2,1,30,0,8
63873,416.666666666667,4,2,1,30,1,0
63873,-96.1538461538461,4,2,1,30,0,0
64914,434.782608695652,4,2,1,30,1,8
64914,-91.743119266055,4,2,1,30,0,8
65457,652.173913043478,4,2,1,30,1,8
65457,-61.3496932515337,4,2,1,30,0,8
65620,375,4,2,1,30,1,0
65620,-106.382978723404,4,2,1,30,0,0
65995,306.122448979592,4,2,1,30,1,8
65995,-129.87012987013,4,2,1,30,0,8
66071,416.666666666667,4,2,1,30,1,8
66071,-96.1538461538461,4,2,1,30,0,8
66279,326.086956521739,4,2,1,30,1,8
66279,-121.951219512195,4,2,1,30,0,8
66360,375,4,2,1,30,1,8
66360,-106.382978723404,4,2,1,30,0,8
66547,400,4,2,1,30,1,8
66847,416.666666666667,4,2,1,30,1,8
66847,-96.1538461538461,4,2,1,30,0,8
67159,384.615384615385,4,2,1,30,1,0
67159,-104.166666666667,4,2,1,30,0,0
67351,476.190476190476,4,2,1,30,1,8
67351,-84.0336134453782,4,2,1,30,0,8
67470,384.615384615385,4,2,1,30,1,8
67470,-104.166666666667,4,2,1,30,0,8
67854,576.923076923077,4,2,1,30,1,8
67854,-69.4444444444444,4,2,1,30,0,8
67998,425.531914893617,4,2,1,30,1,8
67998,-94.3396226415094,4,2,1,30,0,8
68849,425.531914893617,4,2,1,30,1,0
68849,-94.3396226415094,4,2,1,30,0,0
70976,416.666666666667,4,2,1,30,1,8
70976,-96.1538461538461,4,2,1,30,0,8
71809,375,4,2,1,30,1,8
71809,-106.382978723404,4,2,1,30,0,8
72090,545.454545454546,4,2,1,30,1,8
72090,-73.5294117647059,4,2,1,30,0,8
72226,400,4,2,1,30,1,0
72526,517.241379310345,4,2,1,30,1,8
72526,-77.5193798449612,4,2,1,30,0,8
72655,454.545454545455,4,2,1,30,1,8
72655,-87.719298245614,4,2,1,30,0,8
73109,384.615384615385,4,2,1,30,1,8
73109,-104.166666666667,4,2,1,30,0,8
73301,447.761194029851,4,2,1,30,1,8
73301,-89.2857142857143,4,2,1,30,0,8
73972,428.571428571429,4,2,1,30,1,0
73972,-93.4579439252336,4,2,1,30,0,0
74293,384.615384615385,4,2,1,30,1,8
74293,-104.166666666667,4,2,1,30,0,8
74389,428.571428571429,4,2,1,30,1,8
74389,-93.4579439252336,4,2,1,30,0,8
75460,400,4,2,1,30,1,8
75660,441.176470588235,4,2,1,30,1,0
75660,-90.9090909090909,4,2,1,30,0,0
76211,400,4,2,1,30,1,8
76311,428.571428571429,4,2,1,30,1,8
76311,-93.4579439252336,4,2,1,30,0,8
76525,400,4,2,1,30,1,8
76725,454.545454545455,4,2,1,30,1,8
76725,-87.719298245614,4,2,1,30,0,8
76952,400,4,2,1,30,1,8
77052,454.545454545455,4,2,1,30,1,8
77052,-87.719298245614,4,2,1,30,0,8
77279,400,4,2,1,30,1,8
77379,400,4,2,1,30,1,0
77679,487.80487804878,4,2,1,30,1,8
77679,-81.9672131147541,4,2,1,30,0,8
77800,434.782608695652,4,2,1,30,1,8
77800,-91.743119266055,4,2,1,30,0,8
78234,333.333333333333,4,2,1,30,1,8
78234,-120.481927710843,4,2,1,30,0,8
78317,454.545454545455,4,2,1,30,1,8
78317,-87.719298245614,4,2,1,30,0,8
78657,500,4,2,1,30,1,8
78657,-80,4,2,1,30,0,8
79032,576.923076923077,4,2,1,30,1,8
79032,-69.4444444444444,4,2,1,30,0,8
79176,666.666666666667,4,2,1,30,1,0
79176,-59.8802395209581,4,2,1,30,0,0
79342,545.454545454546,4,2,1,30,1,8
79342,-73.5294117647059,4,2,1,30,0,8
79478,428.571428571429,4,2,1,30,1,8
79478,-93.4579439252336,4,2,1,30,0,8
79585,476.190476190476,4,2,1,30,1,8
79585,-84.0336134453782,4,2,1,30,0,8
79942,300,4,2,1,30,1,8
79942,-133.333333333333,4,2,1,30,0,8
80017,416.666666666667,4,2,1,30,1,8
80017,-96.1538461538461,4,2,1,30,0,8
80121,340.909090909091,4,2,1,30,1,8
80121,-117.647058823529,4,2,1,30,0,8
80206,441.176470588235,4,2,1,30,1,8
80206,-90.9090909090909,4,2,1,30,0,8
80316,517.241379310345,4,2,1,30,1,8
80316,-77.5193798449612,4,2,1,30,0,8
80445,428.571428571429,4,2,1,30,1,8
80445,-93.4579439252336,4,2,1,30,0,8
80659,500,4,2,1,30,1,8
80659,-80,4,2,1,30,0,8
80909,789.473684210526,4,2,1,30,1,8
80909,-50.761421319797,4,2,1,30,0,8
81106,625,4,2,1,30,1,0
81106,-64.1025641025641,4,2,1,30,0,0
81731,789.473684210526,4,2,1,30,1,8
81731,-50.761421319797,4,2,1,30,0,8
82125,500,4,2,1,30,1,8
82125,-80,4,2,1,30,0,8
82250,384.615384615385,4,2,1,30,1,8
82250,-104.166666666667,4,2,1,30,0,8
82346,454.545454545455,4,2,1,30,1,8
82346,-87.719298245614,4,2,1,30,0,8
82914,454.545454545455,4,2,1,30,1,0
82914,-87.719298245614,4,2,1,30,0,0
83027,750,4,2,1,30,1,8
83027,-53.1914893617021,4,2,1,30,0,8
83214,576.923076923077,4,2,1,30,1,8
83214,-69.4444444444444,4,2,1,30,0,8
83358,857.142857142857,4,2,1,30,1,8
83358,-46.7289719626168,4,2,1,30,0,8
83572,461.538461538462,4,2,1,30,1,8
83572,-86.9565217391304,4,2,1,30,0,8
84033,333.333333333333,4,2,1,30,1,8
84033,-120.481927710843,4,2,1,30,0,8
84116,555.555555555556,4,2,1,30,1,8
84116,-71.9424460431655,4,2,1,30,0,8
84254,326.086956521739,4,2,1,30,1,8
84254,-121.951219512195,4,2,1,30,0,8
84335,384.615384615385,4,2,1,30,1,8
84335,-104.166666666667,4,2,1,30,0,8
84623,461.538461538462,4,2,1,30,1,8
84623,-86.9565217391304,4,2,1,30,0,8
84969,750,4,2,1,30,1,8
84969,-53.1914893617021,4,2,1,30,0,8
85156,535.714285714286,4,2,1,30,1,8
85156,-74.6268656716418,4,2,1,30,0,8
85557,697.674418604651,4,2,1,30,1,8
85557,-57.4712643678161,4,2,1,30,0,8
85731,697.674418604651,4,2,1,30,1,0
85731,-57.4712643678161,4,2,1,30,0,0
85905,384.615384615385,4,2,1,30,1,8
85905,-104.166666666667,4,2,1,30,0,8
86001,434.782608695652,4,2,1,30,1,8
86001,-91.743119266055,4,2,1,30,0,8
86653,555.555555555556,4,2,1,30,1,8
86653,-71.9424460431655,4,2,1,30,0,8
86791,434.782608695652,4,2,1,30,1,8
86791,-91.743119266055,4,2,1,30,0,8
86899,555.555555555556,4,2,1,30,1,8
86899,-71.9424460431655,4,2,1,30,0,8
87037,434.782608695652,4,2,1,30,1,8
87037,-91.743119266055,4,2,1,30,0,8
87363,306.122448979592,4,2,1,30,1,8
87363,-129.87012987013,4,2,1,30,0,8
87439,454.545454545455,4,2,1,30,1,8
87439,-87.719298245614,4,2,1,30,0,8
87552,454.545454545455,4,2,1,30,1,0
87552,-87.719298245614,4,2,1,30,0,0
87892,416.666666666667,4,2,1,30,1,8
87892,-96.1538461538461,4,2,1,30,0,8
88412,476.190476190476,4,2,1,30,1,8
88412,-84.0336134453782,4,2,1,30,0,8
88888,517.241379310345,4,2,1,30,1,8
88888,-77.5193798449612,4,2,1,30,0,8
89275,1000,4,2,1,30,1,8
89275,-40,4,2,1,30,0,8
89525,625,4,2,1,30,1,0
89525,-64.1025641025641,4,2,1,30,0,0
89681,400,4,2,1,30,1,8
89881,500,4,2,1,30,1,8
89881,-80,4,2,1,30,0,8
90006,375,4,2,1,30,1,8
90006,-106.382978723404,4,2,1,30,0,8
90099,500,4,2,1,30,1,8
90099,-80,4,2,1,30,0,8
90599,441.176470588235,4,2,1,30,1,8
90599,-90.9090909090909,4,2,1,30,0,8
91040,384.615384615385,4,2,1,30,1,8
91040,-104.166666666667,4,2,1,30,0,8
91328,447.761194029851,4,2,1,30,1,0
91328,-89.2857142857143,4,2,1,30,0,0
91775,400,4,2,1,30,1,8
91975,500,4,2,1,30,1,8
91975,-80,4,2,1,30,0,8
92225,434.782608695652,4,2,1,30,1,8
92225,-91.743119266055,4,2,1,30,0,8
92877,500,4,2,1,30,1,8
92877,-80,4,2,1,30,0,8
93127,375,4,2,1,30,1,0
93127,-106.382978723404,4,2,1,30,0,0
93408,555.555555555556,4,2,1,30,1,8
93408,-71.9424460431655,4,2,1,30,0,8
93546,857.142857142857,4,2,1,30,1,8
93546,-46.7289719626168,4,2,1,30,0,8
93760,476.190476190476,4,2,1,30,1,8
93760,-84.0336134453782,4,2,1,30,0,8
94117,370.37037037037,4,2,1,30,1,8
94117,-107.52688172043,4,2,1,30,0,8
94209,428.571428571429,4,2,1,30,1,8
94209,-93.4579439252336,4,2,1,30,0,8
94851,625,4,2,1,30,1,8
94851,-64.1025641025641,4,2,1,30,0,8
95007,384.615384615385,4,2,1,30,1,8
95007,-104.166666666667,4,2,1,30,0,8
95103,454.545454545455,4,2,1,30,1,0
95103,-87.719298245614,4,2,1,30,0,0
95216,576.923076923077,4,2,1,30,1,8
95216,-69.4444444444444,4,2,1,30,0,8
95360,400,4,2,1,30,1,8
95960,545.454545454546,4,2,1,30,1,8
95960,-73.5294117647059,4,2,1,30,0,8
96096,333.333333333333,4,2,1,30,1,8
96096,-120.481927710843,4,2,1,30,0,8
96179,600,4,2,1,30,1,8
96179,-66.6666666666667,4,2,1,30,0,8
96329,272.727272727273,4,2,1,30,1,8
96329,-147.058823529412,4,2,1,30,0,8
96397,400,4,2,1,30,1,8
96497,476.190476190476,4,2,1,30,1,8
96497,-84.0336134453782,4,2,1,30,0,8
96854,476.190476190476,4,2,1,30,1,0
96854,-84.0336134453782,4,2,1,30,0,0
96973,545.454545454546,4,2,1,30,1,8
96973,-73.5294117647059,4,2,1,30,0,8
97109,416.666666666667,4,2,1,30,1,8
97109,-96.1538461538461,4,2,1,30,0,8
97213,882.352941176471,4,2,1,30,1,8
97213,-45.2488687782805,4,2,1,30,0,8
97433,468.75,4,2,1,30,1,8
97433,-85.4700854700855,4,2,1,30,0,8
97784,400,4,2,1,30,1,8
98184,476.190476190476,4,2,1,30,1,8
98184,-84.0336134453782,4,2,1,30,0,8
98303,652.173913043478,4,2,1,30,1,8
98303,-61.3496932515337,4,2,1,30,0,8
98466,357.142857142857,4,2,1,30,1,8
98466,-112.359550561798,4,2,1,30,0,8
98555,526.315789473684,4,2,1,30,1,8
98555,-75.7575757575758,4,2,1,30,0,8
98818,600,4,2,1,30,1,0
98818,-66.6666666666667,4,2,1,30,0,0
98968,833.333333333333,4,2,1,30,1,8
98968,-48.0769230769231,4,2,1,30,0,8
99176,240,4,2,1,30,1,8
99176,-166.666666666667,4,2,1,30,0,8
99236,461.538461538462,4,2,1,30,1,8
99236,-86.9565217391304,4,2,1,30,0,8
99466,375,4,2,1,30,1,8
99466,-106.382978723404,4,2,1,30,0,8
99559,434.782608695652,4,2,1,30,1,8
99559,-91.743119266055,4,2,1,30,0,8
99776,526.315789473684,4,2,1,30,1,8
99776,-75.7575757575758,4,2,1,30,0,8
99907,416.666666666667,4,2,1,30,1,8
99907,-96.1538461538461,4,2,1,30,0,8
100011,600,4,2,1,30,1,8
100011,-66.6666666666667,4,2,1,30,0,8
100161,352.941176470588,4,2,1,30,1,8
100161,-113.636363636364,4,2,1,30,0,8
100249,454.545454545455,4,2,1,30,1,8
100249,-87.719298245614,4,2,1,30,0,8
100362,600,4,2,1,30,1,8
100362,-66.6666666666667,4,2,1,30,0,8
100512,487.80487804878,4,2,1,30,1,8
100512,-81.9672131147541,4,2,1,30,0,8
100633,705.882352941176,4,2,1,30,1,8
100633,-56.8181818181818,4,2,1,30,0,8
100809,705.882352941176,4,2,1,30,1,0
100809,-56.8181818181818,4,2,1,30,0,0
101161,461.538461538462,4,2,1,30,1,8
101161,-86.9565217391304,4,2,1,30,0,8
101391,357.142857142857,4,2,1,30,1,8
101391,-112.359550561798,4,2,1,30,0,8
101569,555.555555555556,4,2,1,30,1,8
101569,-71.9424460431655,4,2,1,30,0,8
101707,384.615384615385,4,2,1,30,1,8
101707,-104.166666666667,4,2,1,30,0,8
101803,476.190476190476,4,2,1,30,1,8
101803,-84.0336134453782,4,2,1,30,0,8
101922,384.615384615385,4,2,1,30,1,8
101922,-104.166666666667,4,2,1,30,0,8
102018,434.782608695652,4,2,1,30,1,8
102018,-91.743119266055,4,2,1,30,0,8
102561,500,4,2,1,30,1,8
102561,-80,4,2,1,30,0,8
102686,500,4,2,1,30,1,0
102686,-80,4,2,1,30,0,0
102811,789.473684210526,4,2,1,30,1,8
102811,-50.761421319797,4,2,1,30,0,8
103008,600,4,2,1,30,1,8
103008,-66.6666666666667,4,2,1,30,0,8
103308,750,4,2,1,30,1,8
103308,-53.1914893617021,4,2,1,30,0,8
103495,600,4,2,1,30,1,8
103495,-66.6666666666667,4,2,1,30,0,8
103645,434.782608695652,4,2,1,30,1,8
103645,-91.743119266055,4,2,1,30,0,8
103862,500,4,2,1,30,1,8
103862,-80,4,2,1,30,0,8
104362,555.555555555556,4,2,1,30,1,8
104362,-71.9424460431655,4,2,1,30,0,8
104778,909.090909090909,4,2,1,30,1,8
104778,-44.0528634361233,4,2,1,30,0,8
105005,454.545454545455,4,2,1,30,1,8
105005,-87.719298245614,4,2,1,30,0,8
105118,555.555555555556,4,2,1,30,1,8
105118,-71.9424460431655,4,2,1,30,0,8
105256,306.122448979592,4,2,1,30,1,8
105256,-129.87012987013,4,2,1,30,0,8
105332,468.75,4,2,1,30,1,8
105332,-85.4700854700855,4,2,1,30,0,8
105566,422.535211267606,4,2,1,30,1,8
105566,-94.3396226415094,4,2,1,30,0,8
105882,422.535211267606,4,2,1,30,1,0
105882,-94.3396226415094,4,2,1,30,0,0
107572,413.793103448276,4,2,1,30,1,0
107572,-97.0873786407767,4,2,1,30,0,0
108192,434.782608695652,4,2,1,30,1,8
108192,-91.743119266055,4,2,1,30,0,8
108518,365.853658536585,4,2,1,30,1,8
108518,-109.89010989011,4,2,1,30,0,8
108700,422.535211267606,4,2,1,30,1,8
108700,-94.3396226415094,4,2,1,30,0,8
109228,400,4,2,1,30,1,0
109528,441.176470588235,4,2,1,30,1,8
109528,-90.9090909090909,4,2,1,30,0,8
109748,416.666666666667,4,2,1,30,1,8
109748,-96.1538461538461,4,2,1,30,0,8
110477,384.615384615385,4,2,1,30,1,8
110477,-104.166666666667,4,2,1,30,0,8
110765,476.190476190476,4,2,1,30,1,8
110765,-84.0336134453782,4,2,1,30,0,8
110884,375,4,2,1,30,1,0
110884,-106.382978723404,4,2,1,30,0,0
110977,422.535211267606,4,2,1,30,1,8
110977,-94.3396226415094,4,2,1,30,0,8
111399,375,4,2,1,30,1,8
111399,-106.382978723404,4,2,1,30,0,8
111586,468.75,4,2,1,30,1,8
111586,-85.4700854700855,4,2,1,30,0,8
111820,422.535211267606,4,2,1,30,1,8
111820,-94.3396226415094,4,2,1,30,0,8
111925,384.615384615385,4,2,1,30,1,8
111925,-104.166666666667,4,2,1,30,0,8
112021,454.545454545455,4,2,1,30,1,8
112021,-87.719298245614,4,2,1,30,0,8
112134,400,4,2,1,30,1,8
112434,652.173913043478,4,2,1,30,1,8
112434,-61.3496932515337,4,2,1,30,0,8
112597,441.176470588235,4,2,1,30,1,0
112597,-90.9090909090909,4,2,1,30,0,0
113148,400,4,2,1,30,1,8
113248,312.5,4,2,1,30,1,8
113248,-128.205128205128,4,2,1,30,0,8
113326,375,4,2,1,30,1,8
113326,-106.382978723404,4,2,1,30,0,8
113419,384.615384615385,4,2,1,30,1,8
113419,-104.166666666667,4,2,1,30,0,8
113803,454.545454545455,4,2,1,30,1,8
113803,-87.719298245614,4,2,1,30,0,8
113916,365.853658536585,4,2,1,30,1,8
113916,-109.89010989011,4,2,1,30,0,8
114190,476.190476190476,4,2,1,30,1,0
114190,-84.0336134453782,4,2,1,30,0,0
114428,352.941176470588,4,2,1,30,1,8
114428,-113.636363636364,4,2,1,30,0,8
114604,384.615384615385,4,2,1,30,1,8
114604,-104.166666666667,4,2,1,30,0,8
114892,500,4,2,1,30,1,8
114892,-80,4,2,1,30,0,8
115142,384.615384615385,4,2,1,30,1,8
115142,-104.166666666667,4,2,1,30,0,8
115718,422.535211267606,4,2,1,30,1,8
115718,-94.3396226415094,4,2,1,30,0,8
115823,422.535211267606,4,2,1,30,1,0
115823,-94.3396226415094,4,2,1,30,0,0
116139,400,4,2,1,30,1,8
116839,348.837209302326,4,2,1,30,1,8
116839,-114.942528735632,4,2,1,30,0,8
117100,441.176470588235,4,2,1,30,1,8
117100,-90.9090909090909,4,2,1,30,0,8
117320,337.078651685393,4,2,1,30,1,8
117320,-119.047619047619,4,2,1,30,0,8
117404,400,4,2,1,30,1,0
117504,428.571428571429,4,2,1,30,1,8
117504,-93.4579439252336,4,2,1,30,0,8
117718,240,4,2,1,30,1,8
117718,-166.666666666667,4,2,1,30,0,8
117778,379.746835443038,4,2,1,30,1,8
117778,-105.263157894737,4,2,1,30,0,8
118347,500,4,2,1,30,1,8
118347,-80,4,2,1,30,0,8
118472,714.285714285714,4,2,1,30,1,8
118472,-55.8659217877095,4,2,1,30,0,8
118650,517.241379310345,4,2,1,30,1,8
118650,-77.5193798449612,4,2,1,30,0,8
118908,333.333333333333,4,2,1,30,1,8
118908,-120.481927710843,4,2,1,30,0,8
119158,375,4,2,1,30,1,8
119158,-106.382978723404,4,2,1,30,0,8
119345,277.777777777778,4,2,1,30,1,8
119345,-144.927536231884,4,2,1,30,0,8
119414,357.142857142857,4,2,1,30,1,8
119414,-112.359550561798,4,2,1,30,0,8
119771,357.142857142857,4,2,1,30,1,0
119771,-112.359550561798,4,2,1,30,0,0
119860,476.190476190476,4,2,1,30,1,8
119860,-84.0336134453782,4,2,1,30,0,8
119979,416.666666666667,4,2,1,30,1,8
119979,-96.1538461538461,4,2,1,30,0,8
120187,357.142857142857,4,2,1,30,1,8
120187,-112.359550561798,4,2,1,30,0,8
120276,384.615384615385,4,2,1,30,1,8
120276,-104.166666666667,4,2,1,30,0,8
120564,416.666666666667,4,2,1,30,1,8
120564,-96.1538461538461,4,2,1,30,0,8
120980,357.142857142857,4,2,1,30,1,8
120980,-112.359550561798,4,2,1,30,0,8
121158,454.545454545455,4,2,1,30,1,8
121158,-87.719298245614,4,2,1,30,0,8
121385,500,4,2,1,30,1,0
121385,-80,4,2,1,30,0,0
121635,434.782608695652,4,2,1,30,1,8
121635,-91.743119266055,4,2,1,30,0,8
122287,277.777777777778,4,2,1,30,1,8
122287,-144.927536231884,4,2,1,30,0,8
122356,535.714285714286,4,2,1,30,1,8
122356,-74.6268656716418,4,2,1,30,0,8
122489,454.545454545455,4,2,1,30,1,8
122489,-87.719298245614,4,2,1,30,0,8
122602,357.142857142857,4,2,1,30,1,8
122602,-112.359550561798,4,2,1,30,0,8
122691,461.538461538462,4,2,1,30,1,8
122691,-86.9565217391304,4,2,1,30,0,8
123152,461.538461538462,4,2,1,30,1,0
123152,-86.9565217391304,4,2,1,30,0,0
123613,521.739130434783,4,2,1,30,1,8
123613,-76.9230769230769,4,2,1,30,0,8
123743,461.538461538462,4,2,1,30,1,8
123743,-86.9565217391304,4,2,1,30,0,8
123973,600,4,2,1,30,1,8
123973,-66.6666666666667,4,2,1,30,0,8
124123,434.782608695652,4,2,1,30,1,8
124123,-91.743119266055,4,2,1,30,0,8
124231,576.923076923077,4,2,1,30,1,8
124231,-69.4444444444444,4,2,1,30,0,8
124375,340.909090909091,4,2,1,30,1,8
124375,-117.647058823529,4,2,1,30,0,8
124460,400,4,2,1,30,1,8
124960,400,4,2,1,30,1,0
125360,454.545454545455,4,2,1,30,1,8
125360,-87.719298245614,4,2,1,30,0,8
125473,389.61038961039,4,2,1,30,1,8
125473,-103.092783505155,4,2,1,30,0,8
125765,434.782608695652,4,2,1,30,1,8
125765,-91.743119266055,4,2,1,30,0,8
126091,300,4,2,1,30,1,8
126091,-133.333333333333,4,2,1,30,0,8
126166,476.190476190476,4,2,1,30,1,8
126166,-84.0336134453782,4,2,1,30,0,8
126285,348.837209302326,4,2,1,30,1,8
126285,-114.942528735632,4,2,1,30,0,8
126372,416.666666666667,4,2,1,30,1,8
126372,-96.1538461538461,4,2,1,30,0,8
126580,416.666666666667,4,2,1,30,1,0
126580,-96.1538461538461,4,2,1,30,0,0
126788,400,4,2,1,30,1,8
127788,357.142857142857,4,2,1,30,1,8
127788,-112.359550561798,4,2,1,30,0,8
127877,416.666666666667,4,2,1,30,1,8
127877,-96.1538461538461,4,2,1,30,0,8
128189,416.666666666667,4,2,1,30,1,0
128189,-96.1538461538461,4,2,1,30,0,0
128397,476.190476190476,4,2,1,30,1,8
128397,-84.0336134453782,4,2,1,30,0,8
128516,400,4,2,1,30,1,8
129316,476.190476190476,4,2,1,30,1,8
129316,-84.0336134453782,4,2,1,30,0,8
129435,400,4,2,1,30,1,8
129635,500,4,2,1,30,1,8
129635,-80,4,2,1,30,0,8
129885,400,4,2,1,30,1,0
130285,422.535211267606,4,2,1,30,1,8
130285,-94.3396226415094,4,2,1,30,0,8
131552,422.535211267606,4,2,1,30,1,0
131552,-94.3396226415094,4,2,1,30,0,0
131974,400,4,2,1,30,1,8
132574,434.782608695652,4,2,1,30,1,8
132574,-91.743119266055,4,2,1,30,0,8
133117,882.352941176471,4,2,1,30,1,8
133117,-45.2488687782805,4,2,1,30,0,8
133337,441.176470588235,4,2,1,30,1,0
133337,-90.9090909090909,4,2,1,30,0,0
133667,521.739130434783,4,2,1,30,1,8
133667,-76.9230769230769,4,2,1,30,0,8
133797,428.571428571429,4,2,1,30,1,8
133797,-93.4579439252336,4,2,1,30,0,8
133904,500,4,2,1,30,1,8
133904,-80,4,2,1,30,0,8
134029,370.37037037037,4,2,1,30,1,8
134029,-107.52688172043,4,2,1,30,0,8
134121,326.086956521739,4,2,1,30,1,8
134121,-121.951219512195,4,2,1,30,0,8
134202,416.666666666667,4,2,1,30,1,8
134202,-96.1538461538461,4,2,1,30,0,8
134514,535.714285714286,4,2,1,30,1,8
134514,-74.6268656716418,4,2,1,30,0,8
134647,384.615384615385,4,2,1,30,1,8
134647,-104.166666666667,4,2,1,30,0,8
134743,476.190476190476,4,2,1,30,1,8
134743,-84.0336134453782,4,2,1,30,0,8
134862,416.666666666667,4,2,1,30,1,8
134862,-96.1538461538461,4,2,1,30,0,8
135070,375,4,2,1,30,1,0
135070,-106.382978723404,4,2,1,30,0,0
135163,428.571428571429,4,2,1,30,1,8
135163,-93.4579439252336,4,2,1,30,0,8
135698,384.615384615385,4,2,1,30,1,8
135698,-104.166666666667,4,2,1,30,0,8
135890,500,4,2,1,30,1,8
135890,-80,4,2,1,30,0,8
136140,357.142857142857,4,2,1,30,1,8
136140,-112.359550561798,4,2,1,30,0,8
136318,422.535211267606,4,2,1,30,1,8
136318,-94.3396226415094,4,2,1,30,0,8
137585,400,4,2,1,30,1,0
138385,389.61038961039,4,2,1,30,1,8
138385,-103.092783505155,4,2,1,30,0,8
139164,500,4,2,1,30,1,0
139164,-80,4,2,1,30,0,0
139289,375,4,2,1,30,1,8
139289,-106.382978723404,4,2,1,30,0,8
139382,434.782608695652,4,2,1,30,1,8
139382,-91.743119266055,4,2,1,30,0,8
139599,384.615384615385,4,2,1,30,1,8
139599,-104.166666666667,4,2,1,30,0,8
139887,454.545454545455,4,2,1,30,1,8
139887,-87.719298245614,4,2,1,30,0,8
140000,375,4,2,1,30,1,8
140000,-106.382978723404,4,2,1,30,0,8
140093,405.405405405405,4,2,1,30,1,8
140093,-99.009900990099,4,2,1,30,0,8
140599,357.142857142857,4,2,1,30,1,8
140599,-112.359550561798,4,2,1,30,0,8
140688,560.747663551402,4,2,1,30,1,8
140688,-71.4285714285714,4,2,1,30,0,8
140828,434.782608695652,4,2,1,30,1,0
140828,-91.743119266055,4,2,1,30,0,0
141045,333.333333333333,4,2,1,30,1,8
141045,-120.481927710843,4,2,1,30,0,8
141128,422.535211267606,4,2,1,30,1,8
141128,-94.3396226415094,4,2,1,30,0,8
141656,410.958904109589,4,2,1,30,1,8
141656,-97.0873786407767,4,2,1,30,0,8
142477,410.958904109589,4,2,1,30,1,0
142477,-97.0873786407767,4,2,1,30,0,0
142682,361.44578313253,4,2,1,30,1,8
142682,-111.111111111111,4,2,1,30,0,8
142772,476.190476190476,4,2,1,30,1,8
142772,-84.0336134453782,4,2,1,30,0,8
142891,416.666666666667,4,2,1,30,1,8
142891,-96.1538461538461,4,2,1,30,0,8
143411,357.142857142857,4,2,1,30,1,8
143411,-112.359550561798,4,2,1,30,0,8
143500,434.782608695652,4,2,1,30,1,8
143500,-91.743119266055,4,2,1,30,0,8
144043,1111.11111111111,4,2,1,30,1,8
144043,-35.9712230215827,4,2,1,30,0,8
144320,576.923076923077,4,2,1,30,1,0
144320,-69.4444444444444,4,2,1,30,0,0
144464,375,4,2,1,30,1,8
144464,-106.382978723404,4,2,1,30,0,8
144839,625,4,2,1,30,1,8
144839,-64.1025641025641,4,2,1,30,0,8
144995,434.782608695652,4,2,1,30,1,8
144995,-91.743119266055,4,2,1,30,0,8
145538,600,4,2,1,30,1,8
145538,-66.6666666666667,4,2,1,30,0,8
145838,434.782608695652,4,2,1,30,1,8
145838,-91.743119266055,4,2,1,30,0,8
145946,545.454545454546,4,2,1,30,1,8
145946,-73.5294117647059,4,2,1,30,0,8
146082,333.333333333333,4,2,1,30,1,0
146082,-120.481927710843,4,2,1,30,0,0
146165,652.173913043478,4,2,1,30,1,8
146165,-61.3496932515337,4,2,1,30,0,8
146328,326.086956521739,4,2,1,30,1,8
146328,-121.951219512195,4,2,1,30,0,8
146491,476.190476190476,4,2,1,30,1,8
146491,-84.0336134453782,4,2,1,30,0,8
146610,600,4,2,1,30,1,8
146610,-66.6666666666667,4,2,1,30,0,8
146760,300,4,2,1,30,1,8
146760,-133.333333333333,4,2,1,30,0,8
146910,428.571428571429,4,2,1,30,1,8
146910,-93.4579439252336,4,2,1,30,0,8
147124,384.615384615385,4,2,1,30,1,8
147124,-104.166666666667,4,2,1,30,0,8
147220,468.75,4,2,1,30,1,8
147220,-85.4700854700855,4,2,1,30,0,8
147337,326.086956521739,4,2,1,30,1,8
147337,-121.951219512195,4,2,1,30,0,8
147418,517.241379310345,4,2,1,30,1,8
147418,-77.5193798449612,4,2,1,30,0,8
147547,326.086956521739,4,2,1,30,1,8
147547,-121.951219512195,4,2,1,30,0,8
147628,681.818181818182,4,2,1,30,1,8
147628,-58.8235294117647,4,2,1,30,0,8
147798,441.176470588235,4,2,1,30,1,8
147798,-90.9090909090909,4,2,1,30,0,8
148128,365.853658536585,4,2,1,30,1,8
148128,-109.89010989011,4,2,1,30,0,8
148585,400,4,2,1,30,1,0
148985,357.142857142857,4,2,1,30,1,8
148985,-112.359550561798,4,2,1,30,0,8
149074,454.545454545455,4,2,1,30,1,8
149074,-87.719298245614,4,2,1,30,0,8
149187,375,4,2,1,30,1,8
149187,-106.382978723404,4,2,1,30,0,8
149468,454.545454545455,4,2,1,30,1,8
149468,-87.719298245614,4,2,1,30,0,8
149581,384.615384615385,4,2,1,30,1,8
149581,-104.166666666667,4,2,1,30,0,8
149965,326.086956521739,4,2,1,30,1,8
149965,-121.951219512195,4,2,1,30,0,8
150046,555.555555555556,4,2,1,30,1,8
150046,-71.9424460431655,4,2,1,30,0,8
150184,428.571428571429,4,2,1,30,1,0
150184,-93.4579439252336,4,2,1,30,0,0
150612,400,4,2,1,30,1,8
150912,500,4,2,1,30,1,8
150912,-80,4,2,1,30,0,8
151037,400,4,2,1,30,1,8
151537,326.086956521739,4,2,1,30,1,8
151537,-121.951219512195,4,2,1,30,0,8
151618,400,4,2,1,30,1,8
151818,434.782608695652,4,2,1,30,1,0
151818,-91.743119266055,4,2,1,30,0,0
152252,389.61038961039,4,2,1,30,1,8
152252,-103.092783505155,4,2,1,30,0,8
152641,434.782608695652,4,2,1,30,1,8
152641,-91.743119266055,4,2,1,30,0,8
152858,384.615384615385,4,2,1,30,1,8
152858,-104.166666666667,4,2,1,30,0,8
152954,422.535211267606,4,2,1,30,1,8
152954,-94.3396226415094,4,2,1,30,0,8
153059,384.615384615385,4,2,1,30,1,8
153059,-104.166666666667,4,2,1,30,0,8
153155,454.545454545455,4,2,1,30,1,8
153155,-87.719298245614,4,2,1,30,0,8
153268,326.086956521739,4,2,1,30,1,8
153268,-121.951219512195,4,2,1,30,0,8
153431,428.571428571429,4,2,1,30,1,0
153431,-93.4579439252336,4,2,1,30,0,0
153859,400,4,2,1,30,1,8
154359,461.538461538462,4,2,1,30,1,8
154359,-86.9565217391304,4,2,1,30,0,8
154705,357.142857142857,4,2,1,30,1,8
154705,-112.359550561798,4,2,1,30,0,8
154794,461.538461538462,4,2,1,30,1,8
154794,-86.9565217391304,4,2,1,30,0,8
155140,434.782608695652,4,2,1,30,1,0
155140,-91.743119266055,4,2,1,30,0,0
156226,416.666666666667,4,2,1,30,1,8
156226,-96.1538461538461,4,2,1,30,0,8
156642,461.538461538462,4,2,1,30,1,8
156642,-86.9565217391304,4,2,1,30,0,8
156872,416.666666666667,4,2,1,30,1,0
156872,-96.1538461538461,4,2,1,30,0,0
157705,394.736842105263,4,2,1,30,1,8
157705,-101.010101010101,4,2,1,30,0,8
158297,500,4,2,1,30,1,8
158297,-80,4,2,1,30,0,8
158547,422.535211267606,4,2,1,30,1,0
158547,-94.3396226415094,4,2,1,30,0,0
159180,394.736842105263,4,2,1,30,1,8
159180,-101.010101010101,4,2,1,30,0,8
159574,416.666666666667,4,2,1,30,1,8
159574,-96.1538461538461,4,2,1,30,0,8
159782,384.615384615385,4,2,1,30,1,8
159782,-104.166666666667,4,2,1,30,0,8
159974,468.75,4,2,1,30,1,8
159974,-85.4700854700855,4,2,1,30,0,8
160208,422.535211267606,4,2,1,30,1,0
160208,-94.3396226415094,4,2,1,30,0,0
160841,454.545454545455,4,2,1,30,1,8
160841,-87.719298245614,4,2,1,30,0,8
161068,405.405405405405,4,2,1,30,1,8
161068,-99.009900990099,4,2,1,30,0,8
161676,454.545454545455,4,2,1,30,1,8
161676,-87.719298245614,4,2,1,30,0,8
161903,405.405405405405,4,2,1,30,1,0
161903,-99.009900990099,4,2,1,30,0,0
162511,441.176470588235,4,2,1,30,1,8
162511,-90.9090909090909,4,2,1,30,0,8
162952,468.75,4,2,1,30,1,8
162952,-85.4700854700855,4,2,1,30,0,8
163303,517.241379310345,4,2,1,30,1,8
163303,-77.5193798449612,4,2,1,30,0,8
163432,967.741935483871,4,2,1,30,1,8
163432,-41.3223140495868,4,2,1,30,0,8
163915,476.190476190476,4,2,1,30,1,0
163915,-84.0336134453782,4,2,1,30,0,0
164391,400,4,2,1,30,1,8
164691,652.173913043478,4,2,1,30,1,8
164691,-61.3496932515337,4,2,1,30,0,8
164854,454.545454545455,4,2,1,30,1,8
164854,-87.719298245614,4,2,1,30,0,8
165535,476.190476190476,4,2,1,30,1,8
165535,-84.0336134453782,4,2,1,30,0,8
165773,476.190476190476,4,2,1,30,1,0
165773,-84.0336134453782,4,2,1,30,0,0
165892,340.909090909091,4,2,1,30,1,8
165892,-117.647058823529,4,2,1,30,0,8
165977,416.666666666667,4,2,1,30,1,8
165977,-96.1538461538461,4,2,1,30,0,8
166081,294.117647058824,4,2,1,30,1,8
166081,-135.135135135135,4,2,1,30,0,8
166154,400,4,2,1,30,1,8
166354,416.666666666667,4,2,1,30,1,8
166354,-96.1538461538461,4,2,1,30,0,8
166979,441.176470588235,4,2,1,30,1,8
166979,-90.9090909090909,4,2,1,30,0,8
167199,405.405405405405,4,2,1,30,1,8
167199,-99.009900990099,4,2,1,30,0,8
167401,405.405405405405,4,2,1,30,1,0
167401,-99.009900990099,4,2,1,30,0,0
167806,434.782608695652,4,2,1,30,1,8
167806,-91.743119266055,4,2,1,30,0,8
168132,600,4,2,1,30,1,8
168132,-66.6666666666667,4,2,1,30,0,8
168282,405.405405405405,4,2,1,30,1,8
168282,-99.009900990099,4,2,1,30,0,8
168687,441.176470588235,4,2,1,30,1,8
168687,-90.9090909090909,4,2,1,30,0,8
168907,500,4,2,1,30,1,8
168907,-80,4,2,1,30,0,8
169157,416.666666666667,4,2,1,30,1,0
169157,-96.1538461538461,4,2,1,30,0,0
170198,454.545454545455,4,2,1,30,1,8
170198,-87.719298245614,4,2,1,30,0,8
170311,517.241379310345,4,2,1,30,1,8
170311,-77.5193798449612,4,2,1,30,0,8
170440,416.666666666667,4,2,1,30,1,8
170440,-96.1538461538461,4,2,1,30,0,8
170856,416.666666666667,4,2,1,30,1,0
170856,-96.1538461538461,4,2,1,30,0,0
171272,361.44578313253,4,2,1,30,1,8
171272,-111.111111111111,4,2,1,30,0,8
171362,416.666666666667,4,2,1,30,1,8
171362,-96.1538461538461,4,2,1,30,0,8
171570,517.241379310345,4,2,1,30,1,8
171570,-77.5193798449612,4,2,1,30,0,8
171699,434.782608695652,4,2,1,30,1,8
171699,-91.743119266055,4,2,1,30,0,8
171916,340.909090909091,4,2,1,30,1,8
171916,-117.647058823529,4,2,1,30,0,8
172001,434.782608695652,4,2,1,30,1,8
172001,-91.743119266055,4,2,1,30,0,8
172109,400,4,2,1,30,1,8
172409,461.538461538462,4,2,1,30,1,8
172409,-86.9565217391304,4,2,1,30,0,8
172524,461.538461538462,4,2,1,30,1,0
172524,-86.9565217391304,4,2,1,30,0,0
172754,329.67032967033,4,2,1,30,1,8
172754,-121.951219512195,4,2,1,30,0,8
172836,400,4,2,1,30,1,8
173236,476.190476190476,4,2,1,30,1,8
173236,-84.0336134453782,4,2,1,30,0,8
173355,416.666666666667,4,2,1,30,1,8
173355,-96.1538461538461,4,2,1,30,0,8
174084,517.241379310345,4,2,1,30,1,8
174084,-77.5193798449612,4,2,1,30,0,8
174213,454.545454545455,4,2,1,30,1,0
174213,-87.719298245614,4,2,1,30,0,0
174326,582.52427184466,4,2,1,30,1,8
174326,-68.4931506849315,4,2,1,30,0,8
174471,389.61038961039,4,2,1,30,1,8
174471,-103.092783505155,4,2,1,30,0,8
174958,476.190476190476,4,2,1,30,1,8
174958,-84.0336134453782,4,2,1,30,0,8
175077,416.666666666667,4,2,1,30,1,8
175077,-96.1538461538461,4,2,1,30,0,8
175493,447.761194029851,4,2,1,30,1,8
175493,-89.2857142857143,4,2,1,30,0,8
175828,750,4,2,1,30,1,8
175828,-53.1914893617021,4,2,1,30,0,8
176015,394.736842105263,4,2,1,30,1,0
176015,-101.010101010101,4,2,1,30,0,0
177199,361.44578313253,4,2,1,30,1,8
177199,-111.111111111111,4,2,1,30,0,8
177470,600,4,2,1,30,1,8
177470,-66.6666666666667,4,2,1,30,0,8
177620,400,4,2,1,30,1,0
178820,357.142857142857,4,2,1,30,1,8
178820,-112.359550561798,4,2,1,30,0,8
178909,454.545454545455,4,2,1,30,1,8
178909,-87.719298245614,4,2,1,30,0,8
179022,357.142857142857,4,2,1,30,1,8
179022,-112.359550561798,4,2,1,30,0,8
179111,476.190476190476,4,2,1,30,1,8
179111,-84.0336134453782,4,2,1,30,0,8
179230,379.746835443038,4,2,1,30,1,0
179230,-105.263157894737,4,2,1,30,0,0
180559,416.666666666667,4,2,1,30,1,8
180559,-96.1538461538461,4,2,1,30,0,8
180767,416.666666666667,4,2,1,30,1,0
180767,-96.1538461538461,4,2,1,30,0,0
181287,348.837209302326,4,2,1,30,1,8
181287,-114.942528735632,4,2,1,30,0,8
181374,375,4,2,1,30,1,8
181374,-106.382978723404,4,2,1,30,0,8
181749,416.666666666667,4,2,1,30,1,8
181749,-96.1538461538461,4,2,1,30,0,8
182165,447.761194029851,4,2,1,30,1,8
182165,-89.2857142857143,4,2,1,30,0,8
182388,447.761194029851,4,2,1,30,1,0
182388,-89.2857142857143,4,2,1,30,0,0
182723,394.736842105263,4,2,1,30,1,8
182723,-101.010101010101,4,2,1,30,0,8
183413,454.545454545455,4,2,1,30,1,8
183413,-87.719298245614,4,2,1,30,0,8
183640,384.615384615385,4,2,1,30,1,8
183640,-104.166666666667,4,2,1,30,0,8
183928,348.837209302326,4,2,1,30,1,8
183928,-114.942528735632,4,2,1,30,0,8
184015,416.666666666667,4,2,1,30,1,0
184015,-96.1538461538461,4,2,1,30,0,0
184119,555.555555555556,4,2,1,30,1,8
184119,-71.9424460431655,4,2,1,30,0,8
184257,340.909090909091,4,2,1,30,1,8
184257,-117.647058823529,4,2,1,30,0,8
184342,428.571428571429,4,2,1,30,1,8
184342,-93.4579439252336,4,2,1,30,0,8
184449,370.37037037037,4,2,1,30,1,8
184449,-107.52688172043,4,2,1,30,0,8
184634,389.61038961039,4,2,1,30,1,8
184634,-103.092783505155,4,2,1,30,0,8
185218,357.142857142857,4,2,1,30,1,8
185218,-112.359550561798,4,2,1,30,0,8
185575,508.474576271186,4,2,1,30,1,8
185575,-78.740157480315,4,2,1,30,0,8
186591,588.235294117647,4,2,1,30,1,0
186591,-68.0272108843538,4,2,1,30,0,0
187179,400,4,2,1,30,1,8
187379,370.37037037037,4,2,1,30,1,8
187379,-107.52688172043,4,2,1,30,0,8
188304,370.37037037037,4,2,1,30,1,0
188304,-107.52688172043,4,2,1,30,0,0
188489,333.333333333333,4,2,1,30,1,8
188489,-120.481927710843,4,2,1,30,0,8
188905,384.615384615385,4,2,1,30,1,8
188905,-104.166666666667,4,2,1,30,0,8
189097,326.086956521739,4,2,1,30,1,8
189097,-121.951219512195,4,2,1,30,0,8
189260,458.015267175573,4,2,1,30,1,8
189260,-86.9565217391304,4,2,1,30,0,8
189374,375,4,2,1,30,1,8
189374,-106.382978723404,4,2,1,30,0,8
189561,422.535211267606,4,2,1,30,1,8
189561,-94.3396226415094,4,2,1,30,0,8
189666,666.666666666667,4,2,1,30,1,8
189666,-59.8802395209581,4,2,1,30,0,8
189832,500,4,2,1,30,1,0
189832,-80,4,2,1,30,0,0
190082,405.405405405405,4,2,1,30,1,8
190082,-99.009900990099,4,2,1,30,0,8
190284,389.61038961039,4,2,1,30,1,8
190284,-103.092783505155,4,2,1,30,0,8
190576,357.142857142857,4,2,1,30,1,8
190576,-112.359550561798,4,2,1,30,0,8
190843,500,4,2,1,30,1,8
190843,-80,4,2,1,30,0,8
190968,394.736842105263,4,2,1,30,1,8
190968,-101.010101010101,4,2,1,30,0,8
192250,340.909090909091,4,2,1,30,1,0
192250,-117.647058823529,4,2,1,30,0,0
192335,468.75,4,2,1,30,1,8
192335,-85.4700854700855,4,2,1,30,0,8
192452,405.405405405405,4,2,1,30,1,8
192452,-99.009900990099,4,2,1,30,0,8
192857,375,4,2,1,30,1,8
192857,-106.382978723404,4,2,1,30,0,8
193325,500,4,2,1,30,1,8
193325,-80,4,2,1,30,0,8
193450,384.615384615385,4,2,1,30,1,8
193450,-104.166666666667,4,2,1,30,0,8
193930,454.545454545455,4,2,1,30,1,8
193930,-87.719298245614,4,2,1,30,0,8
194043,357.142857142857,4,2,1,30,1,8
194043,-112.359550561798,4,2,1,30,0,8
194132,454.545454545455,4,2,1,30,1,8
194132,-87.719298245614,4,2,1,30,0,8
194359,357.142857142857,4,2,1,30,1,8
194359,-112.359550561798,4,2,1,30,0,8
194537,500,4,2,1,30,1,8
194537,-80,4,2,1,30,0,8
194662,416.666666666667,4,2,1,30,1,0
194662,-96.1538461538461,4,2,1,30,0,0
194974,500,4,2,1,30,1,8
194974,-80,4,2,1,30,0,8
195099,416.666666666667,4,2,1,30,1,8
195099,-96.1538461538461,4,2,1,30,0,8
195724,370.37037037037,4,2,1,30,1,8
195724,-107.52688172043,4,2,1,30,0,8
196001,416.666666666667,4,2,1,30,1,8
196001,-96.1538461538461,4,2,1,30,0,8
196313,416.666666666667,4,2,1,30,1,0
196313,-96.1538461538461,4,2,1,30,0,0
196521,384.615384615385,4,2,1,30,1,8
196521,-104.166666666667,4,2,1,30,0,8
196713,312.5,4,2,1,30,1,8
196713,-128.205128205128,4,2,1,30,0,8
196791,447.761194029851,4,2,1,30,1,8
196791,-89.2857142857143,4,2,1,30,0,8
196902,300,4,2,1,30,1,8
196902,-133.333333333333,4,2,1,30,0,8
196977,600,4,2,1,30,1,8
196977,-66.6666666666667,4,2,1,30,0,8
197127,379.746835443038,4,2,1,30,1,8
197127,-105.263157894737,4,2,1,30,0,8
197886,405.405405405405,4,2,1,30,1,0
197886,-99.009900990099,4,2,1,30,0,0
198190,454.545454545455,4,2,1,30,1,8
198190,-87.719298245614,4,2,1,30,0,8
198530,300,4,2,1,30,1,8
198530,-133.333333333333,4,2,1,30,0,8
198605,454.545454545455,4,2,1,30,1,8
198605,-87.719298245614,4,2,1,30,0,8
198718,384.615384615385,4,2,1,30,1,8
198718,-104.166666666667,4,2,1,30,0,8
199102,365.853658536585,4,2,1,30,1,8
199102,-109.89010989011,4,2,1,30,0,8
199376,535.714285714286,4,2,1,30,1,8
199376,-74.6268656716418,4,2,1,30,0,8
199509,400,4,2,1,30,1,8
199709,348.837209302326,4,2,1,30,1,8
199709,-114.942528735632,4,2,1,30,0,8
199970,555.555555555556,4,2,1,30,1,8
199970,-71.9424460431655,4,2,1,30,0,8
200108,500,4,2,1,30,1,8
200108,-80,4,2,1,30,0,8
200233,612.244897959184,4,2,1,30,1,8
200233,-65.359477124183,4,2,1,30,0,8
200386,652.173913043478,4,2,1,30,1,0
200386,-61.3496932515337,4,2,1,30,0,0
200712,416.666666666667,4,2,1,30,1,8
200712,-96.1538461538461,4,2,1,30,0,8
200920,476.190476190476,4,2,1,30,1,8
200920,-84.0336134453782,4,2,1,30,0,8
201039,576.923076923077,4,2,1,30,1,8
201039,-69.4444444444444,4,2,1,30,0,8
201183,416.666666666667,4,2,1,30,1,8
201183,-96.1538461538461,4,2,1,30,0,8
201391,326.086956521739,4,2,1,30,1,8
201391,-121.951219512195,4,2,1,30,0,8
201472,454.545454545455,4,2,1,30,1,8
201472,-87.719298245614,4,2,1,30,0,8
201585,428.571428571429,4,2,1,30,1,8
201585,-93.4579439252336,4,2,1,30,0,8
202227,625,4,2,1,30,1,0
202227,-64.1025641025641,4,2,1,30,0,0
202539,441.176470588235,4,2,1,30,1,8
202539,-90.9090909090909,4,2,1,30,0,8
202869,625,4,2,1,30,1,8
202869,-64.1025641025641,4,2,1,30,0,8
203025,400,4,2,1,30,1,8
203125,500,4,2,1,30,1,8
203125,-80,4,2,1,30,0,8
203250,400,4,2,1,30,1,8
203650,441.176470588235,4,2,1,30,1,8
203650,-90.9090909090909,4,2,1,30,0,8
203980,714.285714285714,4,2,1,30,1,8
203980,-55.8659217877095,4,2,1,30,0,8
204158,576.923076923077,4,2,1,30,1,0
204158,-69.4444444444444,4,2,1,30,0,0
204446,441.176470588235,4,2,1,30,1,8
204446,-90.9090909090909,4,2,1,30,0,8
205548,375,4,2,1,30,1,8
205548,-106.382978723404,4,2,1,30,0,8
205641,476.190476190476,4,2,1,30,1,8
205641,-84.0336134453782,4,2,1,30,0,8
205760,434.782608695652,4,2,1,30,1,8
205760,-91.743119266055,4,2,1,30,0,8
205977,434.782608695652,4,2,1,30,1,0
205977,-91.743119266055,4,2,1,30,0,0
206846,500,4,2,1,30,1,8
206846,-80,4,2,1,30,0,8
206971,416.666666666667,4,2,1,30,1,8
206971,-96.1538461538461,4,2,1,30,0,8
207387,375,4,2,1,30,1,8
207387,-106.382978723404,4,2,1,30,0,8
207668,416.666666666667,4,2,1,30,1,0
207668,-96.1538461538461,4,2,1,30,0,0
207980,384.615384615385,4,2,1,30,1,8
207980,-104.166666666667,4,2,1,30,0,8
208268,434.782608695652,4,2,1,30,1,8
208268,-91.743119266055,4,2,1,30,0,8
208485,400,4,2,1,30,1,8
208785,454.545454545455,4,2,1,30,1,8
208785,-87.719298245614,4,2,1,30,0,8
209012,375,4,2,1,30,1,8
209012,-106.382978723404,4,2,1,30,0,8
209105,600,4,2,1,30,1,8
209105,-66.6666666666667,4,2,1,30,0,8
209255,476.190476190476,4,2,1,30,1,8
209255,-84.0336134453782,4,2,1,30,0,8
209374,416.666666666667,4,2,1,30,1,0
209374,-96.1538461538461,4,2,1,30,0,0
209582,447.761194029851,4,2,1,30,1,8
209582,-89.2857142857143,4,2,1,30,0,8
209917,400,4,2,1,30,1,8
210117,555.555555555556,4,2,1,30,1,8
210117,-71.9424460431655,4,2,1,30,0,8
210255,500,4,2,1,30,1,8
210255,-80,4,2,1,30,0,8
210505,416.666666666667,4,2,1,30,1,8
210505,-96.1538461538461,4,2,1,30,0,8
211130,416.666666666667,4,2,1,30,1,0
211130,-96.1538461538461,4,2,1,30,0,0
211234,535.714285714286,4,2,1,30,1,8
211234,-74.6268656716418,4,2,1,30,0,8
211367,400,4,2,1,30,1,8
211567,434.782608695652,4,2,1,30,1,8
211567,-91.743119266055,4,2,1,30,0,8
212001,256.410256410256,4,2,1,30,1,8
212001,-156.25,4,2,1,30,0,8
212065,545.454545454546,4,2,1,30,1,8
212065,-73.5294117647059,4,2,1,30,0,8
212201,394.736842105263,4,2,1,30,1,8
212201,-101.010101010101,4,2,1,30,0,8
212694,483.870967741935,4,2,1,30,1,8
212694,-82.6446280991736,4,2,1,30,0,8
212814,357.142857142857,4,2,1,30,1,0
212814,-112.359550561798,4,2,1,30,0,0
212903,483.870967741935,4,2,1,30,1,8
212903,-82.6446280991736,4,2,1,30,0,8
213023,422.535211267606,4,2,1,30,1,8
213023,-94.3396226415094,4,2,1,30,0,8
213445,384.615384615385,4,2,1,30,1,8
213445,-104.166666666667,4,2,1,30,0,8
213637,348.837209302326,4,2,1,30,1,8
213637,-114.942528735632,4,2,1,30,0,8
213724,483.870967741935,4,2,1,30,1,8
213724,-82.6446280991736,4,2,1,30,0,8
213844,394.736842105263,4,2,1,30,1,8
213844,-101.010101010101,4,2,1,30,0,8
214140,535.714285714286,4,2,1,30,1,8
214140,-74.6268656716418,4,2,1,30,0,8
214273,441.176470588235,4,2,1,30,1,8
214273,-90.9090909090909,4,2,1,30,0,8
214493,468.75,4,2,1,30,1,0
214493,-85.4700854700855,4,2,1,30,0,0
214961,441.176470588235,4,2,1,30,1,8
214961,-90.9090909090909,4,2,1,30,0,8
215291,750,4,2,1,30,1,8
215291,-53.1914893617021,4,2,1,30,0,8
215478,461.538461538462,4,2,1,30,1,8
215478,-86.9565217391304,4,2,1,30,0,8

[HitObjects]
192,192,1710,5,0,0:0:0:0:
448,192,1810,1,0,0:0:0:0:
320,192,1911,1,0,0:0:0:0:
448,192,2012,1,0,0:0:0:0:
192,192,2112,1,0,0:0:0:0:
320,192,2213,1,0,0:0:0:0:
448,192,2314,1,0,0:0:0:0:
320,192,2414,1,0,0:0:0:0:
192,192,2515,1,0,0:0:0:0:
448,192,2616,1,0,0:0:0:0:
320,192,2716,1,0,0:0:0:0:
448,192,2817,1,0,0:0:0:0:
192,192,2918,1,0,0:0:0:0:
320,192,3018,1,0,0:0:0:0:
448,192,3119,1,0,0:0:0:0:
320,192,3220,1,0,0:0:0:0:
64,192,3320,1,2,0:0:0:0:
448,192,3320,1,0,0:0:0:0:
192,192,3421,1,0,0:0:0:0:
320,192,3522,1,0,0:0:0:0:
192,192,3622,1,0,0:0:0:0:
64,192,3723,1,2,0:0:0:0:
448,192,3723,1,0,0:0:0:0:
192,192,3824,1,0,0:0:0:0:
320,192,3924,1,0,0:0:0:0:
192,192,4025,1,0,0:0:0:0:
64,192,4126,1,2,0:0:0:0:
448,192,4126,1,0,0:0:0:0:
320,192,4226,1,0,0:0:0:0:
192,192,4327,1,0,0:0:0:0:
320,192,4428,1,0,0:0:0:0:
64,192,4528,1,2,0:0:0:0:
448,192,4528,1,0,0:0:0:0:
320,192,4629,1,0,0:0:0:0:
192,192,4721,1,0,0:0:0:0:
320,192,4814,1,0,0:0:0:0:
64,192,4906,1,2,0:0:0:0:
192,192,4906,1,0,0:0:0:0:
320,192,5008,1,0,0:0:0:0:
448,192,5110,1,0,0:0:0:0:
320,192,5212,1,0,0:0:0:0:
64,192,5314,1,2,0:0:0:0:
192,192,5314,1,0,0:0:0:0:
448,192,5416,1,0,0:0:0:0:
64,192,5518,1,2,0:0:0:0:
320,192,5518,1,0,0:0:0:0:
448,192,5620,1,0,0:0:0:0:
64,192,5733,1,2,0:0:0:0:
192,192,5733,1,0,0:0:0:0:
320,192,5829,1,0,0:0:0:0:
448,192,5925,1,0,0:0:0:0:
320,192,6010,1,0,0:0:0:0:
64,192,6129,1,2,0:0:0:0:
192,192,6129,1,0,0:0:0:0:
448,192,6231,1,0,0:0:0:0:
64,192,6333,1,2,0:0:0:0:
320,192,6333,1,0,0:0:0:0:
448,192,6435,1,0,0:0:0:0:
64,192,6545,1,2,0:0:0:0:
192,192,6545,1,0,0:0:0:0:
320,192,6645,1,0,0:0:0:0:
448,192,6745,1,0,0:0:0:0:
320,192,6845,1,0,0:0:0:0:
64,192,6945,1,2,0:0:0:0:
192,192,6945,1,0,0:0:0:0:
448,192,7045,1,0,0:0:0:0:
64,192,7145,1,2,0:0:0:0:
320,192,7145,1,0,0:0:0:0:
448,192,7245,1,0,0:0:0:0:
64,192,7345,1,2,0:0:0:0:
192,192,7345,1,0,0:0:0:0:
448,192,7445,1,0,0:0:0:0:
64,192,7545,1,2,0:0:0:0:
320,192,7545,1,0,0:0:0:0:
448,192,7645,1,0,0:0:0:0:
64,192,7745,1,2,0:0:0:0:
192,192,7745,1,0,0:0:0:0:
448,192,7845,1,0,0:0:0:0:
64,192,7945,1,2,0:0:0:0:
320,192,7945,1,0,0:0:0:0:
448,192,8045,1,0,0:0:0:0:
192,192,8145,1,2,0:0:0:0:
320,192,8145,1,0,0:0:0:0:
64,192,8249,1,0,0:0:0:0:
320,192,8353,1,0,0:0:0:0:
448,192,8353,1,0,0:0:0:0:
64,192,8457,1,0,0:0:0:0:
192,192,8561,1,2,0:0:0:0:
320,192,8561,1,0,0:0:0:0:
448,192,8665,1,0,0:0:0:0:
64,192,8770,1,0,0:0:0:0:
192,192,8770,1,0,0:0:0:0:
448,192,8868,1,0,0:0:0:0:
192,192,8967,1,2,0:0:0:0:
320,192,8967,1,0,0:0:0:0:
64,192,9066,1,0,0:0:0:0:
320,192,9164,1,0,0:0:0:0:
448,192,9164,1,0,0:0:0:0:
64,192,9263,1,0,0:0:0:0:
192,192,9362,1,2,0:0:0:0:
320,192,9362,1,0,0:0:0:0:
448,192,9460,1,0,0:0:0:0:
64,192,9559,1,0,0:0:0:0:
192,192,9559,1,0,0:0:0:0:
448,192,9658,1,0,0:0:0:0:
192,192,9756,1,2,0:0:0:0:
320,192,9756,1,0,0:0:0:0:
64,192,9858,1,0,0:0:0:0:
192,192,9960,1,2,0:0:0:0:
448,192,9960,1,0,0:0:0:0:
320,192,10062,1,0,0:0:0:0:
64,192,10164,1,2,0:0:0:0:
448,192,10164,1,0,0:0:0:0:
192,192,10266,1,0,0:0:0:0:
64,192,10368,1,2,0:0:0:0:
320,192,10368,1,0,0:0:0:0:
448,192,10470,1,0,0:0:0:0:
192,192,10572,1,2,0:0:0:0:
320,192,10572,1,0,0:0:0:0:
64,192,10674,1,0,0:0:0:0:
192,192,10776,1,2,0:0:0:0:
448,192,10776,1,0,0:0:0:0:
64,192,10878,1,0,0:0:0:0:
192,192,10980,1,2,0:0:0:0:
320,192,10980,1,0,0:0:0:0:
448,192,11082,1,0,0:0:0:0:
64,192,11184,1,2,0:0:0:0:
320,192,11184,1,0,0:0:0:0:
448,192,11286,1,0,0:0:0:0:
64,192,11388,1,2,0:0:0:0:
192,192,11388,1,0,0:0:0:0:
320,192,11490,1,0,0:0:0:0:
64,192,11592,1,0,0:0:0:0:
320,192,11694,1,0,0:0:0:0:
192,192,11796,1,2,0:0:0:0:
448,192,11796,1,0,0:0:0:0:
64,192,11898,1,0,0:0:0:0:
448,192,12000,1,0,0:0:0:0:
64,192,12102,1,0,0:0:0:0:
192,192,12204,1,2,0:0:0:0:
320,192,12204,1,0,0:0:0:0:
448,192,12302,1,0,0:0:0:0:
64,192,12401,1,0,0:0:0:0:
192,192,12401,1,0,0:0:0:0:
448,192,12500,1,0,0:0:0:0:
192,192,12598,1,2,0:0:0:0:
320,192,12598,1,0,0:0:0:0:
64,192,12697,1,0,0:0:0:0:
320,192,12796,1,0,0:0:0:0:
448,192,12796,1,0,0:0:0:0:
64,192,12894,1,0,0:0:0:0:
192,192,12993,1,2,0:0:0:0:
320,192,12993,1,0,0:0:0:0:
64,192,13091,1,0,0:0:0:0:
192,192,13217,1,2,0:0:0:0:
448,192,13217,1,0,0:0:0:0:
320,192,13318,1,0,0:0:0:0:
64,192,13419,1,2,0:0:0:0:
448,192,13419,1,0,0:0:0:0:
192,192,13521,1,0,0:0:0:0:
64,192,13622,1,2,0:0:0:0:
320,192,13622,1,0,0:0:0:0:
448,192,13723,1,0,0:0:0:0:
192,192,13825,1,2,0:0:0:0:
320,192,13825,1,0,0:0:0:0:
64,192,13926,1,0,0:0:0:0:
192,192,14027,1,2,0:0:0:0:
448,192,14027,1,0,0:0:0:0:
64,192,14129,1,0,0:0:0:0:
192,192,14230,1,2,0:0:0:0:
320,192,14230,1,0,0:0:0:0:
448,192,14331,1,0,0:0:0:0:
64,192,14433,1,2,0:0:0:0:
320,192,14433,1,0,0:0:0:0:
448,192,14534,1,0,0:0:0:0:
64,192,14635,1,2,0:0:0:0:
192,192,14635,1,0,0:0:0:0:
320,192,14736,1,0,0:0:0:0:
64,192,14837,1,0,0:0:0:0:
320,192,14939,1,0,0:0:0:0:
192,192,15040,1,2,0:0:0:0:
448,192,15040,1,0,0:0:0:0:
64,192,15141,1,0,0:0:0:0:
448,192,15243,1,0,0:0:0:0:
64,192,15344,1,0,0:0:0:0:
192,192,15445,1,2,0:0:0:0:
320,192,15445,1,0,0:0:0:0:
448,192,15578,1,0,0:0:0:0:
64,192,15696,1,0,0:0:0:0:
320,192,15696,1,0,0:0:0:0:
448,192,15792,1,0,0:0:0:0:
192,192,15888,1,2,0:0:0:0:
320,192,15888,1,0,0:0:0:0:
64,192,15984,1,0,0:0:0:0:
320,192,16080,1,0,0:0:0:0:
448,192,16080,1,0,0:0:0:0:
64,192,16182,1,0,0:0:0:0:
192,192,16284,1,2,0:0:0:0:
320,192,16284,1,0,0:0:0:0:
64,192,16386,1,0,0:0:0:0:
192,192,16488,1,2,0:0:0:0:
448,192,16488,1,0,0:0:0:0:
320,192,16590,1,0,0:0:0:0:
64,192,16692,1,2,0:0:0:0:
448,192,16692,1,0,0:0:0:0:
192,192,16794,1,0,0:0:0:0:
64,192,16896,1,2,0:0:0:0:
320,192,16896,1,0,0:0:0:0:
448,192,16998,1,0,0:0:0:0:
192,192,17100,1,2,0:0:0:0:
320,192,17100,1,0,0:0:0:0:
64,192,17202,1,0,0:0:0:0:
192,192,17304,1,2,0:0:0:0:
448,192,17304,1,0,0:0:0:0:
64,192,17406,1,0,0:0:0:0:
192,192,17508,1,2,0:0:0:0:
320,192,17508,1,0,0:0:0:0:
448,192,17610,1,0,0:0:0:0:
64,192,17712,1,2,0:0:0:0:
320,192,17712,1,0,0:0:0:0:
448,192,17814,1,0,0:0:0:0:
64,192,17916,1,2,0:0:0:0:
192,192,17916,1,0,0:0:0:0:
320,192,17916,1,0,0:0:0:0:
448,192,18012,1,0,0:0:0:0:
64,192,18108,1,2,0:0:0:0:
192,192,18108,1,0,0:0:0:0:
320,192,18204,1,0,0:0:0:0:
64,192,18312,1,2,0:0:0:0:
448,192,18312,1,0,0:0:0:0:
192,192,18410,1,0,0:0:0:0:
320,192,18509,1,2,0:0:0:0:
448,192,18509,1,0,0:0:0:0:
192,192,18608,1,0,0:0:0:0:
64,192,18706,1,2,0:0:0:0:
448,192,18706,1,0,0:0:0:0:
320,192,18808,1,0,0:0:0:0:
64,192,18910,1,2,0:0:0:0:
192,192,18910,1,0,0:0:0:0:
448,192,19012,1,0,0:0:0:0:
192,192,19114,1,2,0:0:0:0:
320,192,19114,1,0,0:0:0:0:
448,192,19216,1,0,0:0:0:0:
64,192,19318,1,2,0:0:0:0:
320,192,19318,1,0,0:0:0:0:
64,192,19540,1,2,0:0:0:0:
192,192,19540,1,0,0:0:0:0:
448,192,19540,1,0,0:0:0:0:
320,192,19636,1,0,0:0:0:0:
192,192,19732,1,0,0:0:0:0:
320,192,19828,1,0,0:0:0:0:
64,192,19930,1,2,0:0:0:0:
448,192,19930,1,0,0:0:0:0:
192,192,20032,1,0,0:0:0:0:
320,192,20134,1,2,0:0:0:0:
448,192,20134,1,0,0:0:0:0:
192,192,20242,1,0,0:0:0:0:
64,192,20351,1,2,0:0:0:0:
448,192,20351,1,0,0:0:0:0:
320,192,20444,1,0,0:0:0:0:
192,192,20563,1,0,0:0:0:0:
320,192,20656,1,0,0:0:0:0:
64,192,20750,1,2,0:0:0:0:
448,192,20750,1,0,0:0:0:0:
192,192,20850,1,0,0:0:0:0:
320,192,20950,1,2,0:0:0:0:
448,192,20950,1,0,0:0:0:0:
192,192,21050,1,0,0:0:0:0:
64,192,21160,1,2,0:0:0:0:
448,192,21160,1,0,0:0:0:0:
320,192,21252,1,0,0:0:0:0:
192,192,21345,1,0,0:0:0:0:
320,192,21437,1,0,0:0:0:0:
64,192,21550,1,2,0:0:0:0:
448,192,21550,1,0,0:0:0:0:
192,192,21635,1,0,0:0:0:0:
320,192,21739,1,2,0:0:0:0:
448,192,21739,1,0,0:0:0:0:
192,192,21861,1,0,0:0:0:0:
64,192,21954,1,2,0:0:0:0:
320,192,21954,1,0,0:0:0:0:
448,192,22054,1,0,0:0:0:0:
192,192,22154,1,2,0:0:0:0:
320,192,22154,1,0,0:0:0:0:
448,192,22243,1,0,0:0:0:0:
64,192,22343,1,2,0:0:0:0:
320,192,22343,1,0,0:0:0:0:
192,192,22444,1,0,0:0:0:0:
64,192,22545,1,2,0:0:0:0:
448,192,22545,1,0,0:0:0:0:
320,192,22645,1,0,0:0:0:0:
64,192,22746,1,2,0:0:0:0:
192,192,22746,1,0,0:0:0:0:
448,192,22746,1,0,0:0:0:0:
320,192,22846,1,0,0:0:0:0:
192,192,22947,1,0,0:0:0:0:
320,192,23048,1,0,0:0:0:0:
64,192,23148,1,2,0:0:0:0:
448,192,23148,1,0,0:0:0:0:
192,192,23234,1,0,0:0:0:0:
320,192,23334,1,2,0:0:0:0:
448,192,23334,1,0,0:0:0:0:
192,192,23434,1,0,0:0:0:0:
64,192,23534,1,2,0:0:0:0:
320,192,23534,1,0,0:0:0:0:
448,192,23634,1,0,0:0:0:0:
192,192,23734,1,2,0:0:0:0:
320,192,23734,1,0,0:0:0:0:
448,192,23834,1,0,0:0:0:0:
64,192,23934,1,2,0:0:0:0:
320,192,23934,1,0,0:0:0:0:
192,192,24034,1,0,0:0:0:0:
64,192,24134,1,2,0:0:0:0:
448,192,24134,1,0,0:0:0:0:
192,192,24234,1,0,0:0:0:0:
64,192,24334,1,2,0:0:0:0:
320,192,24334,1,0,0:0:0:0:
448,192,24334,1,0,0:0:0:0:
192,192,24434,1,0,0:0:0:0:
320,192,24534,1,0,0:0:0:0:
192,192,24634,1,0,0:0:0:0:
64,192,24734,1,2,0:0:0:0:
448,192,24734,1,0,0:0:0:0:
320,192,24834,1,0,0:0:0:0:
192,192,24959,1,2,0:0:0:0:
448,192,24959,1,0,0:0:0:0:
320,192,25059,1,0,0:0:0:0:
64,192,25159,1,2,0:0:0:0:
448,192,25159,1,0,0:0:0:0:
192,192,25259,1,0,0:0:0:0:
320,192,25359,1,0,0:0:0:0:
192,192,25459,1,0,0:0:0:0:
64,192,25559,1,2,0:0:0:0:
448,192,25559,1,0,0:0:0:0:
320,192,25659,1,0,0:0:0:0:
192,192,25759,1,2,0:0:0:0:
448,192,25759,1,0,0:0:0:0:
320,192,25859,1,0,0:0:0:0:
64,192,25959,1,2,0:0:0:0:
448,192,25959,1,0,0:0:0:0:
192,192,26059,1,0,0:0:0:0:
320,192,26159,1,0,0:0:0:0:
192,192,26259,1,0,0:0:0:0:
64,192,26359,1,2,0:0:0:0:
448,192,26359,1,0,0:0:0:0:
320,192,26459,1,0,0:0:0:0:
192,192,26569,1,2,0:0:0:0:
448,192,26569,1,0,0:0:0:0:
64,192,26665,1,0,0:0:0:0:
320,192,26761,1,2,0:0:0:0:
448,192,26761,1,0,0:0:0:0:
192,192,26857,1,0,0:0:0:0:
64,192,26953,1,2,0:0:0:0:
320,192,26953,1,0,0:0:0:0:
448,192,27049,1,0,0:0:0:0:
192,192,27145,1,2,0:0:0:0:
320,192,27145,1,0,0:0:0:0:
64,192,27242,1,0,0:0:0:0:
320,192,27338,1,2,0:0:0:0:
448,192,27338,1,0,0:0:0:0:
192,192,27434,1,0,0:0:0:0:
64,192,27563,1,2,0:0:0:0:
320,192,27563,1,0,0:0:0:0:
448,192,27563,1,0,0:0:0:0:
192,192,27661,1,0,0:0:0:0:
320,192,27760,1,0,0:0:0:0:
192,192,27859,1,0,0:0:0:0:
64,192,27957,1,2,0:0:0:0:
448,192,27957,1,0,0:0:0:0:
320,192,28046,1,0,0:0:0:0:
192,192,28154,1,2,0:0:0:0:
448,192,28154,1,0,0:0:0:0:
64,192,28250,1,0,0:0:0:0:
320,192,28363,1,2,0:0:0:0:
448,192,28363,1,0,0:0:0:0:
192,192,28459,1,0,0:0:0:0:
64,192,28555,1,2,0:0:0:0:
320,192,28555,1,0,0:0:0:0:
448,192,28651,1,0,0:0:0:0:
192,192,28747,1,2,0:0:0:0:
320,192,28747,1,0,0:0:0:0:
64,192,28843,1,0,0:0:0:0:
320,192,28939,1,2,0:0:0:0:
448,192,28939,1,0,0:0:0:0:
64,192,29047,1,0,0:0:0:0:
192,192,29172,1,2,0:0:0:0:
320,192,29172,1,0,0:0:0:0:
448,192,29172,1,0,0:0:0:0:
64,192,29272,1,0,0:0:0:0:
320,192,29372,1,0,0:0:0:0:
64,192,29472,1,0,0:0:0:0:
448,192,29572,1,2,0:0:0:0:
192,192,29672,1,0,0:0:0:0:
64,192,29772,1,2,0:0:0:0:
448,192,29772,1,0,0:0:0:0:
320,192,29885,1,0,0:0:0:0:
64,192,29999,1,2,0:0:0:0:
192,192,29999,1,0,0:0:0:0:
320,192,30092,1,0,0:0:0:0:
64,192,30186,1,0,0:0:0:0:
192,192,30280,1,0,0:0:0:0:
64,192,30393,1,2,0:0:0:0:
448,192,30393,1,0,0:0:0:0:
320,192,30493,1,0,0:0:0:0:
192,192,30593,1,2,0:0:0:0:
448,192,30593,1,0,0:0:0:0:
64,192,30693,1,0,0:0:0:0:
192,192,30793,1,2,0:0:0:0:
320,192,30793,1,0,0:0:0:0:
448,192,30793,1,0,0:0:0:0:
64,192,30893,1,0,0:0:0:0:
320,192,30993,1,0,0:0:0:0:
64,192,31086,1,0,0:0:0:0:
448,192,31180,1,2,0:0:0:0:
192,192,31274,1,0,0:0:0:0:
64,192,31368,1,2,0:0:0:0:
448,192,31368,1,0,0:0:0:0:
320,192,31466,1,0,0:0:0:0:
64,192,31565,1,2,0:0:0:0:
192,192,31565,1,0,0:0:0:0:
320,192,31664,1,0,0:0:0:0:
64,192,31762,1,2,0:0:0:0:
448,192,31762,1,0,0:0:0:0:
192,192,31866,1,0,0:0:0:0:
64,192,31970,1,2,0:0:0:0:
320,192,31970,1,0,0:0:0:0:
448,192,32066,1,0,0:0:0:0:
64,192,32162,1,0,0:0:0:0:
448,192,32258,1,0,0:0:0:0:
64,192,32354,1,2,0:0:0:0:
192,192,32354,1,0,0:0:0:0:
320,192,32354,1,0,0:0:0:0:
448,192,32450,1,0,0:0:0:0:
192,192,32546,1,0,0:0:0:0:
448,192,32635,1,0,0:0:0:0:
64,192,32754,1,2,0:0:0:0:
320,192,32835,1,0,0:0:0:0:
64,192,32943,1,2,0:0:0:0:
448,192,32943,1,0,0:0:0:0:
192,192,33043,1,0,0:0:0:0:
320,192,33144,1,2,0:0:0:0:
448,192,33144,1,0,0:0:0:0:
64,192,33245,1,0,0:0:0:0:
192,192,33345,1,2,0:0:0:0:
320,192,33345,1,0,0:0:0:0:
448,192,33446,1,0,0:0:0:0:
64,192,33547,1,2,0:0:0:0:
192,192,33547,1,0,0:0:0:0:
320,192,33643,1,0,0:0:0:0:
192,192,33739,1,0,0:0:0:0:
320,192,33835,1,0,0:0:0:0:
64,192,33948,1,2,0:0:0:0:
448,192,33948,1,0,0:0:0:0:
192,192,34046,1,0,0:0:0:0:
448,192,34145,1,0,0:0:0:0:
192,192,34244,1,0,0:0:0:0:
64,192,34342,1,2,0:0:0:0:
320,192,34342,1,0,0:0:0:0:
448,192,34447,1,0,0:0:0:0:
64,192,34553,1,0,0:0:0:0:
448,192,34658,1,0,0:0:0:0:
64,192,34764,1,2,0:0:0:0:
192,192,34764,1,0,0:0:0:0:
320,192,34764,1,0,0:0:0:0:
448,192,34864,1,0,0:0:0:0:
320,192,34965,1,0,0:0:0:0:
448,192,35066,1,0,0:0:0:0:
192,192,35166,1,0,0:0:0:0:
320,192,35267,1,0,0:0:0:0:
448,192,35368,1,0,0:0:0:0:
320,192,35468,1,0,0:0:0:0:
192,192,35569,1,0,0:0:0:0:
448,192,35670,1,0,0:0:0:0:
320,192,35770,1,0,0:0:0:0:
448,192,35871,1,0,0:0:0:0:
192,192,35972,1,0,0:0:0:0:
320,192,36072,1,0,0:0:0:0:
448,192,36173,1,0,0:0:0:0:
320,192,36274,1,0,0:0:0:0:
64,192,36374,1,2,0:0:0:0:
448,192,36374,1,0,0:0:0:0:
192,192,36475,1,0,0:0:0:0:
64,192,36576,1,0,0:0:0:0:
320,192,36676,1,0,0:0:0:0:
64,192,36777,1,2,0:0:0:0:
448,192,36777,1,0,0:0:0:0:
192,192,36878,1,0,0:0:0:0:
64,192,36978,1,0,0:0:0:0:
320,192,37079,1,0,0:0:0:0:
64,192,37180,1,2,0:0:0:0:
448,192,37280,1,0,0:0:0:0:
192,192,37381,1,0,0:0:0:0:
320,192,37482,1,0,0:0:0:0:
448,192,37582,1,0,0:0:0:0:
64,192,37683,1,0,0:0:0:0:
192,192,37784,1,0,0:0:0:0:
320,192,37884,1,0,0:0:0:0:
64,192,37985,1,2,0:0:0:0:
448,192,37985,1,0,0:0:0:0:
320,192,38086,1,0,0:0:0:0:
64,192,38205,1,0,0:0:0:0:
192,192,38305,1,0,0:0:0:0:
64,192,38405,1,2,0:0:0:0:
448,192,38405,1,0,0:0:0:0:
320,192,38505,1,0,0:0:0:0:
64,192,38605,1,0,0:0:0:0:
192,192,38705,1,0,0:0:0:0:
448,192,38805,1,2,0:0:0:0:
64,192,38897,1,0,0:0:0:0:
320,192,38990,1,0,0:0:0:0:
448,192,39082,1,0,0:0:0:0:
192,192,39175,1,0,0:0:0:0:
320,192,39267,1,0,0:0:0:0:
64,192,39360,1,0,0:0:0:0:
320,192,39453,1,0,0:0:0:0:
64,192,39545,1,2,0:0:0:0:
192,192,39545,1,0,0:0:0:0:
448,192,39545,1,0,0:0:0:0:
320,192,39658,1,0,0:0:0:0:
192,192,39772,1,0,0:0:0:0:
320,192,39863,1,0,0:0:0:0:
64,192,39954,1,2,0:0:0:0:
192,192,39954,1,0,0:0:0:0:
448,192,39954,1,0,0:0:0:0:
320,192,40061,1,0,0:0:0:0:
192,192,40168,1,0,0:0:0:0:
320,192,40249,1,0,0:0:0:0:
64,192,40374,1,2,0:0:0:0:
448,192,40374,1,0,0:0:0:0:
320,192,40474,1,0,0:0:0:0:
64,192,40574,1,0,0:0:0:0:
192,192,40674,1,0,0:0:0:0:
64,192,40774,1,2,0:0:0:0:
448,192,40774,1,0,0:0:0:0:
320,192,40874,1,0,0:0:0:0:
64,192,40974,1,0,0:0:0:0:
192,192,41074,1,0,0:0:0:0:
448,192,41174,1,2,0:0:0:0:
64,192,41267,1,0,0:0:0:0:
448,192,41361,1,0,0:0:0:0:
320,192,41455,1,0,0:0:0:0:
192,192,41549,1,0,0:0:0:0:
448,192,41642,1,0,0:0:0:0:
192,192,41736,1,0,0:0:0:0:
320,192,41830,1,0,0:0:0:0:
64,192,41924,1,2,0:0:0:0:
448,192,41924,1,0,0:0:0:0:
192,192,42039,1,0,0:0:0:0:
320,192,42154,1,0,0:0:0:0:
192,192,42250,1,0,0:0:0:0:
64,192,42346,1,0,0:0:0:0:
448,192,42442,1,0,0:0:0:0:
192,192,42538,1,0,0:0:0:0:
320,192,42634,1,0,0:0:0:0:
64,192,42747,1,2,0:0:0:0:
448,192,42845,1,0,0:0:0:0:
320,192,42944,1,0,0:0:0:0:
448,192,43043,1,0,0:0:0:0:
64,192,43147,1,0,0:0:0:0:
320,192,43251,1,0,0:0:0:0:
448,192,43355,1,0,0:0:0:0:
320,192,43459,1,0,0:0:0:0:
64,192,43563,1,0,0:0:0:0:
448,192,43659,1,0,0:0:0:0:
192,192,43755,1,0,0:0:0:0:
320,192,43851,1,0,0:0:0:0:
64,192,43947,1,0,0:0:0:0:
192,192,44043,1,0,0:0:0:0:
320,192,44128,1,0,0:0:0:0:
448,192,44229,1,0,0:0:0:0:
192,192,44330,1,0,0:0:0:0:
64,192,44419,1,0,0:0:0:0:
192,192,44532,1,0,0:0:0:0:
320,192,44628,1,0,0:0:0:0:
64,192,44747,1,0,0:0:0:0:
320,192,44841,1,0,0:0:0:0:
192,192,44924,1,0,0:0:0:0:
448,192,45031,1,0,0:0:0:0:
64,192,45138,1,0,0:0:0:0:
320,192,45230,1,0,0:0:0:0:
192,192,45337,1,0,0:0:0:0:
448,192,45444,1,0,0:0:0:0:
192,192,45551,1,0,0:0:0:0:
448,192,45658,1,0,0:0:0:0:
64,192,45765,1,0,0:0:0:0:
320,192,45872,1,0,0:0:0:0:
64,192,45965,1,0,0:0:0:0:
320,192,46059,1,0,0:0:0:0:
192,192,46197,1,0,0:0:0:0:
448,192,46336,1,0,0:0:0:0:
192,192,46455,1,0,0:0:0:0:
448,192,46574,1,0,0:0:0:0:
64,192,46693,1,0,0:0:0:0:
320,192,46812,1,0,0:0:0:0:
64,192,47199,1,2,0:0:0:0:
448,192,47199,1,0,0:0:0:0:
320,192,47355,1,0,0:0:0:0:
64,192,47511,1,0,0:0:0:0:
192,192,47611,1,2,0:0:0:0:
320,192,47611,1,0,0:0:0:0:
64,192,47736,1,2,0:0:0:0:
448,192,47736,1,0,0:0:0:0:
320,192,47841,1,0,0:0:0:0:
192,192,47947,1,0,0:0:0:0:
320,192,48052,1,2,0:0:0:0:
448,192,48052,1,0,0:0:0:0:
64,192,48158,1,2,0:0:0:0:
192,192,48158,1,0,0:0:0:0:
448,192,48264,1,2,0:0:0:0:
192,192,48369,1,2,0:0:0:0:
320,192,48369,1,0,0:0:0:0:
64,192,48482,1,0,0:0:0:0:
320,192,48596,1,2,0:0:0:0:
448,192,48596,1,0,0:0:0:0:
192,192,48709,1,0,0:0:0:0:
448,192,48823,1,0,0:0:0:0:
64,192,48937,1,2,0:0:0:0:
192,192,48937,1,0,0:0:0:0:
320,192,49050,1,2,0:0:0:0:
448,192,49050,1,0,0:0:0:0:
192,192,49164,1,2,0:0:0:0:
64,192,49278,1,2,0:0:0:0:
320,192,49278,1,0,0:0:0:0:
448,192,49407,1,0,0:0:0:0:
192,192,49536,1,2,0:0:0:0:
320,192,49536,1,0,0:0:0:0:
64,192,49665,1,0,0:0:0:0:
192,192,49795,1,2,0:0:0:0:
448,192,49795,1,0,0:0:0:0:
320,192,49924,1,0,0:0:0:0:
64,192,50126,1,2,0:0:0:0:
448,192,50126,1,0,0:0:0:0:
320,192,50264,1,0,0:0:0:0:
64,192,50403,1,0,0:0:0:0:
192,192,50507,1,2,0:0:0:0:
320,192,50507,1,0,0:0:0:0:
64,192,50624,1,2,0:0:0:0:
448,192,50624,1,0,0:0:0:0:
320,192,50741,1,0,0:0:0:0:
192,192,50858,1,0,0:0:0:0:
320,192,50946,1,2,0:0:0:0:
448,192,50946,1,0,0:0:0:0:
64,192,51063,1,2,0:0:0:0:
192,192,51063,1,0,0:0:0:0:
448,192,51180,1,2,0:0:0:0:
192,192,51297,1,2,0:0:0:0:
320,192,51297,1,0,0:0:0:0:
64,192,51426,1,0,0:0:0:0:
320,192,51526,1,2,0:0:0:0:
448,192,51526,1,0,0:0:0:0:
448,192,51739,1,0,0:0:0:0:
64,192,51824,1,2,0:0:0:0:
192,192,51824,1,0,0:0:0:0:
320,192,51943,1,2,0:0:0:0:
448,192,51943,1,0,0:0:0:0:
192,192,52047,1,2,0:0:0:0:
64,192,52169,1,2,0:0:0:0:
320,192,52169,1,0,0:0:0:0:
448,192,52292,1,0,0:0:0:0:
192,192,52415,1,2,0:0:0:0:
320,192,52415,1,0,0:0:0:0:
64,192,52559,1,0,0:0:0:0:
192,192,52703,1,2,0:0:0:0:
448,192,52703,1,0,0:0:0:0:
64,192,53078,1,2,0:0:0:0:
192,192,53078,1,0,0:0:0:0:
448,192,53185,1,0,0:0:0:0:
64,192,53292,1,0,0:0:0:0:
320,192,53399,1,2,0:0:0:0:
448,192,53399,1,0,0:0:0:0:
64,192,53528,1,2,0:0:0:0:
192,192,53528,1,0,0:0:0:0:
448,192,53630,1,0,0:0:0:0:
64,192,53732,1,0,0:0:0:0:
192,192,53834,1,2,0:0:0:0:
320,192,53834,1,0,0:0:0:0:
64,192,53936,1,2,0:0:0:0:
448,192,53936,1,0,0:0:0:0:
320,192,54038,1,0,0:0:0:0:
192,192,54216,1,0,0:0:0:0:
320,192,54285,1,2,0:0:0:0:
448,192,54285,1,0,0:0:0:0:
64,192,54392,1,2,0:0:0:0:
192,192,54392,1,0,0:0:0:0:
320,192,54499,1,2,0:0:0:0:
64,192,54606,1,2,0:0:0:0:
448,192,54606,1,0,0:0:0:0:
192,192,54713,1,0,0:0:0:0:
320,192,54820,1,2,0:0:0:0:
448,192,54820,1,0,0:0:0:0:
64,192,54920,1,0,0:0:0:0:
320,192,55020,1,0,0:0:0:0:
192,192,55120,1,2,0:0:0:0:
448,192,55120,1,0,0:0:0:0:
64,192,55220,1,2,0:0:0:0:
320,192,55220,1,0,0:0:0:0:
192,192,55353,1,2,0:0:0:0:
64,192,55487,1,2,0:0:0:0:
448,192,55487,1,0,0:0:0:0:
320,192,55595,1,0,0:0:0:0:
64,192,55704,1,2,0:0:0:0:
192,192,55704,1,0,0:0:0:0:
320,192,55804,1,0,0:0:0:0:
192,192,55904,1,2,0:0:0:0:
448,192,55904,1,0,0:0:0:0:
320,192,56004,1,0,0:0:0:0:
64,192,56104,1,0,0:0:0:0:
320,192,56194,1,0,0:0:0:0:
64,192,56299,1,2,0:0:0:0:
448,192,56299,1,0,0:0:0:0:
192,192,56405,1,0,0:0:0:0:
320,192,56510,1,2,0:0:0:0:
448,192,56510,1,0,0:0:0:0:
192,192,56615,1,0,0:0:0:0:
64,192,56721,1,0,0:0:0:0:
192,192,56810,1,2,0:0:0:0:
320,192,56810,1,0,0:0:0:0:
64,192,56899,1,2,0:0:0:0:
448,192,56899,1,0,0:0:0:0:
320,192,56988,1,0,0:0:0:0:
192,192,57098,1,0,0:0:0:0:
64,192,57208,1,2,0:0:0:0:
320,192,57208,1,0,0:0:0:0:
192,192,57293,1,2,0:0:0:0:
448,192,57293,1,0,0:0:0:0:
320,192,57393,1,0,0:0:0:0:
192,192,57493,1,0,0:0:0:0:
320,192,57571,1,2,0:0:0:0:
448,192,57571,1,0,0:0:0:0:
64,192,57671,1,2,0:0:0:0:
192,192,57671,1,0,0:0:0:0:
320,192,57771,1,2,0:0:0:0:
64,192,57871,1,2,0:0:0:0:
448,192,57871,1,0,0:0:0:0:
320,192,57979,1,0,0:0:0:0:
192,192,58088,1,2,0:0:0:0:
448,192,58088,1,0,0:0:0:0:
64,192,58197,1,0,0:0:0:0:
320,192,58293,1,0,0:0:0:0:
448,192,58293,1,0,0:0:0:0:
192,192,58389,1,2,0:0:0:0:
64,192,58485,1,2,0:0:0:0:
320,192,58485,1,0,0:0:0:0:
192,192,58581,1,0,0:0:0:0:
64,192,58677,1,2,0:0:0:0:
448,192,58677,1,0,0:0:0:0:
320,192,58788,1,0,0:0:0:0:
64,192,58899,1,2,0:0:0:0:
192,192,58899,1,0,0:0:0:0:
448,192,58899,1,0,0:0:0:0:
320,192,58999,1,0,0:0:0:0:
192,192,59118,1,0,0:0:0:0:
64,192,59214,1,0,0:0:0:0:
192,192,59321,1,8,0:0:0:0:
320,192,59321,1,0,0:0:0:0:
448,192,59321,1,0,0:0:0:0:
64,192,59454,1,0,0:0:0:0:
320,192,59558,1,0,0:0:0:0:
192,192,59662,1,0,0:0:0:0:
64,192,59755,1,2,0:0:0:0:
448,192,59755,1,0,0:0:0:0:
320,192,59880,1,0,0:0:0:0:
64,192,59958,1,2,0:0:0:0:
192,192,59958,1,0,0:0:0:0:
320,192,60051,1,0,0:0:0:0:
64,192,60164,1,2,0:0:0:0:
448,192,60164,1,0,0:0:0:0:
320,192,60278,1,0,0:0:0:0:
64,192,60363,1,2,0:0:0:0:
192,192,60363,1,0,0:0:0:0:
320,192,60467,1,0,0:0:0:0:
64,192,60571,1,2,0:0:0:0:
192,192,60571,1,0,0:0:0:0:
448,192,60571,1,0,0:0:0:0:
320,192,60675,1,0,0:0:0:0:
192,192,60779,1,0,0:0:0:0:
448,192,60883,1,0,0:0:0:0:
64,192,60987,1,8,0:0:0:0:
192,192,60987,1,0,0:0:0:0:
320,192,60987,1,0,0:0:0:0:
448,192,61073,1,0,0:0:0:0:
192,192,61211,1,0,0:0:0:0:
320,192,61304,1,0,0:0:0:0:
64,192,61398,1,2,0:0:0:0:
448,192,61398,1,0,0:0:0:0:
320,192,61500,1,0,0:0:0:0:
64,192,61602,1,2,0:0:0:0:
192,192,61602,1,0,0:0:0:0:
320,192,61704,1,0,0:0:0:0:
64,192,61806,1,2,0:0:0:0:
448,192,61806,1,0,0:0:0:0:
320,192,61908,1,0,0:0:0:0:
64,192,62010,1,2,0:0:0:0:
192,192,62010,1,0,0:0:0:0:
320,192,62099,1,0,0:0:0:0:
192,192,62218,1,2,0:0:0:0:
448,192,62218,1,0,0:0:0:0:
320,192,62320,1,0,0:0:0:0:
64,192,62422,1,8,0:0:0:0:
192,192,62422,1,0,0:0:0:0:
320,192,62524,1,0,0:0:0:0:
192,192,62626,1,2,0:0:0:0:
448,192,62626,1,0,0:0:0:0:
320,192,62719,1,0,0:0:0:0:
64,192,62832,1,2,0:0:0:0:
448,192,62832,1,0,0:0:0:0:
192,192,62936,1,0,0:0:0:0:
64,192,63040,1,2,0:0:0:0:
320,192,63040,1,0,0:0:0:0:
192,192,63144,1,0,0:0:0:0:
320,192,63248,1,8,0:0:0:0:
448,192,63248,1,0,0:0:0:0:
192,192,63352,1,0,0:0:0:0:
64,192,63457,1,2,0:0:0:0:
320,192,63457,1,0,0:0:0:0:
192,192,63561,1,0,0:0:0:0:
64,192,63665,1,2,0:0:0:0:
448,192,63665,1,0,0:0:0:0:
320,192,63769,1,0,0:0:0:0:
192,192,63873,1,2,0:0:0:0:
448,192,63873,1,0,0:0:0:0:
320,192,63977,1,0,0:0:0:0:
64,192,64081,1,8,0:0:0:0:
192,192,64081,1,0,0:0:0:0:
320,192,64185,1,0,0:0:0:0:
192,192,64289,1,2,0:0:0:0:
448,192,64289,1,0,0:0:0:0:
320,192,64393,1,0,0:0:0:0:
64,192,64498,1,2,0:0:0:0:
448,192,64498,1,0,0:0:0:0:
192,192,64602,1,0,0:0:0:0:
64,192,64706,1,2,0:0:0:0:
320,192,64706,1,0,0:0:0:0:
192,192,64810,1,0,0:0:0:0:
64,192,64914,1,2,0:0:0:0:
448,192,64914,1,0,0:0:0:0:
320,192,65022,1,0,0:0:0:0:
192,192,65131,1,2,0:0:0:0:
448,192,65131,1,0,0:0:0:0:
320,192,65240,1,0,0:0:0:0:
64,192,65348,1,2,0:0:0:0:
448,192,65348,1,0,0:0:0:0:
192,192,65457,1,0,0:0:0:0:
320,192,65620,1,2,0:0:0:0:
448,192,65620,1,0,0:0:0:0:
192,192,65713,1,0,0:0:0:0:
320,192,65807,1,0,0:0:0:0:
64,192,65901,1,0,0:0:0:0:
192,192,65995,1,0,0:0:0:0:
448,192,65995,1,0,0:0:0:0:
64,192,66071,1,0,0:0:0:0:
320,192,66175,1,0,0:0:0:0:
192,192,66279,1,0,0:0:0:0:
64,192,66360,1,2,0:0:0:0:
448,192,66360,1,0,0:0:0:0:
192,192,66453,1,0,0:0:0:0:
320,192,66547,1,0,0:0:0:0:
64,192,66647,1,0,0:0:0:0:
192,192,66747,1,0,0:0:0:0:
448,192,66747,1,0,0:0:0:0:
64,192,66847,1,0,0:0:0:0:
320,192,66951,1,0,0:0:0:0:
192,192,67055,1,0,0:0:0:0:
320,192,67159,1,2,0:0:0:0:
448,192,67159,1,0,0:0:0:0:
192,192,67255,1,0,0:0:0:0:
320,192,67351,1,0,0:0:0:0:
64,192,67470,1,0,0:0:0:0:
448,192,67566,1,0,0:0:0:0:
64,192,67662,1,0,0:0:0:0:
320,192,67758,1,0,0:0:0:0:
192,192,67854,1,0,0:0:0:0:
64,192,67998,1,2,0:0:0:0:
448,192,68104,1,0,0:0:0:0:
192,192,68210,1,0,0:0:0:0:
320,192,68317,1,0,0:0:0:0:
448,192,68423,1,0,0:0:0:0:
64,192,68529,1,0,0:0:0:0:
320,192,68636,1,0,0:0:0:0:
192,192,68742,1,0,0:0:0:0:
320,192,68849,1,8,0:0:0:0:
448,192,68849,1,0,0:0:0:0:
64,192,68955,1,0,0:0:0:0:
192,192,69061,1,0,0:0:0:0:
64,192,69168,1,0,0:0:0:0:
448,192,69274,1,0,0:0:0:0:
192,192,69380,1,0,0:0:0:0:
64,192,69487,1,0,0:0:0:0:
192,192,69593,1,0,0:0:0:0:
320,192,69700,1,0,0:0:0:0:
64,192,69806,1,0,0:0:0:0:
192,192,69912,1,0,0:0:0:0:
64,192,70019,1,0,0:0:0:0:
320,192,70125,1,0,0:0:0:0:
192,192,70231,1,0,0:0:0:0:
64,192,70338,1,0,0:0:0:0:
192,192,70444,1,0,0:0:0:0:
320,192,70551,1,0,0:0:0:0:
64,192,70657,1,0,0:0:0:0:
192,192,70763,1,0,0:0:0:0:
64,192,70870,1,0,0:0:0:0:
320,192,70976,1,0,0:0:0:0:
192,192,71080,1,0,0:0:0:0:
64,192,71184,1,0,0:0:0:0:
192,192,71288,1,0,0:0:0:0:
320,192,71392,1,0,0:0:0:0:
64,192,71496,1,0,0:0:0:0:
192,192,71601,1,0,0:0:0:0:
64,192,71705,1,0,0:0:0:0:
320,192,71809,1,0,0:0:0:0:
192,192,71902,1,0,0:0:0:0:
64,192,71996,1,0,0:0:0:0:
192,192,72090,1,0,0:0:0:0:
320,192,72226,1,2,0:0:0:0:
448,192,72226,1,0,0:0:0:0:
64,192,72326,1,0,0:0:0:0:
192,192,72426,1,0,0:0:0:0:
64,192,72526,1,0,0:0:0:0:
320,192,72655,1,2,0:0:0:0:
448,192,72655,1,0,0:0:0:0:
192,192,72768,1,0,0:0:0:0:
64,192,72882,1,2,0:0:0:0:
448,192,72882,1,0,0:0:0:0:
192,192,72995,1,0,0:0:0:0:
320,192,73109,1,2,0:0:0:0:
448,192,73109,1,0,0:0:0:0:
64,192,73205,1,0,0:0:0:0:
192,192,73301,1,0,0:0:0:0:
64,192,73412,1,0,0:0:0:0:
320,192,73524,1,2,0:0:0:0:
448,192,73524,1,0,0:0:0:0:
192,192,73636,1,0,0:0:0:0:
64,192,73748,1,2,0:0:0:0:
448,192,73748,1,0,0:0:0:0:
192,192,73860,1,0,0:0:0:0:
320,192,73972,1,2,0:0:0:0:
448,192,73972,1,0,0:0:0:0:
64,192,74079,1,0,0:0:0:0:
192,192,74186,1,0,0:0:0:0:
64,192,74293,1,0,0:0:0:0:
320,192,74389,1,2,0:0:0:0:
448,192,74389,1,0,0:0:0:0:
192,192,74496,1,0,0:0:0:0:
64,192,74603,1,2,0:0:0:0:
448,192,74603,1,0,0:0:0:0:
192,192,74710,1,0,0:0:0:0:
320,192,74817,1,2,0:0:0:0:
448,192,74817,1,0,0:0:0:0:
192,192,74924,1,0,0:0:0:0:
64,192,75031,1,2,0:0:0:0:
448,192,75031,1,0,0:0:0:0:
192,192,75139,1,0,0:0:0:0:
64,192,75246,1,2,0:0:0:0:
320,192,75246,1,0,0:0:0:0:
448,192,75353,1,0,0:0:0:0:
192,192,75460,1,2,0:0:0:0:
320,192,75460,1,0,0:0:0:0:
448,192,75560,1,0,0:0:0:0:
64,192,75660,1,2,0:0:0:0:
192,192,75660,1,0,0:0:0:0:
320,192,75770,1,0,0:0:0:0:
448,192,75880,1,0,0:0:0:0:
320,192,75990,1,0,0:0:0:0:
64,192,76101,1,2,0:0:0:0:
192,192,76101,1,0,0:0:0:0:
448,192,76211,1,0,0:0:0:0:
64,192,76311,1,2,0:0:0:0:
320,192,76311,1,0,0:0:0:0:
448,192,76418,1,0,0:0:0:0:
64,192,76525,1,2,0:0:0:0:
192,192,76525,1,0,0:0:0:0:
320,192,76625,1,0,0:0:0:0:
448,192,76725,1,0,0:0:0:0:
320,192,76838,1,0,0:0:0:0:
64,192,76952,1,2,0:0:0:0:
192,192,76952,1,0,0:0:0:0:
448,192,77052,1,0,0:0:0:0:
64,192,77165,1,2,0:0:0:0:
320,192,77165,1,0,0:0:0:0:
448,192,77279,1,0,0:0:0:0:
64,192,77379,1,2,0:0:0:0:
192,192,77379,1,0,0:0:0:0:
320,192,77479,1,0,0:0:0:0:
448,192,77579,1,0,0:0:0:0:
320,192,77679,1,0,0:0:0:0:
64,192,77800,1,2,0:0:0:0:
192,192,77800,1,0,0:0:0:0:
448,192,77908,1,0,0:0:0:0:
64,192,78017,1,2,0:0:0:0:
320,192,78017,1,0,0:0:0:0:
448,192,78126,1,0,0:0:0:0:
64,192,78234,1,2,0:0:0:0:
192,192,78234,1,0,0:0:0:0:
448,192,78317,1,0,0:0:0:0:
64,192,78430,1,2,0:0:0:0:
320,192,78430,1,0,0:0:0:0:
448,192,78544,1,0,0:0:0:0:
192,192,78657,1,2,0:0:0:0:
320,192,78657,1,0,0:0:0:0:
64,192,78782,1,0,0:0:0:0:
192,192,78907,1,2,0:0:0:0:
448,192,78907,1,0,0:0:0:0:
320,192,79032,1,0,0:0:0:0:
64,192,79176,1,2,0:0:0:0:
448,192,79176,1,0,0:0:0:0:
192,192,79342,1,0,0:0:0:0:
320,192,79478,1,0,0:0:0:0:
448,192,79585,1,0,0:0:0:0:
64,192,79704,1,0,0:0:0:0:
320,192,79823,1,0,0:0:0:0:
192,192,79942,1,0,0:0:0:0:
448,192,80017,1,0,0:0:0:0:
192,192,80121,1,0,0:0:0:0:
448,192,80206,1,0,0:0:0:0:
64,192,80316,1,0,0:0:0:0:
320,192,80445,1,0,0:0:0:0:
64,192,80552,1,0,0:0:0:0:
192,192,80659,1,0,0:0:0:0:
448,192,80784,1,0,0:0:0:0:
64,192,80909,1,0,0:0:0:0:
192,192,81106,1,2,0:0:0:0:
448,192,81106,1,0,0:0:0:0:
64,192,81262,1,0,0:0:0:0:
448,192,81418,1,0,0:0:0:0:
320,192,81574,1,0,0:0:0:0:
192,192,81731,1,0,0:0:0:0:
64,192,81928,1,0,0:0:0:0:
320,192,82125,1,0,0:0:0:0:
448,192,82250,1,0,0:0:0:0:
192,192,82346,1,0,0:0:0:0:
320,192,82459,1,0,0:0:0:0:
64,192,82573,1,0,0:0:0:0:
192,192,82686,1,0,0:0:0:0:
320,192,82800,1,0,0:0:0:0:
192,192,82914,1,2,0:0:0:0:
448,192,82914,1,0,0:0:0:0:
64,192,83027,1,0,0:0:0:0:
320,192,83214,1,0,0:0:0:0:
192,192,83358,1,0,0:0:0:0:
448,192,83572,1,0,0:0:0:0:
320,192,83687,1,0,0:0:0:0:
192,192,83802,1,0,0:0:0:0:
448,192,83918,1,0,0:0:0:0:
192,192,84033,1,0,0:0:0:0:
320,192,84116,1,0,0:0:0:0:
448,192,84254,1,0,0:0:0:0:
64,192,84335,1,0,0:0:0:0:
192,192,84431,1,0,0:0:0:0:
320,192,84527,1,0,0:0:0:0:
192,192,84623,1,0,0:0:0:0:
64,192,84738,1,0,0:0:0:0:
192,192,84853,1,0,0:0:0:0:
320,192,84969,1,0,0:0:0:0:
192,192,85156,1,2,0:0:0:0:
448,192,85156,1,0,0:0:0:0:
320,192,85289,1,0,0:0:0:0:
192,192,85423,1,0,0:0:0:0:
64,192,85557,1,0,0:0:0:0:
192,192,85731,1,2,0:0:0:0:
448,192,85731,1,0,0:0:0:0:
320,192,85905,1,0,0:0:0:0:
192,192,86001,1,0,0:0:0:0:
448,192,86109,1,0,0:0:0:0:
64,192,86218,1,0,0:0:0:0:
448,192,86327,1,0,0:0:0:0:
192,192,86435,1,0,0:0:0:0:
320,192,86544,1,0,0:0:0:0:
64,192,86653,1,2,0:0:0:0:
448,192,86653,1,0,0:0:0:0:
320,192,86791,1,0,0:0:0:0:
192,192,86899,1,0,0:0:0:0:
448,192,87037,1,0,0:0:0:0:
64,192,87145,1,0,0:0:0:0:
320,192,87254,1,0,0:0:0:0:
192,192,87363,1,0,0:0:0:0:
448,192,87439,1,0,0:0:0:0:
320,192,87552,1,0,0:0:0:0:
64,192,87665,1,0,0:0:0:0:
192,192,87779,1,0,0:0:0:0:
320,192,87892,1,0,0:0:0:0:
192,192,87996,1,2,0:0:0:0:
448,192,87996,1,0,0:0:0:0:
320,192,88100,1,0,0:0:0:0:
192,192,88204,1,0,0:0:0:0:
448,192,88308,1,0,0:0:0:0:
64,192,88412,1,2,0:0:0:0:
320,192,88412,1,0,0:0:0:0:
192,192,88531,1,0,0:0:0:0:
448,192,88650,1,0,0:0:0:0:
64,192,88769,1,0,0:0:0:0:
192,192,88888,1,2,0:0:0:0:
320,192,88888,1,0,0:0:0:0:
448,192,89017,1,0,0:0:0:0:
320,192,89146,1,0,0:0:0:0:
64,192,89275,1,0,0:0:0:0:
192,192,89525,1,2,0:0:0:0:
448,192,89525,1,0,0:0:0:0:
320,192,89681,1,0,0:0:0:0:
192,192,89781,1,0,0:0:0:0:
448,192,89881,1,0,0:0:0:0:
64,192,90006,1,0,0:0:0:0:
448,192,90099,1,0,0:0:0:0:
192,192,90224,1,0,0:0:0:0:
320,192,90349,1,0,0:0:0:0:
64,192,90474,1,2,0:0:0:0:
448,192,90474,1,0,0:0:0:0:
320,192,90599,1,0,0:0:0:0:
192,192,90709,1,0,0:0:0:0:
448,192,90819,1,0,0:0:0:0:
64,192,90929,1,0,0:0:0:0:
320,192,91040,1,0,0:0:0:0:
192,192,91136,1,0,0:0:0:0:
448,192,91232,1,0,0:0:0:0:
64,192,91439,1,0,0:0:0:0:
192,192,91551,1,0,0:0:0:0:
320,192,91663,1,0,0:0:0:0:
192,192,91775,1,2,0:0:0:0:
448,192,91775,1,0,0:0:0:0:
320,192,91875,1,0,0:0:0:0:
192,192,91975,1,0,0:0:0:0:
448,192,92100,1,0,0:0:0:0:
64,192,92225,1,2,0:0:0:0:
320,192,92225,1,0,0:0:0:0:
192,192,92333,1,0,0:0:0:0:
448,192,92442,1,0,0:0:0:0:
64,192,92551,1,0,0:0:0:0:
192,192,92659,1,2,0:0:0:0:
320,192,92659,1,0,0:0:0:0:
448,192,92768,1,0,0:0:0:0:
320,192,92877,1,0,0:0:0:0:
192,192,93002,1,0,0:0:0:0:
64,192,93127,1,2,0:0:0:0:
448,192,93127,1,0,0:0:0:0:
320,192,93220,1,0,0:0:0:0:
192,192,93314,1,0,0:0:0:0:
64,192,93408,1,0,0:0:0:0:
320,192,93546,1,0,0:0:0:0:
64,192,93760,1,2,0:0:0:0:
192,192,93760,1,0,0:0:0:0:
448,192,93879,1,0,0:0:0:0:
320,192,93998,1,0,0:0:0:0:
64,192,94117,1,0,0:0:0:0:
320,192,94209,1,2,0:0:0:0:
448,192,94209,1,0,0:0:0:0:
192,192,94316,1,0,0:0:0:0:
320,192,94423,1,0,0:0:0:0:
64,192,94530,1,0,0:0:0:0:
192,192,94637,1,2,0:0:0:0:
448,192,94637,1,0,0:0:0:0:
64,192,94744,1,0,0:0:0:0:
320,192,94851,1,0,0:0:0:0:
192,192,95007,1,0,0:0:0:0:
64,192,95103,1,2,0:0:0:0:
448,192,95103,1,0,0:0:0:0:
320,192,95216,1,0,0:0:0:0:
192,192,95360,1,0,0:0:0:0:
320,192,95460,1,0,0:0:0:0:
64,192,95560,1,0,0:0:0:0:
320,192,95660,1,0,0:0:0:0:
192,192,95760,1,0,0:0:0:0:
448,192,95860,1,0,0:0:0:0:
64,192,95960,1,2,0:0:0:0:
320,192,95960,1,0,0:0:0:0:
448,192,96096,1,0,0:0:0:0:
192,192,96179,1,0,0:0:0:0:
320,192,96329,1,0,0:0:0:0:
64,192,96397,1,0,0:0:0:0:
448,192,96497,1,0,0:0:0:0:
192,192,96616,1,0,0:0:0:0:
320,192,96735,1,0,0:0:0:0:
64,192,96854,1,2,0:0:0:0:
448,192,96854,1,0,0:0:0:0:
320,192,96973,1,0,0:0:0:0:
192,192,97109,1,0,0:0:0:0:
320,192,97213,1,0,0:0:0:0:
64,192,97433,1,2,0:0:0:0:
192,192,97433,1,0,0:0:0:0:
448,192,97550,1,0,0:0:0:0:
320,192,97667,1,0,0:0:0:0:
64,192,97784,1,0,0:0:0:0:
320,192,97884,1,2,0:0:0:0:
448,192,97884,1,0,0:0:0:0:
192,192,97984,1,0,0:0:0:0:
320,192,98184,1,0,0:0:0:0:
192,192,98303,1,2,0:0:0:0:
448,192,98303,1,0,0:0:0:0:
64,192,98466,1,0,0:0:0:0:
320,192,98555,1,0,0:0:0:0:
64,192,98818,1,2,0:0:0:0:
448,192,98818,1,0,0:0:0:0:
192,192,98968,1,0,0:0:0:0:
320,192,99176,1,0,0:0:0:0:
192,192,99236,1,0,0:0:0:0:
64,192,99351,1,0,0:0:0:0:
320,192,99466,1,0,0:0:0:0:
192,192,99559,1,0,0:0:0:0:
448,192,99667,1,0,0:0:0:0:
64,192,99776,1,2,0:0:0:0:
320,192,99776,1,0,0:0:0:0:
448,192,99907,1,0,0:0:0:0:
192,192,100011,1,0,0:0:0:0:
320,192,100161,1,0,0:0:0:0:
64,192,100249,1,0,0:0:0:0:
192,192,100362,1,0,0:0:0:0:
320,192,100512,1,0,0:0:0:0:
448,192,100633,1,0,0:0:0:0:
64,192,100809,1,2,0:0:0:0:
192,192,100809,1,0,0:0:0:0:
448,192,100985,1,0,0:0:0:0:
320,192,101161,1,0,0:0:0:0:
192,192,101276,1,0,0:0:0:0:
64,192,101391,1,0,0:0:0:0:
192,192,101480,1,0,0:0:0:0:
320,192,101569,1,0,0:0:0:0:
64,192,101707,1,0,0:0:0:0:
448,192,101803,1,0,0:0:0:0:
320,192,101922,1,0,0:0:0:0:
192,192,102018,1,0,0:0:0:0:
448,192,102126,1,0,0:0:0:0:
64,192,102235,1,0,0:0:0:0:
192,192,102344,1,0,0:0:0:0:
320,192,102452,1,0,0:0:0:0:
64,192,102561,1,0,0:0:0:0:
448,192,102686,1,0,0:0:0:0:
320,192,102811,1,0,0:0:0:0:
192,192,103008,1,0,0:0:0:0:
64,192,103208,1,0,0:0:0:0:
320,192,103308,1,2,0:0:0:0:
448,192,103308,1,0,0:0:0:0:
192,192,103495,1,0,0:0:0:0:
320,192,103645,1,0,0:0:0:0:
448,192,103753,1,0,0:0:0:0:
64,192,103862,1,2,0:0:0:0:
320,192,103862,1,0,0:0:0:0:
192,192,103987,1,0,0:0:0:0:
448,192,104112,1,0,0:0:0:0:
192,192,104237,1,0,0:0:0:0:
64,192,104362,1,2,0:0:0:0:
448,192,104362,1,0,0:0:0:0:
320,192,104500,1,0,0:0:0:0:
192,192,104639,1,0,0:0:0:0:
448,192,104778,1,0,0:0:0:0:
64,192,105005,1,2,0:0:0:0:
320,192,105005,1,0,0:0:0:0:
192,192,105118,1,0,0:0:0:0:
320,192,105256,1,0,0:0:0:0:
64,192,105332,1,0,0:0:0:0:
192,192,105449,1,0,0:0:0:0:
448,192,105449,1,0,0:0:0:0:
64,192,105566,1,0,0:0:0:0:
320,192,105671,1,0,0:0:0:0:
448,192,105777,1,0,0:0:0:0:
64,192,105882,1,2,0:0:0:0:
192,192,105882,1,0,0:0:0:0:
320,192,105882,1,0,0:0:0:0:
448,192,105987,1,0,0:0:0:0:
64,192,106093,1,0,0:0:0:0:
448,192,106198,1,0,0:0:0:0:
64,192,106304,1,2,0:0:0:0:
192,192,106304,1,0,0:0:0:0:
320,192,106410,1,0,0:0:0:0:
192,192,106515,1,2,0:0:0:0:
448,192,106515,1,0,0:0:0:0:
320,192,106621,1,0,0:0:0:0:
64,192,106727,1,2,0:0:0:0:
192,192,106727,1,0,0:0:0:0:
448,192,106832,1,0,0:0:0:0:
64,192,106938,1,0,0:0:0:0:
448,192,107043,1,0,0:0:0:0:
64,192,107149,1,2,0:0:0:0:
192,192,107149,1,0,0:0:0:0:
320,192,107255,1,0,0:0:0:0:
192,192,107360,1,2,0:0:0:0:
448,192,107360,1,0,0:0:0:0:
320,192,107466,1,0,0:0:0:0:
64,192,107572,1,2,0:0:0:0:
192,192,107572,1,0,0:0:0:0:
448,192,107675,1,0,0:0:0:0:
64,192,107778,1,0,0:0:0:0:
448,192,107882,1,0,0:0:0:0:
64,192,107985,1,2,0:0:0:0:
192,192,107985,1,0,0:0:0:0:
320,192,108089,1,0,0:0:0:0:
192,192,108192,1,2,0:0:0:0:
448,192,108192,1,0,0:0:0:0:
320,192,108300,1,0,0:0:0:0:
64,192,108409,1,2,0:0:0:0:
192,192,108409,1,0,0:0:0:0:
320,192,108518,1,0,0:0:0:0:
192,192,108609,1,2,0:0:0:0:
448,192,108609,1,0,0:0:0:0:
320,192,108700,1,0,0:0:0:0:
64,192,108805,1,2,0:0:0:0:
448,192,108805,1,0,0:0:0:0:
192,192,108911,1,0,0:0:0:0:
64,192,109016,1,2,0:0:0:0:
320,192,109016,1,0,0:0:0:0:
192,192,109122,1,0,0:0:0:0:
320,192,109228,1,2,0:0:0:0:
448,192,109228,1,0,0:0:0:0:
64,192,109328,1,0,0:0:0:0:
448,192,109428,1,0,0:0:0:0:
64,192,109528,1,0,0:0:0:0:
320,192,109638,1,2,0:0:0:0:
448,192,109638,1,0,0:0:0:0:
192,192,109748,1,0,0:0:0:0:
64,192,109852,1,2,0:0:0:0:
320,192,109852,1,0,0:0:0:0:
192,192,109956,1,0,0:0:0:0:
320,192,110060,1,2,0:0:0:0:
448,192,110060,1,0,0:0:0:0:
64,192,110164,1,0,0:0:0:0:
448,192,110268,1,0,0:0:0:0:
64,192,110373,1,0,0:0:0:0:
320,192,110477,1,2,0:0:0:0:
448,192,110477,1,0,0:0:0:0:
192,192,110573,1,0,0:0:0:0:
64,192,110669,1,2,0:0:0:0:
320,192,110669,1,0,0:0:0:0:
192,192,110765,1,0,0:0:0:0:
320,192,110884,1,2,0:0:0:0:
448,192,110884,1,0,0:0:0:0:
64,192,110977,1,0,0:0:0:0:
448,192,111082,1,0,0:0:0:0:
64,192,111188,1,0,0:0:0:0:
320,192,111293,1,2,0:0:0:0:
448,192,111293,1,0,0:0:0:0:
192,192,111399,1,0,0:0:0:0:
64,192,111492,1,2,0:0:0:0:
320,192,111492,1,0,0:0:0:0:
192,192,111586,1,0,0:0:0:0:
320,192,111703,1,2,0:0:0:0:
448,192,111703,1,0,0:0:0:0:
192,192,111820,1,0,0:0:0:0:
64,192,111925,1,2,0:0:0:0:
320,192,111925,1,0,0:0:0:0:
192,192,112021,1,0,0:0:0:0:
64,192,112134,1,2,0:0:0:0:
448,192,112134,1,0,0:0:0:0:
320,192,112234,1,0,0:0:0:0:
192,192,112334,1,2,0:0:0:0:
448,192,112334,1,0,0:0:0:0:
320,192,112434,1,0,0:0:0:0:
64,192,112597,1,2,0:0:0:0:
192,192,112597,1,0,0:0:0:0:
448,192,112707,1,0,0:0:0:0:
64,192,112817,1,0,0:0:0:0:
320,192,112927,1,0,0:0:0:0:
192,192,113038,1,0,0:0:0:0:
448,192,113148,1,0,0:0:0:0:
64,192,113248,1,0,0:0:0:0:
320,192,113326,1,0,0:0:0:0:
64,192,113419,1,0,0:0:0:0:
320,192,113515,1,0,0:0:0:0:
192,192,113611,1,0,0:0:0:0:
448,192,113707,1,0,0:0:0:0:
320,192,113803,1,0,0:0:0:0:
64,192,113916,1,0,0:0:0:0:
448,192,114007,1,0,0:0:0:0:
192,192,114098,1,0,0:0:0:0:
320,192,114190,1,2,0:0:0:0:
448,192,114190,1,0,0:0:0:0:
64,192,114309,1,0,0:0:0:0:
320,192,114428,1,0,0:0:0:0:
192,192,114516,1,0,0:0:0:0:
320,192,114604,1,0,0:0:0:0:
192,192,114700,1,0,0:0:0:0:
448,192,114796,1,0,0:0:0:0:
320,192,114892,1,0,0:0:0:0:
64,192,115017,1,0,0:0:0:0:
192,192,115142,1,0,0:0:0:0:
448,192,115334,1,0,0:0:0:0:
64,192,115430,1,0,0:0:0:0:
320,192,115526,1,0,0:0:0:0:
192,192,115718,1,0,0:0:0:0:
64,192,115823,1,2,0:0:0:0:
448,192,115823,1,0,0:0:0:0:
192,192,115928,1,0,0:0:0:0:
320,192,116034,1,0,0:0:0:0:
64,192,116139,1,0,0:0:0:0:
320,192,116239,1,0,0:0:0:0:
64,192,116339,1,0,0:0:0:0:
448,192,116439,1,0,0:0:0:0:
192,192,116539,1,0,0:0:0:0:
64,192,116639,1,0,0:0:0:0:
320,192,116639,1,0,0:0:0:0:
448,192,116739,1,0,0:0:0:0:
192,192,116839,1,0,0:0:0:0:
64,192,116926,1,0,0:0:0:0:
320,192,117013,1,2,0:0:0:0:
448,192,117013,1,0,0:0:0:0:
192,192,117100,1,0,0:0:0:0:
320,192,117210,1,0,0:0:0:0:
448,192,117320,1,0,0:0:0:0:
64,192,117404,1,2,0:0:0:0:
192,192,117404,1,0,0:0:0:0:
320,192,117504,1,0,0:0:0:0:
448,192,117611,1,0,0:0:0:0:
192,192,117718,1,0,0:0:0:0:
64,192,117778,1,2,0:0:0:0:
320,192,117778,1,0,0:0:0:0:
448,192,117872,1,0,0:0:0:0:
192,192,117967,1,0,0:0:0:0:
320,192,118062,1,0,0:0:0:0:
64,192,118157,1,2,0:0:0:0:
448,192,118157,1,0,0:0:0:0:
320,192,118252,1,0,0:0:0:0:
192,192,118347,1,0,0:0:0:0:
64,192,118472,1,0,0:0:0:0:
192,192,118650,1,2,0:0:0:0:
448,192,118650,1,0,0:0:0:0:
320,192,118650,1,0,0:0:0:0:
64,192,118779,1,0,0:0:0:0:
320,192,118908,1,0,0:0:0:0:
64,192,118991,1,0,0:0:0:0:
192,192,119074,1,2,0:0:0:0:
320,192,119074,1,0,0:0:0:0:
448,192,119158,1,0,0:0:0:0:
64,192,119251,1,0,0:0:0:0:
192,192,119345,1,0,0:0:0:0:
320,192,119414,1,2,0:0:0:0:
448,192,119414,1,0,0:0:0:0:
64,192,119503,1,0,0:0:0:0:
320,192,119592,1,0,0:0:0:0:
192,192,119681,1,0,0:0:0:0:
64,192,119771,1,2,0:0:0:0:
448,192,119771,1,0,0:0:0:0:
192,192,119860,1,0,0:0:0:0:
320,192,119979,1,0,0:0:0:0:
64,192,120083,1,0,0:0:0:0:
320,192,120187,1,0,0:0:0:0:
64,192,120276,1,0,0:0:0:0:
192,192,120372,1,0,0:0:0:0:
448,192,120468,1,0,0:0:0:0:
192,192,120564,1,2,0:0:0:0:
320,192,120564,1,0,0:0:0:0:
64,192,120668,1,0,0:0:0:0:
448,192,120772,1,0,0:0:0:0:
192,192,120876,1,0,0:0:0:0:
448,192,120980,1,0,0:0:0:0:
192,192,121069,1,0,0:0:0:0:
320,192,121158,1,0,0:0:0:0:
448,192,121271,1,0,0:0:0:0:
64,192,121385,1,2,0:0:0:0:
320,192,121385,1,0,0:0:0:0:
192,192,121510,1,0,0:0:0:0:
320,192,121635,1,0,0:0:0:0:
64,192,121743,1,0,0:0:0:0:
448,192,121852,1,0,0:0:0:0:
320,192,121961,1,0,0:0:0:0:
64,192,122069,1,0,0:0:0:0:
448,192,122178,1,0,0:0:0:0:
64,192,122287,1,0,0:0:0:0:
320,192,122356,1,0,0:0:0:0:
192,192,122489,1,0,0:0:0:0:
64,192,122602,1,0,0:0:0:0:
192,192,122691,1,2,0:0:0:0:
448,192,122691,1,0,0:0:0:0:
320,192,122806,1,0,0:0:0:0:
192,192,122921,1,0,0:0:0:0:
64,192,123037,1,0,0:0:0:0:
192,192,123152,1,2,0:0:0:0:
320,192,123152,1,0,0:0:0:0:
448,192,123267,1,0,0:0:0:0:
320,192,123382,1,0,0:0:0:0:
192,192,123498,1,0,0:0:0:0:
64,192,123613,1,2,0:0:0:0:
320,192,123613,1,0,0:0:0:0:
448,192,123743,1,0,0:0:0:0:
320,192,123858,1,0,0:0:0:0:
192,192,123973,1,0,0:0:0:0:
64,192,124123,1,2,0:0:0:0:
448,192,124123,1,0,0:0:0:0:
320,192,124231,1,0,0:0:0:0:
192,192,124375,1,0,0:0:0:0:
64,192,124460,1,0,0:0:0:0:
320,192,124560,1,0,0:0:0:0:
192,192,124660,1,0,0:0:0:0:
64,192,124760,1,0,0:0:0:0:
448,192,124860,1,0,0:0:0:0:
320,192,124960,1,8,0:0:0:0:
64,192,125060,1,0,0:0:0:0:
192,192,125160,1,0,0:0:0:0:
64,192,125260,1,0,0:0:0:0:
320,192,125360,1,0,0:0:0:0:
192,192,125473,1,0,0:0:0:0:
64,192,125570,1,0,0:0:0:0:
192,192,125667,1,0,0:0:0:0:
320,192,125765,1,0,0:0:0:0:
64,192,125873,1,0,0:0:0:0:
192,192,125982,1,0,0:0:0:0:
64,192,126091,1,0,0:0:0:0:
320,192,126166,1,0,0:0:0:0:
192,192,126285,1,0,0:0:0:0:
64,192,126372,1,0,0:0:0:0:
192,192,126476,1,0,0:0:0:0:
320,192,126580,1,0,0:0:0:0:
64,192,126684,1,0,0:0:0:0:
448,192,126788,1,0,0:0:0:0:
192,192,126888,1,0,0:0:0:0:
320,192,126988,1,0,0:0:0:0:
64,192,127088,1,0,0:0:0:0:
448,192,127188,1,0,0:0:0:0:
192,192,127288,1,0,0:0:0:0:
320,192,127388,1,0,0:0:0:0:
64,192,127488,1,0,0:0:0:0:
448,192,127588,1,0,0:0:0:0:
192,192,127688,1,0,0:0:0:0:
320,192,127788,1,0,0:0:0:0:
64,192,127877,1,0,0:0:0:0:
448,192,127981,1,0,0:0:0:0:
192,192,128085,1,0,0:0:0:0:
448,192,128189,1,0,0:0:0:0:
320,192,128293,1,0,0:0:0:0:
64,192,128397,1,0,0:0:0:0:
192,192,128516,1,0,0:0:0:0:
448,192,128616,1,0,0:0:0:0:
320,192,128716,1,0,0:0:0:0:
64,192,128816,1,0,0:0:0:0:
192,192,128916,1,0,0:0:0:0:
448,192,129016,1,0,0:0:0:0:
320,192,129116,1,0,0:0:0:0:
64,192,129216,1,0,0:0:0:0:
192,192,129316,1,0,0:0:0:0:
448,192,129435,1,0,0:0:0:0:
320,192,129535,1,0,0:0:0:0:
64,192,129635,1,0,0:0:0:0:
192,192,129885,1,2,0:0:0:0:
448,192,129885,1,0,0:0:0:0:
320,192,129985,1,0,0:0:0:0:
64,192,130085,1,0,0:0:0:0:
320,192,130185,1,0,0:0:0:0:
192,192,130285,1,2,0:0:0:0:
448,192,130285,1,0,0:0:0:0:
320,192,130390,1,0,0:0:0:0:
64,192,130496,1,2,0:0:0:0:
192,192,130496,1,0,0:0:0:0:
320,192,130601,1,0,0:0:0:0:
192,192,130707,1,2,0:0:0:0:
448,192,130707,1,0,0:0:0:0:
320,192,130813,1,0,0:0:0:0:
64,192,130918,1,0,0:0:0:0:
320,192,131024,1,0,0:0:0:0:
192,192,131130,1,2,0:0:0:0:
448,192,131130,1,0,0:0:0:0:
320,192,131235,1,0,0:0:0:0:
64,192,131341,1,2,0:0:0:0:
192,192,131341,1,0,0:0:0:0:
320,192,131446,1,0,0:0:0:0:
192,192,131552,1,2,0:0:0:0:
448,192,131552,1,0,0:0:0:0:
320,192,131657,1,0,0:0:0:0:
64,192,131763,1,0,0:0:0:0:
320,192,131868,1,0,0:0:0:0:
192,192,131974,1,2,0:0:0:0:
448,192,131974,1,0,0:0:0:0:
320,192,132074,1,0,0:0:0:0:
64,192,132174,1,2,0:0:0:0:
192,192,132174,1,0,0:0:0:0:
320,192,132274,1,0,0:0:0:0:
192,192,132374,1,2,0:0:0:0:
448,192,132374,1,0,0:0:0:0:
320,192,132474,1,0,0:0:0:0:
64,192,132574,1,2,0:0:0:0:
192,192,132574,1,0,0:0:0:0:
448,192,132682,1,0,0:0:0:0:
64,192,132791,1,2,0:0:0:0:
320,192,132791,1,0,0:0:0:0:
448,192,132900,1,0,0:0:0:0:
192,192,133008,1,2,0:0:0:0:
320,192,133008,1,0,0:0:0:0:
64,192,133117,1,0,0:0:0:0:
320,192,133337,1,2,0:0:0:0:
448,192,133337,1,0,0:0:0:0:
64,192,133447,1,0,0:0:0:0:
320,192,133557,1,0,0:0:0:0:
192,192,133667,1,0,0:0:0:0:
320,192,133797,1,0,0:0:0:0:
192,192,133904,1,0,0:0:0:0:
448,192,134029,1,0,0:0:0:0:
64,192,134121,1,0,0:0:0:0:
192,192,134202,1,2,0:0:0:0:
448,192,134202,1,0,0:0:0:0:
320,192,134306,1,0,0:0:0:0:
64,192,134410,1,0,0:0:0:0:
448,192,134514,1,0,0:0:0:0:
64,192,134647,1,0,0:0:0:0:
448,192,134743,1,0,0:0:0:0:
192,192,134862,1,0,0:0:0:0:
64,192,134966,1,0,0:0:0:0:
320,192,135070,1,0,0:0:0:0:
192,192,135163,1,0,0:0:0:0:
448,192,135270,1,0,0:0:0:0:
64,192,135377,1,0,0:0:0:0:
320,192,135484,1,2,0:0:0:0:
448,192,135484,1,0,0:0:0:0:
192,192,135591,1,0,0:0:0:0:
64,192,135698,1,0,0:0:0:0:
448,192,135794,1,0,0:0:0:0:
64,192,135890,1,2,0:0:0:0:
320,192,135890,1,0,0:0:0:0:
448,192,136015,1,0,0:0:0:0:
192,192,136140,1,0,0:0:0:0:
320,192,136229,1,0,0:0:0:0:
64,192,136318,1,2,0:0:0:0:
448,192,136318,1,0,0:0:0:0:
320,192,136423,1,0,0:0:0:0:
192,192,136529,1,0,0:0:0:0:
64,192,136634,1,0,0:0:0:0:
320,192,136740,1,2,0:0:0:0:
448,192,136740,1,0,0:0:0:0:
192,192,136846,1,0,0:0:0:0:
320,192,136951,1,0,0:0:0:0:
64,192,137057,1,0,0:0:0:0:
448,192,137163,1,0,0:0:0:0:
192,192,137268,1,0,0:0:0:0:
320,192,137374,1,0,0:0:0:0:
192,192,137479,1,0,0:0:0:0:
64,192,137585,1,2,0:0:0:0:
448,192,137585,1,0,0:0:0:0:
320,192,137685,1,0,0:0:0:0:
192,192,137785,1,0,0:0:0:0:
448,192,137885,1,0,0:0:0:0:
320,192,137985,1,0,0:0:0:0:
448,192,138085,1,0,0:0:0:0:
192,192,138185,1,0,0:0:0:0:
320,192,138285,1,0,0:0:0:0:
448,192,138385,1,0,0:0:0:0:
320,192,138482,1,0,0:0:0:0:
192,192,138579,1,0,0:0:0:0:
448,192,138677,1,0,0:0:0:0:
320,192,138774,1,0,0:0:0:0:
448,192,138872,1,0,0:0:0:0:
192,192,138969,1,0,0:0:0:0:
320,192,139066,1,0,0:0:0:0:
64,192,139164,1,2,0:0:0:0:
448,192,139164,1,0,0:0:0:0:
192,192,139289,1,0,0:0:0:0:
320,192,139382,1,0,0:0:0:0:
192,192,139490,1,0,0:0:0:0:
64,192,139599,1,2,0:0:0:0:
448,192,139599,1,0,0:0:0:0:
320,192,139695,1,0,0:0:0:0:
192,192,139791,1,0,0:0:0:0:
320,192,139887,1,0,0:0:0:0:
64,192,140000,1,2,0:0:0:0:
448,192,140000,1,0,0:0:0:0:
192,192,140093,1,0,0:0:0:0:
320,192,140194,1,0,0:0:0:0:
192,192,140295,1,0,0:0:0:0:
64,192,140397,1,2,0:0:0:0:
448,192,140397,1,0,0:0:0:0:
320,192,140498,1,0,0:0:0:0:
192,192,140599,1,0,0:0:0:0:
320,192,140688,1,0,0:0:0:0:
64,192,140828,1,2,0:0:0:0:
192,192,140828,1,0,0:0:0:0:
448,192,140936,1,0,0:0:0:0:
320,192,141045,1,0,0:0:0:0:
448,192,141128,1,0,0:0:0:0:
64,192,141233,1,2,0:0:0:0:
192,192,141233,1,0,0:0:0:0:
320,192,141339,1,0,0:0:0:0:
64,192,141444,1,2,0:0:0:0:
448,192,141444,1,0,0:0:0:0:
320,192,141550,1,0,0:0:0:0:
64,192,141656,1,2,0:0:0:0:
192,192,141656,1,0,0:0:0:0:
448,192,141758,1,0,0:0:0:0:
320,192,141861,1,0,0:0:0:0:
448,192,141964,1,0,0:0:0:0:
64,192,142066,1,2,0:0:0:0:
192,192,142066,1,0,0:0:0:0:
320,192,142169,1,0,0:0:0:0:
64,192,142272,1,2,0:0:0:0:
448,192,142272,1,0,0:0:0:0:
320,192,142375,1,0,0:0:0:0:
64,192,142477,1,2,0:0:0:0:
192,192,142477,1,0,0:0:0:0:
448,192,142579,1,0,0:0:0:0:
320,192,142682,1,0,0:0:0:0:
448,192,142772,1,0,0:0:0:0:
64,192,142891,1,2,0:0:0:0:
192,192,142891,1,0,0:0:0:0:
320,192,142995,1,0,0:0:0:0:
64,192,143099,1,2,0:0:0:0:
448,192,143099,1,0,0:0:0:0:
320,192,143203,1,0,0:0:0:0:
64,192,143307,1,2,0:0:0:0:
192,192,143307,1,0,0:0:0:0:
320,192,143411,1,0,0:0:0:0:
64,192,143500,1,2,0:0:0:0:
448,192,143500,1,0,0:0:0:0:
320,192,143608,1,0,0:0:0:0:
192,192,143717,1,2,0:0:0:0:
448,192,143717,1,0,0:0:0:0:
64,192,143826,1,0,0:0:0:0:
192,192,143934,1,2,0:0:0:0:
320,192,143934,1,0,0:0:0:0:
64,192,144043,1,0,0:0:0:0:
320,192,144320,1,2,0:0:0:0:
448,192,144320,1,0,0:0:0:0:
192,192,144464,1,0,0:0:0:0:
448,192,144557,1,0,0:0:0:0:
64,192,144651,1,0,0:0:0:0:
448,192,144745,1,0,0:0:0:0:
64,192,144839,1,0,0:0:0:0:
320,192,144995,1,0,0:0:0:0:
192,192,145103,1,0,0:0:0:0:
64,192,145212,1,2,0:0:0:0:
448,192,145212,1,0,0:0:0:0:
320,192,145321,1,0,0:0:0:0:
192,192,145429,1,0,0:0:0:0:
448,192,145538,1,0,0:0:0:0:
192,192,145688,1,0,0:0:0:0:
320,192,145838,1,0,0:0:0:0:
192,192,145946,1,0,0:0:0:0:
448,192,146082,1,0,0:0:0:0:
64,192,146165,1,0,0:0:0:0:
320,192,146328,1,0,0:0:0:0:
192,192,146409,1,0,0:0:0:0:
320,192,146491,1,2,0:0:0:0:
448,192,146491,1,0,0:0:0:0:
64,192,146610,1,0,0:0:0:0:
320,192,146760,1,0,0:0:0:0:
192,192,146835,1,0,0:0:0:0:
64,192,146910,1,2,0:0:0:0:
320,192,146910,1,0,0:0:0:0:
448,192,147017,1,0,0:0:0:0:
192,192,147124,1,0,0:0:0:0:
320,192,147220,1,0,0:0:0:0:
64,192,147337,1,2,0:0:0:0:
448,192,147337,1,0,0:0:0:0:
192,192,147418,1,0,0:0:0:0:
448,192,147547,1,0,0:0:0:0:
192,192,147628,1,0,0:0:0:0:
320,192,147798,1,2,0:0:0:0:
448,192,147798,1,0,0:0:0:0:
192,192,147908,1,0,0:0:0:0:
448,192,148018,1,0,0:0:0:0:
64,192,148128,1,0,0:0:0:0:
448,192,148219,1,0,0:0:0:0:
64,192,148310,1,0,0:0:0:0:
320,192,148402,1,0,0:0:0:0:
192,192,148493,1,0,0:0:0:0:
64,192,148585,1,2,0:0:0:0:
320,192,148585,1,0,0:0:0:0:
448,192,148585,1,0,0:0:0:0:
192,192,148685,1,0,0:0:0:0:
448,192,148785,1,2,0:0:0:0:
192,192,148885,1,0,0:0:0:0:
320,192,148985,1,2,0:0:0:0:
64,192,149074,1,0,0:0:0:0:
448,192,149187,1,2,0:0:0:0:
320,192,149280,1,0,0:0:0:0:
64,192,149374,1,2,0:0:0:0:
192,192,149468,1,0,0:0:0:0:
64,192,149581,1,2,0:0:0:0:
448,192,149677,1,0,0:0:0:0:
192,192,149773,1,2,0:0:0:0:
448,192,149869,1,0,0:0:0:0:
320,192,149965,1,2,0:0:0:0:
192,192,150046,1,0,0:0:0:0:
320,192,150184,1,2,0:0:0:0:
448,192,150184,1,0,0:0:0:0:
64,192,150291,1,0,0:0:0:0:
448,192,150398,1,0,0:0:0:0:
64,192,150505,1,0,0:0:0:0:
192,192,150612,1,2,0:0:0:0:
320,192,150612,1,0,0:0:0:0:
448,192,150712,1,0,0:0:0:0:
192,192,150812,1,0,0:0:0:0:
448,192,150912,1,0,0:0:0:0:
64,192,151037,1,2,0:0:0:0:
320,192,151037,1,0,0:0:0:0:
192,192,151137,1,0,0:0:0:0:
320,192,151237,1,0,0:0:0:0:
192,192,151337,1,0,0:0:0:0:
64,192,151437,1,2,0:0:0:0:
448,192,151537,1,0,0:0:0:0:
320,192,151618,1,0,0:0:0:0:
192,192,151718,1,0,0:0:0:0:
64,192,151818,1,2,0:0:0:0:
320,192,151818,1,0,0:0:0:0:
448,192,151818,1,0,0:0:0:0:
192,192,151926,1,0,0:0:0:0:
448,192,152035,1,2,0:0:0:0:
192,192,152144,1,0,0:0:0:0:
320,192,152252,1,2,0:0:0:0:
64,192,152349,1,0,0:0:0:0:
448,192,152446,1,2,0:0:0:0:
320,192,152544,1,0,0:0:0:0:
64,192,152641,1,2,0:0:0:0:
192,192,152749,1,0,0:0:0:0:
64,192,152858,1,2,0:0:0:0:
448,192,152954,1,0,0:0:0:0:
192,192,153059,1,2,0:0:0:0:
448,192,153155,1,0,0:0:0:0:
320,192,153268,1,2,0:0:0:0:
192,192,153431,1,2,0:0:0:0:
448,192,153431,1,0,0:0:0:0:
64,192,153645,1,2,0:0:0:0:
320,192,153645,1,0,0:0:0:0:
448,192,153752,1,0,0:0:0:0:
192,192,153859,1,2,0:0:0:0:
320,192,153859,1,0,0:0:0:0:
64,192,153959,1,0,0:0:0:0:
192,192,154059,1,2,0:0:0:0:
448,192,154059,1,0,0:0:0:0:
320,192,154159,1,0,0:0:0:0:
64,192,154259,1,2,0:0:0:0:
192,192,154259,1,0,0:0:0:0:
320,192,154359,1,0,0:0:0:0:
64,192,154474,1,2,0:0:0:0:
448,192,154474,1,0,0:0:0:0:
320,192,154589,1,0,0:0:0:0:
64,192,154705,1,2,0:0:0:0:
192,192,154705,1,0,0:0:0:0:
448,192,154794,1,0,0:0:0:0:
192,192,154909,1,2,0:0:0:0:
320,192,154909,1,0,0:0:0:0:
64,192,155024,1,0,0:0:0:0:
320,192,155140,1,2,0:0:0:0:
448,192,155140,1,0,0:0:0:0:
192,192,155248,1,0,0:0:0:0:
64,192,155357,1,0,0:0:0:0:
192,192,155466,1,0,0:0:0:0:
320,192,155574,1,2,0:0:0:0:
448,192,155574,1,0,0:0:0:0:
64,192,155683,1,0,0:0:0:0:
192,192,155792,1,2,0:0:0:0:
448,192,155792,1,0,0:0:0:0:
64,192,155900,1,0,0:0:0:0:
320,192,156009,1,2,0:0:0:0:
448,192,156009,1,0,0:0:0:0:
192,192,156118,1,0,0:0:0:0:
64,192,156226,1,0,0:0:0:0:
192,192,156330,1,0,0:0:0:0:
320,192,156434,1,2,0:0:0:0:
448,192,156434,1,0,0:0:0:0:
64,192,156538,1,0,0:0:0:0:
192,192,156642,1,2,0:0:0:0:
448,192,156642,1,0,0:0:0:0:
64,192,156757,1,0,0:0:0:0:
320,192,156872,1,2,0:0:0:0:
448,192,156872,1,0,0:0:0:0:
192,192,156976,1,0,0:0:0:0:
64,192,157080,1,0,0:0:0:0:
192,192,157184,1,0,0:0:0:0:
320,192,157288,1,2,0:0:0:0:
448,192,157288,1,0,0:0:0:0:
64,192,157392,1,0,0:0:0:0:
192,192,157497,1,2,0:0:0:0:
448,192,157497,1,0,0:0:0:0:
64,192,157601,1,0,0:0:0:0:
192,192,157705,1,2,0:0:0:0:
320,192,157705,1,0,0:0:0:0:
448,192,157803,1,0,0:0:0:0:
64,192,157902,1,2,0:0:0:0:
192,192,157902,1,0,0:0:0:0:
320,192,158001,1,0,0:0:0:0:
192,192,158099,1,2,0:0:0:0:
448,192,158099,1,0,0:0:0:0:
64,192,158198,1,0,0:0:0:0:
320,192,158297,1,2,0:0:0:0:
448,192,158297,1,0,0:0:0:0:
192,192,158422,1,0,0:0:0:0:
64,192,158547,1,2,0:0:0:0:
320,192,158547,1,0,0:0:0:0:
448,192,158547,1,0,0:0:0:0:
192,192,158652,1,0,0:0:0:0:
64,192,158758,1,0,0:0:0:0:
192,192,158863,1,0,0:0:0:0:
320,192,158969,1,2,0:0:0:0:
448,192,158969,1,0,0:0:0:0:
64,192,159075,1,0,0:0:0:0:
192,192,159180,1,2,0:0:0:0:
448,192,159180,1,0,0:0:0:0:
64,192,159278,1,0,0:0:0:0:
192,192,159377,1,2,0:0:0:0:
320,192,159377,1,0,0:0:0:0:
448,192,159476,1,0,0:0:0:0:
64,192,159574,1,2,0:0:0:0:
192,192,159574,1,0,0:0:0:0:
320,192,159678,1,0,0:0:0:0:
192,192,159782,1,2,0:0:0:0:
448,192,159782,1,0,0:0:0:0:
64,192,159878,1,0,0:0:0:0:
320,192,159974,1,2,0:0:0:0:
448,192,159974,1,0,0:0:0:0:
192,192,160091,1,0,0:0:0:0:
64,192,160208,1,2,0:0:0:0:
448,192,160208,1,0,0:0:0:0:
320,192,160313,1,0,0:0:0:0:
64,192,160419,1,8,0:0:0:0:
192,192,160419,1,0,0:0:0:0:
320,192,160524,1,0,0:0:0:0:
64,192,160630,1,2,0:0:0:0:
448,192,160630,1,0,0:0:0:0:
192,192,160736,1,0,0:0:0:0:
320,192,160841,1,2,0:0:0:0:
448,192,160841,1,0,0:0:0:0:
192,192,160954,1,0,0:0:0:0:
64,192,161068,1,2,0:0:0:0:
448,192,161068,1,0,0:0:0:0:
320,192,161169,1,0,0:0:0:0:
64,192,161270,1,8,0:0:0:0:
192,192,161270,1,0,0:0:0:0:
320,192,161372,1,0,0:0:0:0:
64,192,161473,1,2,0:0:0:0:
448,192,161473,1,0,0:0:0:0:
192,192,161574,1,0,0:0:0:0:
320,192,161676,1,2,0:0:0:0:
448,192,161676,1,0,0:0:0:0:
192,192,161789,1,0,0:0:0:0:
64,192,161903,1,2,0:0:0:0:
448,192,161903,1,0,0:0:0:0:
320,192,162004,1,0,0:0:0:0:
64,192,162105,1,8,0:0:0:0:
192,192,162105,1,0,0:0:0:0:
320,192,162207,1,0,0:0:0:0:
64,192,162308,1,2,0:0:0:0:
448,192,162308,1,0,0:0:0:0:
192,192,162409,1,0,0:0:0:0:
320,192,162511,1,2,0:0:0:0:
448,192,162511,1,0,0:0:0:0:
64,192,162621,1,0,0:0:0:0:
192,192,162731,1,2,0:0:0:0:
320,192,162731,1,0,0:0:0:0:
448,192,162841,1,0,0:0:0:0:
64,192,162952,1,2,0:0:0:0:
192,192,162952,1,0,0:0:0:0:
320,192,163069,1,0,0:0:0:0:
64,192,163186,1,2,0:0:0:0:
448,192,163186,1,0,0:0:0:0:
192,192,163303,1,0,0:0:0:0:
64,192,163432,1,2,0:0:0:0:
320,192,163432,1,0,0:0:0:0:
64,192,163915,1,2,0:0:0:0:
448,192,163915,1,0,0:0:0:0:
320,192,164034,1,0,0:0:0:0:
192,192,164153,1,0,0:0:0:0:
64,192,164272,1,0,0:0:0:0:
320,192,164391,1,0,0:0:0:0:
192,192,164491,1,0,0:0:0:0:
64,192,164591,1,2,0:0:0:0:
320,192,164591,1,0,0:0:0:0:
448,192,164691,1,0,0:0:0:0:
64,192,164854,1,2,0:0:0:0:
192,192,164854,1,0,0:0:0:0:
448,192,164967,1,0,0:0:0:0:
64,192,165081,1,0,0:0:0:0:
320,192,165194,1,0,0:0:0:0:
192,192,165308,1,2,0:0:0:0:
448,192,165308,1,0,0:0:0:0:
64,192,165422,1,0,0:0:0:0:
320,192,165535,1,2,0:0:0:0:
192,192,165654,1,0,0:0:0:0:
64,192,165773,1,2,0:0:0:0:
448,192,165773,1,0,0:0:0:0:
320,192,165892,1,0,0:0:0:0:
192,192,165977,1,0,0:0:0:0:
64,192,166081,1,0,0:0:0:0:
320,192,166154,1,0,0:0:0:0:
192,192,166254,1,0,0:0:0:0:
64,192,166354,1,2,0:0:0:0:
320,192,166354,1,0,0:0:0:0:
448,192,166458,1,0,0:0:0:0:
64,192,166562,1,2,0:0:0:0:
192,192,166562,1,0,0:0:0:0:
320,192,166666,1,0,0:0:0:0:
192,192,166770,1,2,0:0:0:0:
448,192,166770,1,0,0:0:0:0:
64,192,166874,1,0,0:0:0:0:
320,192,166979,1,2,0:0:0:0:
448,192,166979,1,0,0:0:0:0:
192,192,167089,1,0,0:0:0:0:
320,192,167199,1,0,0:0:0:0:
64,192,167300,1,0,0:0:0:0:
192,192,167401,1,2,0:0:0:0:
448,192,167401,1,0,0:0:0:0:
64,192,167502,1,0,0:0:0:0:
320,192,167603,1,0,0:0:0:0:
192,192,167705,1,0,0:0:0:0:
448,192,167806,1,0,0:0:0:0:
64,192,167914,1,0,0:0:0:0:
320,192,168023,1,2,0:0:0:0:
448,192,168023,1,0,0:0:0:0:
192,192,168132,1,0,0:0:0:0:
64,192,168282,1,2,0:0:0:0:
448,192,168282,1,0,0:0:0:0:
320,192,168383,1,0,0:0:0:0:
192,192,168484,1,0,0:0:0:0:
448,192,168586,1,0,0:0:0:0:
64,192,168687,1,2,0:0:0:0:
320,192,168687,1,0,0:0:0:0:
448,192,168797,1,0,0:0:0:0:
64,192,168907,1,2,0:0:0:0:
192,192,168907,1,0,0:0:0:0:
320,192,169032,1,0,0:0:0:0:
192,192,169157,1,2,0:0:0:0:
448,192,169157,1,0,0:0:0:0:
64,192,169261,1,0,0:0:0:0:
320,192,169365,1,0,0:0:0:0:
192,192,169469,1,0,0:0:0:0:
448,192,169573,1,0,0:0:0:0:
64,192,169677,1,0,0:0:0:0:
320,192,169782,1,2,0:0:0:0:
448,192,169782,1,0,0:0:0:0:
192,192,169886,1,0,0:0:0:0:
64,192,169990,1,2,0:0:0:0:
448,192,169990,1,0,0:0:0:0:
64,192,170198,1,2,0:0:0:0:
320,192,170198,1,0,0:0:0:0:
448,192,170311,1,0,0:0:0:0:
64,192,170440,1,2,0:0:0:0:
192,192,170440,1,0,0:0:0:0:
320,192,170544,1,0,0:0:0:0:
192,192,170648,1,0,0:0:0:0:
448,192,170752,1,0,0:0:0:0:
64,192,170856,1,2,0:0:0:0:
320,192,170856,1,0,0:0:0:0:
448,192,170960,1,0,0:0:0:0:
64,192,171064,1,8,0:0:0:0:
192,192,171064,1,0,0:0:0:0:
320,192,171168,1,0,0:0:0:0:
192,192,171272,1,0,0:0:0:0:
64,192,171362,1,0,0:0:0:0:
320,192,171466,1,2,0:0:0:0:
448,192,171466,1,0,0:0:0:0:
192,192,171570,1,0,0:0:0:0:
64,192,171699,1,2,0:0:0:0:
448,192,171699,1,0,0:0:0:0:
320,192,171807,1,0,0:0:0:0:
64,192,171916,1,8,0:0:0:0:
192,192,171916,1,0,0:0:0:0:
320,192,172001,1,0,0:0:0:0:
192,192,172109,1,2,0:0:0:0:
448,192,172109,1,0,0:0:0:0:
64,192,172209,1,0,0:0:0:0:
320,192,172309,1,2,0:0:0:0:
448,192,172309,1,0,0:0:0:0:
192,192,172409,1,0,0:0:0:0:
64,192,172524,1,2,0:0:0:0:
448,192,172524,1,0,0:0:0:0:
320,192,172639,1,0,0:0:0:0:
64,192,172754,1,8,0:0:0:0:
192,192,172754,1,0,0:0:0:0:
320,192,172836,1,0,0:0:0:0:
64,192,172936,1,0,0:0:0:0:
448,192,172936,1,0,0:0:0:0:
192,192,173036,1,0,0:0:0:0:
64,192,173136,1,2,0:0:0:0:
320,192,173136,1,0,0:0:0:0:
448,192,173236,1,0,0:0:0:0:
192,192,173355,1,2,0:0:0:0:
320,192,173355,1,0,0:0:0:0:
448,192,173459,1,0,0:0:0:0:
64,192,173563,1,8,0:0:0:0:
192,192,173563,1,0,0:0:0:0:
320,192,173667,1,0,0:0:0:0:
64,192,173771,1,2,0:0:0:0:
448,192,173771,1,0,0:0:0:0:
192,192,173875,1,0,0:0:0:0:
64,192,173980,1,2,0:0:0:0:
320,192,173980,1,0,0:0:0:0:
192,192,174084,1,0,0:0:0:0:
320,192,174213,1,2,0:0:0:0:
448,192,174213,1,0,0:0:0:0:
64,192,174471,1,8,0:0:0:0:
192,192,174471,1,0,0:0:0:0:
448,192,174471,1,0,0:0:0:0:
64,192,174665,1,2,0:0:0:0:
320,192,174665,1,0,0:0:0:0:
192,192,174763,1,0,0:0:0:0:
64,192,174860,1,2,0:0:0:0:
448,192,174860,1,0,0:0:0:0:
320,192,174958,1,0,0:0:0:0:
192,192,175077,1,2,0:0:0:0:
448,192,175077,1,0,0:0:0:0:
64,192,175181,1,0,0:0:0:0:
320,192,175285,1,2,0:0:0:0:
448,192,175285,1,0,0:0:0:0:
192,192,175389,1,0,0:0:0:0:
64,192,175493,1,2,0:0:0:0:
320,192,175493,1,0,0:0:0:0:
448,192,175604,1,0,0:0:0:0:
64,192,175716,1,8,0:0:0:0:
192,192,175716,1,0,0:0:0:0:
320,192,175828,1,0,0:0:0:0:
64,192,176015,1,2,0:0:0:0:
448,192,176015,1,0,0:0:0:0:
320,192,176113,1,0,0:0:0:0:
192,192,176212,1,0,0:0:0:0:
64,192,176311,1,0,0:0:0:0:
320,192,176409,1,2,0:0:0:0:
448,192,176409,1,0,0:0:0:0:
192,192,176508,1,0,0:0:0:0:
320,192,176607,1,0,0:0:0:0:
64,192,176705,1,0,0:0:0:0:
192,192,176804,1,2,0:0:0:0:
448,192,176804,1,0,0:0:0:0:
64,192,176903,1,0,0:0:0:0:
320,192,177001,1,0,0:0:0:0:
192,192,177100,1,0,0:0:0:0:
320,192,177199,1,0,0:0:0:0:
64,192,177289,1,0,0:0:0:0:
448,192,177379,1,8,0:0:0:0:
64,192,177470,1,8,0:0:0:0:
192,192,177470,1,0,0:0:0:0:
320,192,177620,1,2,0:0:0:0:
448,192,177620,1,0,0:0:0:0:
64,192,177720,1,2,0:0:0:0:
192,192,177720,1,0,0:0:0:0:
320,192,177820,1,2,0:0:0:0:
448,192,177820,1,0,0:0:0:0:
192,192,177920,1,2,0:0:0:0:
320,192,178020,1,2,0:0:0:0:
448,192,178020,1,0,0:0:0:0:
64,192,178120,1,2,0:0:0:0:
192,192,178120,1,0,0:0:0:0:
320,192,178220,1,2,0:0:0:0:
448,192,178220,1,0,0:0:0:0:
64,192,178320,1,2,0:0:0:0:
192,192,178420,1,2,0:0:0:0:
448,192,178420,1,0,0:0:0:0:
64,192,178520,1,0,0:0:0:0:
320,192,178620,1,0,0:0:0:0:
192,192,178720,1,0,0:0:0:0:
320,192,178820,1,0,0:0:0:0:
64,192,178909,1,0,0:0:0:0:
448,192,179022,1,8,0:0:0:0:
64,192,179111,1,8,0:0:0:0:
192,192,179111,1,0,0:0:0:0:
320,192,179230,1,2,0:0:0:0:
448,192,179230,1,0,0:0:0:0:
64,192,179324,1,2,0:0:0:0:
192,192,179324,1,0,0:0:0:0:
320,192,179419,1,2,0:0:0:0:
448,192,179419,1,0,0:0:0:0:
192,192,179514,1,2,0:0:0:0:
320,192,179609,1,2,0:0:0:0:
448,192,179609,1,0,0:0:0:0:
64,192,179704,1,2,0:0:0:0:
192,192,179704,1,0,0:0:0:0:
320,192,179799,1,2,0:0:0:0:
448,192,179799,1,0,0:0:0:0:
64,192,179894,1,2,0:0:0:0:
192,192,179989,1,2,0:0:0:0:
448,192,179989,1,0,0:0:0:0:
64,192,180084,1,0,0:0:0:0:
320,192,180179,1,0,0:0:0:0:
192,192,180274,1,0,0:0:0:0:
320,192,180369,1,0,0:0:0:0:
64,192,180464,1,0,0:0:0:0:
448,192,180559,1,8,0:0:0:0:
64,192,180663,1,8,0:0:0:0:
192,192,180663,1,0,0:0:0:0:
320,192,180767,1,2,0:0:0:0:
448,192,180767,1,0,0:0:0:0:
64,192,180871,1,2,0:0:0:0:
192,192,180871,1,0,0:0:0:0:
320,192,180975,1,2,0:0:0:0:
448,192,180975,1,0,0:0:0:0:
192,192,181079,1,2,0:0:0:0:
320,192,181183,1,2,0:0:0:0:
448,192,181183,1,0,0:0:0:0:
64,192,181287,1,2,0:0:0:0:
192,192,181287,1,0,0:0:0:0:
320,192,181374,1,2,0:0:0:0:
448,192,181374,1,0,0:0:0:0:
64,192,181467,1,2,0:0:0:0:
320,192,181561,1,2,0:0:0:0:
448,192,181561,1,0,0:0:0:0:
64,192,181655,1,2,0:0:0:0:
192,192,181655,1,0,0:0:0:0:
320,192,181749,1,2,0:0:0:0:
448,192,181749,1,0,0:0:0:0:
192,192,181853,1,2,0:0:0:0:
320,192,181957,1,2,0:0:0:0:
448,192,181957,1,0,0:0:0:0:
64,192,182061,1,2,0:0:0:0:
192,192,182061,1,0,0:0:0:0:
320,192,182165,1,2,0:0:0:0:
448,192,182165,1,0,0:0:0:0:
64,192,182276,1,2,0:0:0:0:
192,192,182388,1,2,0:0:0:0:
448,192,182388,1,0,0:0:0:0:
64,192,182499,1,2,0:0:0:0:
320,192,182611,1,0,0:0:0:0:
64,192,182723,1,0,0:0:0:0:
192,192,182821,1,2,0:0:0:0:
448,192,182821,1,0,0:0:0:0:
320,192,182920,1,2,0:0:0:0:
64,192,183019,1,2,0:0:0:0:
192,192,183019,1,0,0:0:0:0:
320,192,183117,1,2,0:0:0:0:
192,192,183216,1,2,0:0:0:0:
448,192,183216,1,0,0:0:0:0:
64,192,183315,1,2,0:0:0:0:
320,192,183413,1,0,0:0:0:0:
64,192,183526,1,0,0:0:0:0:
192,192,183640,1,2,0:0:0:0:
448,192,183640,1,0,0:0:0:0:
320,192,183736,1,2,0:0:0:0:
64,192,183832,1,2,0:0:0:0:
192,192,183832,1,0,0:0:0:0:
320,192,183928,1,2,0:0:0:0:
192,192,184015,1,2,0:0:0:0:
448,192,184015,1,0,0:0:0:0:
64,192,184119,1,2,0:0:0:0:
320,192,184257,1,0,0:0:0:0:
64,192,184342,1,0,0:0:0:0:
192,192,184449,1,2,0:0:0:0:
448,192,184449,1,0,0:0:0:0:
320,192,184541,1,2,0:0:0:0:
64,192,184634,1,2,0:0:0:0:
192,192,184634,1,0,0:0:0:0:
320,192,184731,1,2,0:0:0:0:
192,192,184828,1,2,0:0:0:0:
448,192,184828,1,0,0:0:0:0:
320,192,184926,1,2,0:0:0:0:
64,192,185023,1,2,0:0:0:0:
192,192,185023,1,0,0:0:0:0:
320,192,185121,1,2,0:0:0:0:
192,192,185218,1,2,0:0:0:0:
448,192,185218,1,0,0:0:0:0:
64,192,185307,1,2,0:0:0:0:
320,192,185396,1,2,0:0:0:0:
448,192,185396,1,0,0:0:0:0:
64,192,185485,1,2,0:0:0:0:
192,192,185485,1,0,0:0:0:0:
64,192,186591,1,2,0:0:0:0:
192,192,186885,1,0,0:0:0:0:
320,192,186958,1,0,0:0:0:0:
448,192,187032,1,0,0:0:0:0:
192,192,187105,1,0,0:0:0:0:
64,192,187179,1,2,0:0:0:0:
320,192,187179,1,0,0:0:0:0:
192,192,187379,1,0,0:0:0:0:
448,192,187471,1,0,0:0:0:0:
192,192,187564,1,2,0:0:0:0:
320,192,187564,1,0,0:0:0:0:
448,192,187656,1,0,0:0:0:0:
64,192,187749,1,0,0:0:0:0:
320,192,187841,1,0,0:0:0:0:
64,192,187934,1,2,0:0:0:0:
192,192,187934,1,0,0:0:0:0:
448,192,188027,1,0,0:0:0:0:
64,192,188119,1,2,0:0:0:0:
320,192,188119,1,0,0:0:0:0:
192,192,188212,1,0,0:0:0:0:
320,192,188304,1,2,0:0:0:0:
448,192,188304,1,0,0:0:0:0:
64,192,188396,1,0,0:0:0:0:
192,192,188489,1,2,0:0:0:0:
448,192,188489,1,0,0:0:0:0:
320,192,188572,1,0,0:0:0:0:
64,192,188655,1,2,0:0:0:0:
192,192,188655,1,0,0:0:0:0:
448,192,188739,1,0,0:0:0:0:
64,192,188822,1,2,0:0:0:0:
320,192,188822,1,0,0:0:0:0:
192,192,188905,1,0,0:0:0:0:
320,192,189001,1,2,0:0:0:0:
448,192,189001,1,0,0:0:0:0:
64,192,189097,1,2,0:0:0:0:
192,192,189178,1,2,0:0:0:0:
448,192,189178,1,0,0:0:0:0:
320,192,189260,1,2,0:0:0:0:
64,192,189374,1,2,0:0:0:0:
192,192,189374,1,0,0:0:0:0:
320,192,189467,1,2,0:0:0:0:
64,192,189561,1,2,0:0:0:0:
448,192,189561,1,0,0:0:0:0:
192,192,189666,1,2,0:0:0:0:
320,192,189666,1,0,0:0:0:0:
64,192,189832,1,2,0:0:0:0:
192,192,189832,1,0,0:0:0:0:
448,192,189957,1,2,0:0:0:0:
64,192,190082,1,8,0:0:0:0:
320,192,190183,1,2,0:0:0:0:
64,192,190284,1,2,0:0:0:0:
192,192,190284,1,0,0:0:0:0:
448,192,190381,1,2,0:0:0:0:
64,192,190478,1,2,0:0:0:0:
320,192,190576,1,2,0:0:0:0:
192,192,190665,1,2,0:0:0:0:
448,192,190665,1,0,0:0:0:0:
64,192,190754,1,2,0:0:0:0:
320,192,190843,1,2,0:0:0:0:
448,192,190843,1,0,0:0:0:0:
192,192,190968,1,2,0:0:0:0:
64,192,191066,1,2,0:0:0:0:
448,192,191066,1,0,0:0:0:0:
320,192,191165,1,2,0:0:0:0:
64,192,191264,1,8,0:0:0:0:
192,192,191264,1,0,0:0:0:0:
320,192,191362,1,2,0:0:0:0:
64,192,191461,1,2,0:0:0:0:
448,192,191461,1,0,0:0:0:0:
320,192,191560,1,2,0:0:0:0:
192,192,191658,1,2,0:0:0:0:
448,192,191658,1,0,0:0:0:0:
64,192,191856,1,2,0:0:0:0:
320,192,191856,1,0,0:0:0:0:
192,192,191954,1,2,0:0:0:0:
64,192,192053,1,2,0:0:0:0:
448,192,192053,1,0,0:0:0:0:
320,192,192152,1,2,0:0:0:0:
64,192,192250,1,2,0:0:0:0:
192,192,192250,1,0,0:0:0:0:
448,192,192335,1,2,0:0:0:0:
64,192,192452,1,8,0:0:0:0:
320,192,192452,1,0,0:0:0:0:
448,192,192553,1,2,0:0:0:0:
64,192,192654,1,2,0:0:0:0:
192,192,192654,1,0,0:0:0:0:
448,192,192756,1,2,0:0:0:0:
64,192,192857,1,2,0:0:0:0:
320,192,192857,1,0,0:0:0:0:
192,192,192950,1,2,0:0:0:0:
64,192,193044,1,2,0:0:0:0:
448,192,193044,1,0,0:0:0:0:
320,192,193138,1,2,0:0:0:0:
192,192,193232,1,2,0:0:0:0:
448,192,193232,1,0,0:0:0:0:
64,192,193325,1,2,0:0:0:0:
320,192,193450,1,2,0:0:0:0:
448,192,193450,1,0,0:0:0:0:
192,192,193546,1,2,0:0:0:0:
64,192,193642,1,8,0:0:0:0:
320,192,193642,1,0,0:0:0:0:
192,192,193738,1,2,0:0:0:0:
320,192,193834,1,2,0:0:0:0:
448,192,193834,1,0,0:0:0:0:
192,192,193930,1,2,0:0:0:0:
64,192,194043,1,2,0:0:0:0:
448,192,194043,1,0,0:0:0:0:
320,192,194132,1,0,0:0:0:0:
64,192,194245,1,2,0:0:0:0:
192,192,194245,1,0,0:0:0:0:
448,192,194359,1,0,0:0:0:0:
64,192,194448,1,2,0:0:0:0:
320,192,194448,1,0,0:0:0:0:
192,192,194537,1,0,0:0:0:0:
64,192,194662,1,2,0:0:0:0:
320,192,194662,1,0,0:0:0:0:
448,192,194662,1,0,0:0:0:0:
192,192,194766,1,0,0:0:0:0:
320,192,194870,1,8,0:0:0:0:
192,192,194974,1,0,0:0:0:0:
64,192,195099,1,2,0:0:0:0:
448,192,195099,1,0,0:0:0:0:
192,192,195203,1,0,0:0:0:0:
320,192,195307,1,8,0:0:0:0:
192,192,195411,1,0,0:0:0:0:
320,192,195515,1,2,0:0:0:0:
448,192,195515,1,0,0:0:0:0:
64,192,195619,1,0,0:0:0:0:
192,192,195724,1,8,0:0:0:0:
320,192,195816,1,2,0:0:0:0:
448,192,195816,1,0,0:0:0:0:
64,192,195909,1,2,0:0:0:0:
192,192,195909,1,0,0:0:0:0:
320,192,196001,1,2,0:0:0:0:
64,192,196105,1,2,0:0:0:0:
448,192,196105,1,0,0:0:0:0:
192,192,196209,1,8,0:0:0:0:
64,192,196313,1,2,0:0:0:0:
320,192,196313,1,0,0:0:0:0:
448,192,196417,1,0,0:0:0:0:
192,192,196521,1,8,0:0:0:0:
320,192,196617,1,2,0:0:0:0:
448,192,196617,1,0,0:0:0:0:
64,192,196713,1,2,0:0:0:0:
192,192,196713,1,0,0:0:0:0:
320,192,196791,1,2,0:0:0:0:
64,192,196902,1,2,0:0:0:0:
448,192,196902,1,0,0:0:0:0:
192,192,196977,1,8,0:0:0:0:
320,192,197127,1,2,0:0:0:0:
448,192,197127,1,0,0:0:0:0:
192,192,197221,1,2,0:0:0:0:
64,192,197316,1,2,0:0:0:0:
320,192,197316,1,0,0:0:0:0:
448,192,197411,1,2,0:0:0:0:
64,192,197506,1,8,0:0:0:0:
192,192,197506,1,0,0:0:0:0:
320,192,197601,1,2,0:0:0:0:
192,192,197696,1,2,0:0:0:0:
448,192,197696,1,0,0:0:0:0:
64,192,197791,1,0,0:0:0:0:
320,192,197886,1,2,0:0:0:0:
448,192,197886,1,0,0:0:0:0:
192,192,197987,1,2,0:0:0:0:
320,192,198088,1,8,0:0:0:0:
64,192,198190,1,0,0:0:0:0:
192,192,198303,1,2,0:0:0:0:
448,192,198303,1,0,0:0:0:0:
64,192,198417,1,2,0:0:0:0:
320,192,198530,1,8,0:0:0:0:
192,192,198605,1,0,0:0:0:0:
64,192,198718,1,2,0:0:0:0:
448,192,198718,1,0,0:0:0:0:
320,192,198814,1,0,0:0:0:0:
64,192,198910,1,8,0:0:0:0:
192,192,198910,1,0,0:0:0:0:
448,192,199006,1,2,0:0:0:0:
64,192,199102,1,2,0:0:0:0:
320,192,199102,1,0,0:0:0:0:
448,192,199193,1,2,0:0:0:0:
192,192,199284,1,2,0:0:0:0:
320,192,199284,1,0,0:0:0:0:
64,192,199376,1,0,0:0:0:0:
192,192,199509,1,2,0:0:0:0:
448,192,199509,1,0,0:0:0:0:
320,192,199609,1,2,0:0:0:0:
64,192,199709,1,2,0:0:0:0:
448,192,199709,1,0,0:0:0:0:
192,192,199796,1,2,0:0:0:0:
320,192,199883,1,2,0:0:0:0:
448,192,199883,1,0,0:0:0:0:
64,192,199970,1,2,0:0:0:0:
192,192,200108,1,2,0:0:0:0:
448,192,200108,1,0,0:0:0:0:
320,192,200233,1,2,0:0:0:0:
64,192,200386,1,2,0:0:0:0:
448,192,200386,1,0,0:0:0:0:
320,192,200712,1,2,0:0:0:0:
192,192,200816,1,2,0:0:0:0:
320,192,200920,1,8,0:0:0:0:
448,192,200920,1,0,0:0:0:0:
64,192,201039,1,0,0:0:0:0:
192,192,201183,1,2,0:0:0:0:
320,192,201287,1,0,0:0:0:0:
64,192,201391,1,2,0:0:0:0:
448,192,201391,1,0,0:0:0:0:
320,192,201472,1,2,0:0:0:0:
64,192,201585,1,2,0:0:0:0:
192,192,201585,1,0,0:0:0:0:
320,192,201692,1,2,0:0:0:0:
64,192,201799,1,2,0:0:0:0:
448,192,201799,1,0,0:0:0:0:
320,192,201906,1,2,0:0:0:0:
64,192,202013,1,2,0:0:0:0:
192,192,202013,1,0,0:0:0:0:
320,192,202120,1,2,0:0:0:0:
64,192,202227,1,2,0:0:0:0:
448,192,202227,1,0,0:0:0:0:
192,192,202383,1,0,0:0:0:0:
320,192,202539,1,2,0:0:0:0:
64,192,202649,1,2,0:0:0:0:
192,192,202759,1,8,0:0:0:0:
448,192,202759,1,0,0:0:0:0:
64,192,202869,1,0,0:0:0:0:
320,192,203025,1,2,0:0:0:0:
448,192,203125,1,0,0:0:0:0:
64,192,203250,1,2,0:0:0:0:
192,192,203250,1,0,0:0:0:0:
320,192,203350,1,2,0:0:0:0:
64,192,203450,1,2,0:0:0:0:
448,192,203450,1,0,0:0:0:0:
320,192,203550,1,2,0:0:0:0:
64,192,203650,1,2,0:0:0:0:
192,192,203650,1,0,0:0:0:0:
320,192,203760,1,2,0:0:0:0:
64,192,203870,1,2,0:0:0:0:
448,192,203870,1,0,0:0:0:0:
320,192,203980,1,2,0:0:0:0:
192,192,204158,1,2,0:0:0:0:
448,192,204158,1,0,0:0:0:0:
64,192,204302,1,0,0:0:0:0:
320,192,204446,1,8,0:0:0:0:
448,192,204446,1,0,0:0:0:0:
64,192,204556,1,0,0:0:0:0:
192,192,204666,1,2,0:0:0:0:
448,192,204666,1,0,0:0:0:0:
320,192,204776,1,0,0:0:0:0:
64,192,204887,1,2,0:0:0:0:
448,192,204887,1,0,0:0:0:0:
192,192,204997,1,0,0:0:0:0:
64,192,205107,1,2,0:0:0:0:
320,192,205107,1,0,0:0:0:0:
448,192,205218,1,0,0:0:0:0:
64,192,205328,1,8,0:0:0:0:
192,192,205328,1,0,0:0:0:0:
448,192,205438,1,0,0:0:0:0:
64,192,205548,1,2,0:0:0:0:
320,192,205548,1,0,0:0:0:0:
192,192,205641,1,0,0:0:0:0:
64,192,205760,1,2,0:0:0:0:
448,192,205760,1,0,0:0:0:0:
320,192,205868,1,0,0:0:0:0:
192,192,205977,1,2,0:0:0:0:
448,192,205977,1,0,0:0:0:0:
64,192,206085,1,0,0:0:0:0:
320,192,206194,1,8,0:0:0:0:
448,192,206194,1,0,0:0:0:0:
64,192,206303,1,0,0:0:0:0:
192,192,206411,1,2,0:0:0:0:
448,192,206411,1,0,0:0:0:0:
320,192,206520,1,0,0:0:0:0:
64,192,206629,1,2,0:0:0:0:
448,192,206629,1,0,0:0:0:0:
192,192,206737,1,0,0:0:0:0:
64,192,206846,1,2,0:0:0:0:
320,192,206846,1,0,0:0:0:0:
192,192,206971,1,2,0:0:0:0:
64,192,207075,1,2,0:0:0:0:
448,192,207075,1,0,0:0:0:0:
320,192,207179,1,2,0:0:0:0:
192,192,207283,1,2,0:0:0:0:
448,192,207283,1,0,0:0:0:0:
320,192,207387,1,2,0:0:0:0:
64,192,207480,1,2,0:0:0:0:
448,192,207480,1,0,0:0:0:0:
192,192,207574,1,2,0:0:0:0:
64,192,207668,1,2,0:0:0:0:
320,192,207668,1,0,0:0:0:0:
192,192,207772,1,2,0:0:0:0:
64,192,207876,1,2,0:0:0:0:
448,192,207876,1,0,0:0:0:0:
320,192,207980,1,2,0:0:0:0:
192,192,208076,1,2,0:0:0:0:
448,192,208076,1,0,0:0:0:0:
320,192,208172,1,2,0:0:0:0:
64,192,208268,1,2,0:0:0:0:
448,192,208268,1,0,0:0:0:0:
192,192,208376,1,2,0:0:0:0:
64,192,208485,1,2,0:0:0:0:
320,192,208485,1,0,0:0:0:0:
192,192,208585,1,2,0:0:0:0:
64,192,208685,1,2,0:0:0:0:
448,192,208685,1,0,0:0:0:0:
320,192,208785,1,2,0:0:0:0:
192,192,208898,1,2,0:0:0:0:
448,192,208898,1,0,0:0:0:0:
320,192,209012,1,2,0:0:0:0:
64,192,209105,1,2,0:0:0:0:
448,192,209105,1,0,0:0:0:0:
192,192,209255,1,2,0:0:0:0:
320,192,209374,1,2,0:0:0:0:
448,192,209374,1,0,0:0:0:0:
64,192,209478,1,0,0:0:0:0:
448,192,209582,1,2,0:0:0:0:
192,192,209693,1,0,0:0:0:0:
64,192,209805,1,2,0:0:0:0:
320,192,209917,1,0,0:0:0:0:
192,192,210017,1,2,0:0:0:0:
448,192,210117,1,0,0:0:0:0:
64,192,210255,1,8,0:0:0:0:
192,192,210255,1,0,0:0:0:0:
320,192,210380,1,0,0:0:0:0:
64,192,210505,1,2,0:0:0:0:
448,192,210505,1,0,0:0:0:0:
192,192,210609,1,0,0:0:0:0:
320,192,210713,1,2,0:0:0:0:
448,192,210713,1,0,0:0:0:0:
64,192,210817,1,0,0:0:0:0:
192,192,210921,1,2,0:0:0:0:
448,192,210921,1,0,0:0:0:0:
320,192,211025,1,0,0:0:0:0:
64,192,211130,1,2,0:0:0:0:
192,192,211130,1,0,0:0:0:0:
448,192,211130,1,0,0:0:0:0:
320,192,211234,1,0,0:0:0:0:
64,192,211367,1,2,0:0:0:0:
192,192,211367,1,0,0:0:0:0:
448,192,211467,1,0,0:0:0:0:
64,192,211567,1,2,0:0:0:0:
320,192,211567,1,0,0:0:0:0:
192,192,211675,1,0,0:0:0:0:
64,192,211784,1,2,0:0:0:0:
448,192,211784,1,0,0:0:0:0:
320,192,211893,1,0,0:0:0:0:
64,192,212001,1,2,0:0:0:0:
192,192,212001,1,0,0:0:0:0:
448,192,212001,1,0,0:0:0:0:
320,192,212065,1,0,0:0:0:0:
192,192,212201,1,2,0:0:0:0:
448,192,212201,1,0,0:0:0:0:
64,192,212299,1,0,0:0:0:0:
320,192,212398,1,2,0:0:0:0:
448,192,212398,1,0,0:0:0:0:
192,192,212497,1,0,0:0:0:0:
64,192,212595,1,2,0:0:0:0:
448,192,212595,1,0,0:0:0:0:
320,192,212694,1,0,0:0:0:0:
64,192,212814,1,2,0:0:0:0:
192,192,212814,1,0,0:0:0:0:
448,192,212814,1,0,0:0:0:0:
320,192,212903,1,0,0:0:0:0:
64,192,213023,1,2,0:0:0:0:
192,192,213023,1,0,0:0:0:0:
448,192,213128,1,0,0:0:0:0:
64,192,213234,1,2,0:0:0:0:
320,192,213234,1,0,0:0:0:0:
192,192,213339,1,0,0:0:0:0:
64,192,213445,1,2,0:0:0:0:
448,192,213445,1,0,0:0:0:0:
320,192,213541,1,0,0:0:0:0:
64,192,213637,1,2,0:0:0:0:
192,192,213637,1,0,0:0:0:0:
448,192,213637,1,0,0:0:0:0:
320,192,213724,1,0,0:0:0:0:
192,192,213844,1,0,0:0:0:0:
320,192,213942,1,0,0:0:0:0:
64,192,214041,1,2,0:0:0:0:
448,192,214041,1,0,0:0:0:0:
320,192,214140,1,0,0:0:0:0:
192,192,214273,1,0,0:0:0:0:
320,192,214383,1,0,0:0:0:0:
64,192,214493,1,2,0:0:0:0:
192,192,214493,1,0,0:0:0:0:
448,192,214493,1,0,0:0:0:0:
320,192,214961,1,2,0:0:0:0:
448,192,214961,1,0,0:0:0:0:
192,192,215071,1,2,0:0:0:0:
64,192,215181,1,2,0:0:0:0:
448,192,215181,1,0,0:0:0:0:
320,192,215291,1,2,0:0:0:0:
64,192,215478,1,2,0:0:0:0:
192,192,215478,1,0,0:0:0:0:
448,192,215478,1,0,0:0:0:0:
192,192,215824,1,8,0:0:0:0:
64,192,215939,1,8,0:0:0:0:
320,192,215939,1,0,0:0:0:0:
448,192,215939,1,0,0:0:0:0:
