osu file format v14

[General]
AudioFilename: audio.mp3
AudioLeadIn: 0
PreviewTime: 46134
Countdown: 0
SampleSet: Soft
StackLeniency: 0.7
Mode: 0
LetterboxInBreaks: 0
WidescreenStoryboard: 1

[Editor]
Bookmarks: 25222,76332,87761
DistanceSpacing: 1
BeatDivisor: 4
GridSize: 32
TimelineZoom: 1.3

[Metadata]
Title:SICK OF IT*
TitleUnicode:SICK OF IT*
Artist:Jean Dawson
ArtistUnicode:Jean Dawson
Creator:Hobbes2
Version:HARD*
Source:
Tags:alternative CHAOS NOW* english rock indie
BeatmapID:4041680
BeatmapSetID:1949894

[Difficulty]
HPDrainRate:3
CircleSize:3.5
OverallDifficulty:6.4
ApproachRate:7.8
SliderMultiplier:1.5
SliderTickRate:1

[Events]
//Background and Video events
0,0,"maxresdefault.jpg",0,0
//Break Periods
2,65409,74098
//Storyboard Layer 0 (Background)
//Storyboard Layer 1 (Fail)
//Storyboard Layer 2 (Pass)
//Storyboard Layer 3 (Foreground)
//Storyboard Layer 4 (Overlay)
//Storyboard Sound Samples

[TimingPoints]
6797,317.460317460317,4,2,0,50,1,0
8066,-200,4,2,0,40,0,0
8701,-166.666666666667,4,2,0,50,0,0
9336,-142.857142857143,4,2,0,60,0,0
9971,-142.857142857143,4,2,0,70,0,0
13146,-117.647058823529,4,2,0,80,0,0
20765,-153.846153846154,4,2,0,65,0,0
34098,-117.647058823529,4,2,0,65,0,0
36003,-117.647058823529,4,2,0,80,0,0
48384,-222.222222222221,4,2,0,80,0,0
48701,-105.263157894737,4,2,0,85,0,0
70289,-142.857142857143,4,2,0,85,0,0
75050,-125,4,2,0,65,0,0
85527,-105.263157894737,4,2,0,80,0,0
96320,-285.714285714287,4,2,0,80,0,0
96955,-105.263157894737,4,2,0,80,0,0
97590,-285.714285714287,4,2,0,80,0,0
98225,-105.263157894737,4,2,0,80,0,0
101400,-285.714285714287,4,2,0,80,0,0
102035,-105.263157894737,4,2,0,80,0,0
102670,-285.714285714287,4,2,0,80,0,0
103304,-105.263157894737,4,2,0,80,0,0
105527,-44.4444444444445,4,2,0,80,0,0
105844,-100,4,2,0,90,0,0
116003,-133.333333333333,4,2,0,60,0,0

[Colours]
Combo1 : 0,128,255
Combo2 : 145,253,242
Combo3 : 255,155,215
Combo4 : 255,128,128
Combo5 : 255,199,172

[HitObjects]
256,192,8066,12,4,10447,0:3:0:0:
36,340,13146,6,0,L|172:323,1,127.50000243187,6|10,3:2|0:0,0:0:0:0:
292,305,13781,1,2,3:2:0:0:
292,305,13939,2,0,B|220:287|220:287|174:293|174:293|98:269,1,191.250003647804,2|0,3:2|3:2,0:0:0:0:
48,157,14733,1,10,0:0:0:0:
48,157,14892,1,0,0:0:0:0:
121,118,15050,2,0,P|111:64|106:32,1,63.7500012159348,0|0,3:2|3:2,0:0:0:0:
192,42,15368,2,0,P|197:73|203:104,1,63.7500012159348,8|2,0:0|0:3,0:0:0:0:
266,158,15685,6,0,P|337:161|374:114,1,127.50000243187,2|10,3:2|0:0,0:0:0:0:
512,55,16320,1,2,3:2:0:0:
512,55,16479,2,0,B|398:58|462:-11|318:1,1,191.250003647804,2|0,3:2|3:2,0:0:0:0:
193,84,17273,2,0,P|127:66|64:59,1,127.50000243187,10|0,0:0|3:2,0:0:0:0:
19,126,17749,1,0,3:2:0:0:
19,126,17908,2,0,P|27:181|47:195,1,63.7500012159348,8|2,0:0|0:3,0:0:0:0:
91,240,18225,6,0,P|82:280|75:313,1,63.7500012159348,2|0,3:2|3:2,0:0:0:0:
158,319,18543,2,0,P|167:279|174:246,1,63.7500012159348,10|0,0:0|0:0,0:0:0:0:
231,198,18860,1,0,3:2:0:0:
231,198,19019,1,0,3:2:0:0:
231,198,19177,2,0,L|300:193,1,63.7500012159348,8|0,0:0|0:0,0:0:0:0:
362,241,19495,5,0,3:2:0:0:
362,241,19654,1,0,3:2:0:0:
427,191,19812,2,0,B|425:132|425:132|411:118|411:118|409:45,2,127.50000243187,10|2|10,0:0|3:2|0:0,0:0:0:0:
494,253,20606,1,8,0:0:0:0:
494,253,20685,1,8,0:0:0:0:
494,253,20765,6,0,P|473:322|441:336,1,97.4999955368044,2|8,3:2|0:0,0:0:0:0:
283,304,21400,5,2,3:2:0:0:
283,304,21558,2,0,P|206:329|171:338,1,97.4999955368044,2|0,3:2|0:0,0:0:0:0:
107,347,22035,1,2,3:2:0:0:
45,164,22670,5,2,3:2:0:0:
45,164,22828,2,0,P|122:189|157:200,1,97.4999955368044,2|0,3:2|0:2,0:0:0:0:
210,233,23304,1,2,3:2:0:0:
387,56,23939,5,2,3:2:0:0:
387,56,24098,2,0,P|403:88|373:141,1,97.4999955368044,2|0,3:2|0:0,0:0:0:0:
306,173,24574,6,0,P|279:167|240:162,2,48.7499977684022,2|0|8,3:2|3:2|0:0,0:0:0:0:
402,296,25209,2,0,P|429:290|468:285,2,48.7499977684022,2|0|8,3:2|3:2|0:0,0:0:0:0:
352,356,25685,1,0,0:0:0:0:
352,356,25844,6,0,L|256:335,1,97.4999955368044,2|8,3:2|0:0,0:0:0:0:
107,381,26479,2,0,L|11:360,1,97.4999955368044,0|8,3:2|0:0,0:0:0:0:
110,239,27114,6,0,B|88:208|102:168|102:168|120:121|88:87,2,146.249993305207,0|2|8,3:2|0:0|0:0,0:0:0:0:
218,351,28384,1,0,3:2:0:0:
325,300,28701,6,0,B|391:331|391:331|429:322,1,97.4999955368044,10|2,0:0|3:2,0:0:0:0:
335,212,29336,2,0,B|401:243|401:243|439:234,1,97.4999955368044,10|0,0:0|3:2,0:0:0:0:
505,103,29971,1,8,0:0:0:0:
366,30,30289,5,0,3:2:0:0:
335,101,30447,1,8,0:0:0:0:
266,63,30606,2,0,L|198:55,1,48.7499977684022,8|0,0:0|0:0,0:0:0:0:
158,6,30923,6,0,P|93:18|79:60,1,97.4999955368044,2|10,3:2|0:0,0:0:0:0:
8,157,31558,2,0,P|23:205|29:258,1,97.4999955368044,2|8,3:2|0:0,0:0:0:0:
85,310,32035,1,0,0:0:0:0:
85,310,32193,5,2,3:2:0:0:
202,206,32511,1,10,0:0:0:0:
240,356,32828,1,2,3:2:0:0:
384,297,33146,5,8,0:0:0:0:
384,297,33304,1,0,0:0:0:0:
384,297,33463,1,2,3:1:0:0:
219,208,33781,5,8,0:0:0:0:
219,208,33939,1,0,0:0:0:0:
219,208,34098,1,2,3:1:0:0:
355,85,34416,5,8,0:0:0:0:
355,85,34574,1,0,0:0:0:0:
355,85,34733,2,0,B|370:99|370:99|346:193|346:193|373:221,2,127.50000243187,0|0|0,3:2|0:0|0:0,0:0:0:0:
45,161,36003,6,0,P|95:154|125:145,1,63.7500012159348,4|0,3:2|3:2,0:0:0:0:
149,79,36320,1,10,0:0:0:0:
149,79,36479,2,0,P|203:81|246:141,1,127.50000243187,2|0,0:0|3:2,0:0:0:0:
283,209,36955,2,0,P|267:269|255:343,1,127.50000243187,10|0,0:0|3:2,0:0:0:0:
419,303,37590,5,10,0:0:0:0:
419,303,37749,2,0,P|465:287|502:287,1,63.7500012159348,2|0,3:2|0:0,0:0:0:0:
481,202,38066,1,0,3:2:0:0:
481,202,38225,2,0,P|428:161|427:97,1,127.50000243187,10|0,0:0|3:2,0:0:0:0:
277,27,38860,6,0,P|174:50|138:56,1,127.50000243187,10|0,0:0|0:0,0:0:0:0:
81,11,39336,1,0,3:2:0:0:
81,11,39495,2,0,P|112:50|116:129,1,127.50000243187,10|0,0:0|3:2,0:0:0:0:
59,185,39971,1,0,3:2:0:0:
59,185,40130,2,0,P|59:247|95:299,1,127.50000243187,10|0,0:0|3:2,0:0:0:0:
224,368,40765,1,10,0:0:0:0:
343,260,41082,5,0,3:2:0:0:
450,322,41400,2,0,L|437:191,1,127.50000243187,10|0,0:0|3:2,0:0:0:0:
478,123,41876,1,0,3:2:0:0:
420,62,42035,2,0,L|277:48,1,127.50000243187,10|0,0:0|3:2,0:0:0:0:
230,103,42511,1,0,3:2:0:0:
161,150,42670,6,0,P|144:114|127:81,1,63.7500012159348,10|0,0:0|3:0,0:0:0:0:
50,85,42987,2,0,P|46:45|44:8,1,63.7500012159348,2|0,3:2|3:2,0:0:0:0:
0,152,43304,2,0,B|6:210|6:210|21:223|21:223|28:296,1,127.50000243187,10|0,0:0|3:2,0:0:0:0:
166,359,43939,6,0,P|219:353|258:353,1,63.7500012159348,10|0,0:0|0:0,0:0:0:0:
298,305,44257,1,0,3:2:0:0:
195,175,44574,2,0,P|201:128|208:88,1,63.7500012159348,10|0,0:0|0:0,0:0:0:0:
231,80,44812,1,0,3:0:0:0:
231,80,44892,1,8,0:0:0:0:
307,48,45050,1,0,3:0:0:0:
366,104,45209,6,0,P|398:99|430:95,1,63.7500012159348,10|0,0:0|3:0,0:0:0:0:
339,182,45527,2,0,P|307:177|275:173,1,63.7500012159348,8|0,0:0|3:0,0:0:0:0:
203,214,45844,1,10,0:0:0:0:
145,153,46003,1,8,0:0:0:0:
88,213,46162,5,4,3:2:0:0:
88,213,46479,1,4,3:2:0:0:
415,296,47431,5,4,3:2:0:0:
415,296,47749,1,4,3:2:0:0:
216,360,48384,5,2,0:3:0:0:
216,360,48701,2,0,P|187:316|187:281,1,71.2499980974198,4|0,3:2|0:0,0:0:0:0:
246,228,49019,2,0,P|336:220|421:203,1,142.49999619484,10|2,0:0|3:0,0:0:0:0:
443,136,49495,1,0,3:0:0:0:
386,62,49654,1,10,0:0:0:0:
386,62,49812,1,2,0:3:0:0:
307,111,49971,6,0,P|251:88|219:87,1,71.2499980974198,2|0,3:0|3:0,0:0:0:0:
171,24,50289,2,0,P|117:52|96:75,1,71.2499980974198,10|2,0:0|0:0,0:0:0:0:
32,110,50606,6,0,B|51:162|43:185|43:185|22:227|46:273,1,142.49999619484,2|8,3:0|0:0,0:0:0:0:
96,319,51082,1,2,0:3:0:0:
96,319,51162,1,2,0:3:0:0:
96,319,51241,5,4,3:2:0:0:
235,291,51558,1,4,3:2:0:0:
403,104,52511,5,4,3:2:0:0:
264,76,52828,1,4,3:2:0:0:
43,27,53781,6,0,P|51:65|61:110,1,71.2499980974198,4|0,3:2|0:0,0:0:0:0:
132,152,54098,1,10,0:0:0:0:
84,231,54257,1,0,0:0:0:0:
155,289,54416,2,0,P|205:282|241:278,1,71.2499980974198,2|0,3:0|3:0,0:0:0:0:
296,339,54733,1,10,0:0:0:0:
296,339,54892,1,0,0:0:0:0:
387,350,55050,6,0,B|398:303|381:274|381:274|398:235|377:210|377:210|377:158|335:132|335:132|333:85|302:81|302:81|297:44|264:39|264:39|244:12|200:20|200:20|173:6|139:18,1,498.749986681938,2|0,3:2|3:0,0:0:0:0:
68,75,56320,6,0,P|80:125|83:163,1,71.2499980974198,6|2,3:2|3:2,0:0:0:0:
142,216,56638,2,0,P|121:285|103:371,1,142.49999619484,8|2,0:2|3:2,0:0:0:0:
15,374,57114,1,2,3:2:0:0:
117,369,57273,2,0,P|163:375|204:381,1,71.2499980974198,8|0,0:2|3:2,0:0:0:0:
244,305,57590,5,2,0:2:0:0:
244,305,57749,1,2,3:2:0:0:
316,362,57908,2,0,P|353:342|364:307,1,71.2499980974198,8|0,0:2|0:0,0:0:0:0:
336,227,58225,2,0,P|342:177|347:145,2,71.2499980974198,2|2|8,3:2|3:2|0:2,0:0:0:0:
380,308,58701,1,0,0:0:0:0:
466,275,58860,6,0,B|480:208|480:208|469:183|469:183|486:111,1,142.49999619484,2|8,3:2|0:2,0:0:0:0:
432,57,59336,1,0,0:0:0:0:
346,93,59495,2,0,L|258:81,1,71.2499980974198,2|2,3:2|3:2,0:0:0:0:
220,8,59812,2,0,L|132:-4,1,71.2499980974198,8|0,0:2|3:2,0:0:0:0:
77,58,60130,5,2,0:2:0:0:
77,58,60289,1,2,3:2:0:0:
149,123,60447,5,8,0:2:0:0:
149,123,60606,1,0,0:0:0:0:
112,208,60765,6,0,P|120:266|123:294,1,71.2499980974198,2|2,3:2|3:2,0:0:0:0:
170,357,61082,2,0,P|205:362|240:366,1,71.2499980974198,8|2,0:2|0:0,0:0:0:0:
280,341,61320,1,2,0:0:0:0:
280,341,61400,6,0,P|279:282|258:258,2,71.2499980974198,2|2|8,3:2|3:2|0:2,0:0:0:0:
188,274,61876,1,0,0:0:0:0:
238,192,62035,2,0,P|283:190|331:187,1,71.2499980974198,2|2,3:2|3:2,0:0:0:0:
338,100,62352,2,0,P|293:98|245:95,1,71.2499980974198,8|0,0:2|3:2,0:0:0:0:
302,10,62670,6,0,P|382:7|422:52,1,142.49999619484,2|8,0:0|0:2,0:0:0:0:
423,142,63146,1,0,0:0:0:0:
375,220,63304,2,0,P|384:281|389:320,2,71.2499980974198,2|2|8,3:2|3:2|0:2,0:0:0:0:
293,173,63781,1,0,0:0:0:0:
293,173,63860,1,0,3:0:0:0:
293,173,63939,6,0,B|261:152|261:152|207:170,1,71.2499980974198,8|0,0:0|3:0,0:0:0:0:
220,255,64257,2,0,B|252:276|252:276|306:258,1,71.2499980974198,8|0,0:0|3:0,0:0:0:0:
369,232,64574,1,8,0:0:0:0:
443,177,64733,2,0,P|487:186|495:187,2,35.6249990487099,0|8|8,3:0|0:0|0:0,0:0:0:0:
393,105,65050,1,0,3:0:0:0:
393,105,65129,1,8,0:0:0:0:
393,105,65209,1,12,3:1:0:0:
151,90,75050,5,8,0:0:0:0:
151,90,75368,2,0,P|193:84|220:78,1,60,6|0,3:2|0:0,0:0:0:0:
263,22,75685,2,0,P|321:43|347:162,1,180,8|0,0:0|3:2,0:0:0:0:
300,206,76320,1,8,0:0:0:0:
146,175,76638,5,0,3:2:0:0:
146,175,76796,1,0,3:2:0:0:
146,175,76955,1,8,0:0:0:0:
26,92,77273,1,0,3:2:0:0:
26,92,77431,1,0,3:2:0:0:
26,92,77590,2,0,P|39:55|51:28,1,60,10|0,0:0|0:0,0:0:0:0:
125,32,77908,6,0,L|197:25,1,60,2|2,3:2|3:2,0:0:0:0:
253,62,78225,2,0,L|325:55,1,60,10|0,0:0|0:0,0:0:0:0:
386,84,78543,2,0,L|412:22,2,60,2|2|10,3:2|3:2|0:0,0:0:0:0:
434,155,79019,1,0,0:0:0:0:
434,155,79177,6,0,P|420:197|414:228,1,60,2|2,0:0|3:2,0:0:0:0:
472,267,79495,2,0,P|486:309|492:340,1,60,10|0,0:0|0:0,0:0:0:0:
421,362,79812,2,0,L|361:358,1,60,2|2,3:2|3:2,0:0:0:0:
299,308,80130,2,0,L|239:312,1,60,10|0,0:0|0:0,0:0:0:0:
177,360,80447,1,2,3:2:0:0:
34,184,81082,5,0,3:2:0:0:
34,184,81241,1,0,3:2:0:0:
34,184,81400,1,8,0:0:0:0:
146,60,81717,5,0,3:2:0:0:
146,60,81876,1,0,3:2:0:0:
146,60,82035,1,8,0:0:0:0:
298,161,82352,5,0,3:2:0:0:
298,161,82511,1,0,3:2:0:0:
298,161,82670,2,0,P|292:202|288:232,1,60,10|0,0:0|0:0,0:0:0:0:
315,294,82987,6,0,P|359:319|383:307,1,60,2|2,3:2|3:2,0:0:0:0:
433,280,83304,2,0,P|457:263|464:234,1,60,10|0,0:0|0:0,0:0:0:0:
436,160,83622,2,0,P|446:103|451:80,2,60,2|2|10,3:2|3:2|0:0,0:0:0:0:
359,177,84098,1,0,0:0:0:0:
359,177,84257,2,0,P|349:120|344:97,2,60,2|2|10,3:2|3:2|0:0,0:0:0:0:
308,236,84733,1,0,0:0:0:0:
247,284,84892,2,0,P|179:274|170:275,1,60,2|8,3:2|0:0,0:0:0:0:
152,290,85130,1,8,0:0:0:0:
152,290,85209,2,0,P|122:292|93:300,1,60,8|8,0:0|0:0,0:0:0:0:
66,328,85447,1,8,0:0:0:0:
66,328,85527,1,4,3:2:0:0:
19,149,85844,5,10,0:0:0:0:
80,88,86003,2,0,P|144:100|179:106,1,71.2499980974198,2|0,0:0|3:0,0:0:0:0:
213,43,86320,1,0,3:0:0:0:
282,93,86479,2,0,P|349:106|401:60,1,142.49999619484,10|0,0:0|3:0,0:0:0:0:
488,208,87114,5,10,0:0:0:0:
488,208,87273,2,0,P|442:194|435:167,1,71.2499980974198,2|0,0:0|3:0,0:0:0:0:
494,114,87590,1,0,3:0:0:0:
427,60,87749,2,0,L|270:73,1,142.49999619484,10|0,0:0|3:0,0:0:0:0:
125,8,88384,6,0,P|53:28|54:91,1,142.49999619484,10|0,0:0|3:0,0:0:0:0:
106,150,88860,1,0,3:0:0:0:
106,150,89019,2,0,P|86:234|76:306,1,142.49999619484,10|0,0:0|3:0,0:0:0:0:
145,341,89495,1,0,3:0:0:0:
145,341,89654,2,0,B|205:337|205:337|222:344|222:344|301:338,1,142.49999619484,10|0,0:0|3:0,0:0:0:0:
353,286,90130,1,0,3:0:0:0:
353,286,90289,1,8,0:0:0:0:
461,363,90606,5,0,3:0:0:0:
395,212,90923,2,0,P|385:147|374:67,1,142.49999619484,10|0,0:0|3:0,0:0:0:0:
309,29,91400,1,0,3:0:0:0:
309,29,91558,2,0,P|237:0|144:5,1,142.49999619484,10|0,0:0|3:0,0:0:0:0:
119,66,92035,1,0,3:0:0:0:
119,66,92193,2,0,P|68:59|29:53,1,71.2499980974198,10|0,0:0|0:0,0:0:0:0:
26,139,92511,2,0,P|61:144|96:148,1,71.2499980974198,2|0,3:0|3:0,0:0:0:0:
88,234,92828,2,0,P|52:229|17:224,1,71.2499980974198,10|2,0:0|0:3,0:0:0:0:
14,310,93146,5,0,3:0:0:0:
173,370,93463,2,0,P|241:352|244:287,1,142.49999619484,10|0,0:0|3:0,0:0:0:0:
194,220,93939,1,0,3:0:0:0:
269,179,94098,2,0,P|277:123|282:96,1,71.2499980974198,10|2,0:0|0:3,0:0:0:0:
309,77,94336,1,0,3:0:0:0:
309,77,94416,6,0,P|374:70|403:65,1,71.2499980974198,8|0,0:0|3:0,0:0:0:0:
253,8,94733,2,0,P|188:1|159:-4,1,71.2499980974198,10|0,0:0|3:0,0:0:0:0:
124,63,95050,1,8,0:0:0:0:
124,63,95209,1,0,3:0:0:0:
157,141,95368,1,10,0:0:0:0:
72,130,95527,1,8,0:0:0:0:
103,209,95685,5,4,3:2:0:0:
150,373,96003,1,4,3:2:0:0:
409,209,96955,5,4,3:2:0:0:
362,373,97273,1,4,3:2:0:0:
75,59,98225,5,4,3:2:0:0:
75,59,98543,1,4,3:2:0:0:
437,59,99495,5,4,3:2:0:0:
437,59,99813,1,4,3:2:0:0:
102,106,100765,5,4,3:2:0:0:
269,68,101082,1,4,3:2:0:0:
269,68,101400,6,0,L|326:78,1,52.4999983978272,2|0,0:1|0:0,0:0:0:0:
390,218,102035,5,4,3:2:0:0:
223,180,102352,1,4,3:2:0:0:
223,180,102670,6,0,L|166:190,1,52.4999983978272,2|0,0:1|0:0,0:0:0:0:
96,96,103304,5,4,3:2:0:0:
63,276,103622,1,4,3:2:0:0:
118,52,105527,5,8,0:0:0:0:
118,52,105844,6,0,P|192:49|279:39,1,150,4|8,3:2|0:0,0:0:0:0:
343,102,106320,1,0,0:0:0:0:
415,36,106479,1,2,3:0:0:0:
415,36,106638,1,2,3:0:0:0:
465,118,106796,2,0,P|454:177|450:217,1,75,10|0,0:0|3:0,0:0:0:0:
492,281,107114,6,0,B|461:283|448:293|448:293|428:281|411:283|411:283|392:279|374:290|374:290|354:273|354:273|336:268|336:268|313:254|294:261|294:261|302:241|301:228|301:228|287:212|253:205|253:205|268:195|264:169|264:169|253:148|224:140|224:140|236:126|244:103|244:103|242:86|229:77|229:77,1,450,2|0,3:2|0:0,0:0:0:0:
160,29,108225,1,2,0:0:0:0:
160,29,108304,1,2,0:0:0:0:
160,29,108384,6,0,P|117:26|85:38,1,75,0|0,3:2|3:2,0:0:0:0:
7,92,108701,2,0,P|30:168|45:253,1,150,8|0,0:2|3:2,0:0:0:0:
11,329,109177,1,0,3:2:0:0:
99,370,109336,2,0,L|174:379,1,75,8|0,0:2|3:2,0:0:0:0:
237,304,109654,5,2,0:2:0:0:
237,304,109812,1,2,3:2:0:0:
167,234,109971,2,0,P|186:167|201:134,1,75,8|0,0:2|0:0,0:0:0:0:
289,156,110289,5,2,3:2:0:0:
289,156,110447,1,2,3:2:0:0:
359,86,110606,2,0,P|340:19|325:-14,1,75,8|0,0:2|0:0,0:0:0:0:
241,28,110923,6,0,L|156:15,1,75,2|2,3:2|3:2,0:0:0:0:
102,90,111241,2,0,L|27:101,1,75,8|0,0:2|0:0,0:0:0:0:
2,195,111558,1,2,3:2:0:0:
2,195,111717,1,2,3:2:0:0:
78,255,111876,2,0,P|82:302|90:355,1,75,8|0,0:2|3:2,0:0:0:0:
178,361,112193,6,0,P|225:357|278:349,1,75,2|2,0:0|3:2,0:0:0:0:
249,255,112511,2,0,P|211:259|174:262,1,75,8|0,0:2|0:0,0:0:0:0:
83,227,112828,1,2,3:2:0:0:
158,164,112987,1,2,3:2:0:0:
66,131,113146,2,0,P|75:83|77:48,1,75,8|0,0:2|3:0,0:0:0:0:
125,52,113384,1,0,3:0:0:0:
125,52,113463,6,0,B|161:36|161:36|208:44,1,75,8|0,0:0|3:0,0:0:0:0:
270,106,113781,1,8,0:0:0:0:
244,199,113939,1,0,3:0:0:0:
312,268,114098,2,0,L|328:369,1,75,8|0,0:0|3:0,0:0:0:0:
417,372,114416,1,8,0:0:0:0:
465,288,114574,1,0,3:0:0:0:
402,213,114733,5,0,3:0:0:0:
402,213,114892,1,8,0:0:0:0:
320,265,115050,2,0,L|230:253,1,75,8|8,0:0|0:0,0:0:0:0:
205,226,115289,1,8,0:0:0:0:
205,226,115368,2,0,L|130:235,1,75,8|8,0:0|0:0,0:0:0:0:
85,322,115685,2,0,L|159:331,1,75,8|8,0:0|0:0,0:0:0:0:
193,367,115923,1,8,0:0:0:0:
193,367,116003,6,0,B|273:353|273:353|298:374|298:374|420:355,1,225.000008583069,4|0,3:2|3:2,0:0:0:0:
463,221,116955,1,0,3:2:0:0:
386,152,117273,6,0,P|399:98|416:39,3,112.500004291535,0|0|0|0,3:2|3:2|3:2|3:0,0:0:0:0:
335,12,118384,1,0,0:0:0:0:
335,12,118463,1,0,0:0:0:0:
335,12,118543,6,0,B|279:-10|203:-9|203:-9|171:37|209:91,1,225.000008583069,4|0,3:2|3:2,0:0:0:0:
250,175,119495,1,0,3:2:0:0:
110,251,119812,2,0,P|58:239|50:175,3,112.500004291535,0|0|0|0,3:2|3:2|3:2|3:0,0:0:0:0:
113,122,120923,1,0,0:0:0:0:
113,122,121003,1,0,0:0:0:0:
113,122,121082,6,0,B|189:130|259:118|259:118|244:179|222:210,1,225.000008583069,4|0,3:2|3:2,0:0:0:0:
128,259,122035,1,0,3:2:0:0:
260,326,122352,2,0,P|320:331|391:342,3,112.500004291535,0|0|0|0,3:2|3:2|3:2|3:0,0:0:0:0:
461,289,123463,1,0,0:0:0:0:
461,289,123543,1,0,0:0:0:0:
461,289,123622,6,0,P|477:227|350:208,1,225.000008583069,4|0,3:2|3:2,0:0:0:0:
350,383,124574,1,0,3:2:0:0:
211,367,124892,6,0,P|156:372|137:381,1,56.2500021457673,2|0,3:2|0:0,0:0:0:0:
105,311,125209,2,0,P|55:287|34:286,1,56.2500021457673,2|0,3:2|0:0,0:0:0:0:
34,211,125527,2,0,P|3:165|-15:153,1,56.2500021457673,2|0,3:2|0:0,0:0:0:0:
55,84,125844,5,2,3:2:0:0:
1,27,126003,1,2,3:2:0:0:
