osu file format v14

[General]
AudioFilename: audio.mp3
AudioLeadIn: 0
PreviewTime: 46134
Countdown: 0
SampleSet: Soft
StackLeniency: 0.7
Mode: 0
LetterboxInBreaks: 0
WidescreenStoryboard: 1

[Editor]
Bookmarks: 25222,76332,87761
DistanceSpacing: 1
BeatDivisor: 4
GridSize: 32
TimelineZoom: 1.3

[Metadata]
Title:SICK OF IT*
TitleUnicode:SICK OF IT*
Artist:Jean Dawson
ArtistUnicode:Jean Dawson
Creator:Hobbes2
Version:EXTRA*
Source:
Tags:alternative CHAOS NOW* english rock indie
BeatmapID:4037804
BeatmapSetID:1949894

[Difficulty]
HPDrainRate:4
CircleSize:4.1
OverallDifficulty:8.2
ApproachRate:9.2
SliderMultiplier:1.8
SliderTickRate:1

[Events]
//Background and Video events
0,0,"maxresdefault.jpg",0,0
//Break Periods
2,65409,74098
//Storyboard Layer 0 (Background)
//Storyboard Layer 1 (Fail)
//Storyboard Layer 2 (Pass)
//Storyboard Layer 3 (Foreground)
//Storyboard Layer 4 (Overlay)
//Storyboard Sound Samples

[TimingPoints]
6797,317.460317460317,4,2,0,50,1,0
8066,-200,4,2,0,40,0,0
8701,-166.666666666667,4,2,0,50,0,0
9336,-142.857142857143,4,2,0,60,0,0
9971,-142.857142857143,4,2,0,70,0,0
13146,-117.647058823529,4,2,0,80,0,0
20765,-153.846153846154,4,2,0,65,0,0
26479,-222.222222222223,4,2,0,65,0,0
27114,-153.846153846154,4,2,0,65,0,0
34098,-117.647058823529,4,2,0,65,0,0
36003,-117.647058823529,4,2,0,80,0,0
48384,-222.222222222221,4,2,0,80,0,0
48701,-105.263157894737,4,2,0,85,0,0
70289,-142.857142857143,4,2,0,85,0,0
75050,-142.857142857143,4,2,0,65,0,0
85527,-105.263157894737,4,2,0,80,0,0
96320,-285.714285714287,4,2,0,80,0,0
96955,-105.263157894737,4,2,0,80,0,0
97590,-285.714285714287,4,2,0,80,0,0
98225,-105.263157894737,4,2,0,80,0,0
101400,-285.714285714287,4,2,0,80,0,0
102035,-105.263157894737,4,2,0,80,0,0
102670,-285.714285714287,4,2,0,80,0,0
103304,-105.263157894737,4,2,0,80,0,0
105527,-44.4444444444445,4,2,0,80,0,0
105844,-100,4,2,0,90,0,0
116003,-133.333333333333,4,2,0,60,0,0

[Colours]
Combo1 : 0,128,255
Combo2 : 145,253,242
Combo3 : 255,155,215
Combo4 : 255,128,128
Combo5 : 255,199,172

[HitObjects]
18,82,8066,6,0,L|124:70,1,90,0|0,3:0|3:0,0:0:0:0:
193,9,8701,6,0,L|300:23,1,107.999996704102,0|0,3:0|3:0,0:0:0:0:
434,66,9336,6,0,L|471:192,1,125.999996154785,0|0,3:3|3:3,0:0:0:0:
458,314,9971,5,4,0:3:0:0:
458,314,10130,1,4,0:3:0:0:
344,266,10289,5,4,0:3:0:0:
174,384,10447,5,4,0:3:0:0:
140,204,13146,6,0,P|141:166|127:130,1,76.5000014591217,6|0,3:2|0:0,0:0:0:0:
57,219,13463,2,0,P|42:183|44:145,1,76.5000014591217,10|0,0:0|0:0,0:0:0:0:
153,5,13781,1,2,3:2:0:0:
225,47,13939,2,0,P|300:30|390:24,1,153.000002918243,2|2,3:2|0:3,0:0:0:0:
462,141,14416,5,0,3:2:0:0:
462,141,14574,1,0,3:2:0:0:
512,39,14733,1,10,0:0:0:0:
491,258,14892,1,0,0:0:0:0:
382,86,15050,6,0,P|393:13|397:-7,1,76.5000014591217,0|0,3:2|3:2,0:0:0:0:
306,129,15368,2,0,P|259:101|206:111,1,76.5000014591217,8|2,0:0|0:3,0:0:0:0:
206,127,15606,1,2,0:0:0:0:
206,127,15685,5,2,3:2:0:0:
299,4,15844,1,0,0:0:0:0:
379,178,16003,2,0,L|368:253,1,76.5000014591217,10|0,0:0|0:0,0:0:0:0:
511,338,16320,1,2,3:2:0:0:
440,384,16479,2,0,B|376:376|376:376|356:383|356:383|265:372,1,153.000002918243,2|2,3:2|0:3,0:0:0:0:
221,286,16955,5,0,3:2:0:0:
221,286,17114,1,0,3:2:0:0:
341,207,17273,2,0,P|330:160|321:108,1,76.5000014591217,10|0,0:0|0:0,0:0:0:0:
369,60,17590,1,0,3:2:0:0:
249,181,17749,1,0,3:2:0:0:
392,275,17908,2,0,P|437:276|469:239,1,76.5000014591217,8|2,0:0|0:3,0:0:0:0:
337,347,18225,6,0,P|269:333|238:328,1,76.5000014591217,2|0,3:2|3:2,0:0:0:0:
152,274,18543,2,0,P|90:284|73:360,1,114.750002188683,10|0,0:0|0:0,0:0:0:0:
87,362,18860,1,0,3:2:0:0:
87,362,19019,1,0,3:2:0:0:
51,214,19177,1,8,0:0:0:0:
226,373,19336,1,0,0:0:0:0:
140,176,19495,6,0,P|154:125|165:77,1,76.5000014591217,0|0,3:2|3:2,0:0:0:0:
368,155,19812,1,10,0:0:0:0:
221,233,19971,1,0,0:0:0:0:
208,34,20130,2,0,P|242:16|279:23,1,76.5000014591217,2|0,3:2|3:2,0:0:0:0:
321,252,20447,1,10,0:0:0:0:
427,78,20606,5,8,0:0:0:0:
427,78,20685,1,8,0:0:0:0:
427,78,20765,6,0,P|415:134|411:160,1,58.4999973220826,2|0,3:2|3:2,0:0:0:0:
468,188,21082,1,8,0:0:0:0:
433,363,21400,1,2,3:2:0:0:
433,363,21558,2,0,P|368:333|367:333,2,58.4999973220826,2|8|0,3:2|0:0|0:0,0:0:0:0:
316,379,22035,6,0,P|259:368|239:366,1,58.4999973220826,2|0,3:2|3:2,0:0:0:0:
210,308,22352,1,8,0:0:0:0:
40,370,22670,1,2,3:2:0:0:
40,370,22828,2,0,P|17:317|59:260,1,116.999994644165,2|0,3:2|0:0,0:0:0:0:
102,219,23304,5,2,3:2:0:0:
152,275,23463,1,0,3:2:0:0:
102,219,23622,1,8,0:0:0:0:
11,62,23939,5,2,3:2:0:0:
11,62,24098,2,0,P|61:54|91:45,2,58.4999973220826,2|8|0,3:2|0:0|0:0,0:0:0:0:
162,6,24574,5,2,3:2:0:0:
180,79,24733,1,0,3:2:0:0:
155,151,24892,1,8,0:0:0:0:
350,6,25209,5,2,3:2:0:0:
332,79,25368,1,0,3:2:0:0:
357,151,25527,1,8,0:0:0:0:
332,79,25685,1,0,0:0:0:0:
292,261,25844,6,0,P|237:253|214:251,1,58.4999973220826,2|0,3:2|3:2,0:0:0:0:
281,279,26162,2,0,P|226:271|203:269,1,58.4999973220826,8|0,0:0|0:0,0:0:0:0:
394,283,26479,6,0,P|432:278|445:278,1,40.4999987640381,0|0,3:2|3:2,0:0:0:0:
405,301,26796,2,0,P|440:294|461:294,1,40.4999987640381,8|0,0:0|0:0,0:0:0:0:
284,372,27114,6,0,P|295:335|307:298,1,58.4999973220826,0|0,3:2|3:2,0:0:0:0:
372,384,27431,1,8,0:0:0:0:
211,312,27590,2,0,P|202:243|194:169,1,116.999994644165,2|0,0:0|3:2,0:0:0:0:
295,112,28066,1,8,0:0:0:0:
295,112,28146,1,0,0:0:0:0:
295,112,28225,1,2,0:3:0:0:
225,54,28384,6,0,L|146:57,1,58.4999973220826,0|0,3:2|3:2,0:0:0:0:
30,178,28701,6,0,B|31:144|42:125|42:125|36:107|36:107|52:81|50:49,2,116.999994644165,10|2|10,0:0|3:2|0:0,0:0:0:0:
79,311,29654,2,0,P|135:321|156:308,1,58.4999973220826,0|0,3:2|3:2,0:0:0:0:
236,263,29971,1,8,0:0:0:0:
294,312,30130,2,0,P|287:351|284:381,1,58.4999973220826,2|0,0:0|3:2,0:0:0:0:
422,384,30447,5,8,0:0:0:0:
291,137,30606,1,8,0:0:0:0:
467,267,30765,1,0,0:0:0:0:
450,146,30923,6,0,P|502:140|530:136,1,58.4999973220826,2|0,3:2|0:0,0:0:0:0:
440,68,31241,2,0,P|469:65|499:62,1,58.4999973220826,10|0,0:0|0:0,0:0:0:0:
255,32,31558,2,0,P|186:16|131:11,1,116.999994644165,2|8,3:2|0:0,0:0:0:0:
70,49,32035,1,0,0:0:0:0:
232,148,32193,6,0,P|259:157|287:149,1,58.4999973220826,2|0,3:2|3:2,0:0:0:0:
197,219,32511,2,0,P|130:228|121:232,1,58.4999973220826,10|0,0:0|0:0,0:0:0:0:
42,309,32828,2,0,L|57:384,1,58.4999973220826,2|0,3:2|3:2,0:0:0:0:
229,378,33146,5,8,0:0:0:0:
229,378,33304,1,0,0:0:0:0:
352,247,33463,2,0,P|395:256|421:259,1,58.4999973220826,2|0,3:1|3:2,0:0:0:0:
229,378,33781,5,8,0:0:0:0:
229,378,33939,1,0,0:0:0:0:
436,282,34098,2,0,P|464:277|518:274,1,76.5000014591217,2|0,3:1|3:2,0:0:0:0:
229,378,34416,5,8,0:0:0:0:
229,378,34574,1,0,0:0:0:0:
344,379,34733,5,0,3:2:0:0:
67,37,36003,6,0,L|158:27,1,76.5000014591217,4|0,3:2|3:2,0:0:0:0:
274,149,36320,1,10,0:0:0:0:
206,209,36479,2,0,B|189:152|189:152|201:118,1,76.5000014591217,2|0,0:0|3:2,0:0:0:0:
311,78,36796,1,0,3:2:0:0:
274,258,36955,2,0,P|170:232|96:222,1,153.000002918243,10|0,0:0|3:2,0:0:0:0:
58,277,37431,1,0,3:2:0:0:
32,78,37590,5,10,0:0:0:0:
66,154,37749,2,0,P|107:125|105:84,1,76.5000014591217,2|0,3:2|0:0,0:0:0:0:
21,65,38066,1,0,3:2:0:0:
233,157,38225,2,0,B|247:127|247:127|228:32|228:32|245:-8,1,153.000002918243,10|0,0:0|3:2,0:0:0:0:
321,52,38701,1,0,3:2:0:0:
233,245,38860,6,0,L|156:237,1,76.5000014591217,10|0,0:0|0:0,0:0:0:0:
147,111,39177,1,0,0:0:0:0:
80,271,39336,1,0,3:2:0:0:
233,245,39495,6,0,L|241:332,1,76.5000014591217,10|2,0:0|0:3,0:0:0:0:
387,288,39812,1,0,3:2:0:0:
302,384,39971,1,0,3:2:0:0:
441,352,40130,6,0,B|504:352|504:352|530:386,1,76.5000014591217,10|0,0:0|0:0,0:0:0:0:
366,206,40447,1,0,3:2:0:0:
302,384,40606,1,0,3:2:0:0:
210,206,40765,6,0,L|222:119,1,76.5000014591217,10|2,0:0|0:3,0:0:0:0:
189,23,41082,1,0,3:2:0:0:
189,23,41241,1,0,3:2:0:0:
303,149,41400,6,0,P|365:118|369:87,1,76.5000014591217,10|0,0:0|0:0,0:0:0:0:
360,5,41717,1,0,3:2:0:0:
303,149,41876,1,0,3:2:0:0:
437,240,42035,6,0,L|512:229,1,76.5000014591217,10|2,0:0|0:3,0:0:0:0:
437,240,42352,1,0,3:2:0:0:
309,110,42511,1,0,3:2:0:0:
356,39,42670,6,0,B|322:20|322:20|285:29,1,76.5000014591217,10|0,0:0|3:0,0:0:0:0:
261,180,42987,2,0,B|294:198|294:198|331:189,1,76.5000014591217,2|0,3:2|3:2,0:0:0:0:
147,0,43304,2,0,L|59:7,1,76.5000014591217,10|2,0:0|0:3,0:0:0:0:
43,109,43622,5,0,3:2:0:0:
43,109,43781,1,0,3:2:0:0:
134,199,43939,2,0,L|141:299,1,76.5000014591217,10|0,0:0|0:0,0:0:0:0:
92,345,44257,5,0,3:2:0:0:
248,254,44416,1,0,3:2:0:0:
316,342,44574,6,0,L|407:327,1,76.5000014591217,10|0,0:0|0:0,0:0:0:0:
412,306,44812,1,2,3:0:0:0:
412,306,44892,5,8,0:0:0:0:
356,160,45050,1,0,3:0:0:0:
486,131,45209,5,10,0:0:0:0:
332,183,45367,1,0,3:0:0:0:
314,52,45527,5,8,0:0:0:0:
356,204,45685,1,0,3:0:0:0:
298,293,45844,6,0,L|246:287,1,38.2500007295609,10|0,0:0|0:0,0:0:0:0:
288,311,46003,2,0,L|250:306,1,38.2500007295609,8|0,0:0|0:0,0:0:0:0:
205,235,46162,6,0,B|138:248|138:248|112:239|112:239|40:255,1,153.000002918243,4|4,3:2|3:2,0:0:0:0:
72,46,46796,5,2,0:0:0:0:
72,46,46955,1,2,0:0:0:0:
72,46,47114,1,2,0:0:0:0:
303,96,47431,6,0,B|370:109|370:109|396:100|396:100|468:116,1,153.000002918243,4|4,3:2|3:2,0:0:0:0:
133,308,48066,5,2,0:0:0:0:
133,308,48225,1,2,0:0:0:0:
133,308,48384,2,0,P|100:317|92:308,1,40.4999987640381,0|0,0:3|0:0,0:0:0:0:
98,157,48701,6,0,P|85:207|78:251,1,85.4999977169037,4|0,3:2|0:0,0:0:0:0:
206,358,49019,2,0,P|258:360|281:324,1,85.4999977169037,10|0,0:0|0:0,0:0:0:0:
241,207,49336,2,0,P|189:205|166:241,1,85.4999977169037,2|0,3:0|3:0,0:0:0:0:
293,321,49654,1,10,0:0:0:0:
464,217,49812,1,2,0:3:0:0:
311,163,49971,6,0,P|319:107|329:65,1,85.4999977169037,2|0,3:0|3:0,0:0:0:0:
395,28,50289,1,10,0:0:0:0:
368,244,50447,1,2,0:0:0:0:
219,95,50606,1,2,3:0:0:0:
413,127,50765,1,0,3:0:0:0:
232,211,50923,2,0,P|167:223|121:236,1,85.4999977169037,8|2,0:0|0:3,0:0:0:0:
118,259,51162,1,2,0:3:0:0:
118,259,51241,6,0,P|51:279|10:188,1,170.999995433807,4|4,3:2|3:2,0:0:0:0:
323,77,51876,5,2,0:0:0:0:
323,77,52035,1,2,0:0:0:0:
323,77,52193,1,2,0:0:0:0:
367,325,52511,6,0,P|434:345|475:254,1,170.999995433807,4|4,3:2|3:2,0:0:0:0:
80,231,53146,5,2,0:0:0:0:
80,231,53304,1,2,0:0:0:0:
80,231,53463,1,2,0:0:0:0:
179,73,53781,6,0,L|279:84,1,85.4999977169037,4|0,3:2|0:0,0:0:0:0:
427,155,54098,1,10,0:0:0:0:
321,20,54257,1,0,0:0:0:0:
165,158,54416,2,0,L|177:270,1,85.4999977169037,2|0,3:0|3:0,0:0:0:0:
269,351,54733,1,10,0:0:0:0:
269,351,54812,1,2,0:0:0:0:
269,351,54892,1,2,0:0:0:0:
269,351,54971,1,2,0:0:0:0:
269,351,55050,6,0,P|323:342|365:335,1,85.4999977169037,2|2,3:2|3:2,0:2:0:0:
433,331,55289,1,2,0:2:0:0:
433,331,55368,2,0,P|429:276|412:264,3,42.7499988584519,10|0|0|0,0:2|0:2|0:2|0:2,0:2:0:0:
395,223,55685,5,2,3:2:0:0:
370,193,55764,1,2,0:2:0:0:
335,177,55843,1,2,3:2:0:0:
297,178,55923,1,2,0:2:0:0:
268,196,56003,1,10,0:2:0:0:
230,196,56083,1,2,0:2:0:0:
195,180,56162,1,2,0:2:0:0:
171,151,56241,1,2,0:2:0:0:
169,116,56320,6,0,P|165:35|165:1,1,85.4999977169037,6|2,3:2|3:2,0:0:0:0:
320,0,56638,2,0,B|398:8|398:8|407:-4|407:-4|490:3,1,170.999995433807,8|2,0:2|3:2,0:0:0:0:
441,86,57114,1,2,3:2:0:0:
512,239,57273,2,0,P|496:314|490:361,1,85.4999977169037,8|2,0:2|3:2,0:0:0:0:
508,367,57511,1,2,0:0:0:0:
508,367,57590,5,2,0:2:0:0:
359,223,57749,1,2,3:2:0:0:
512,116,57908,1,8,0:2:0:0:
473,263,58066,1,0,0:0:0:0:
317,309,58225,6,0,P|253:291|197:284,1,85.4999977169037,2|2,3:2|3:2,0:0:0:0:
353,104,58543,2,0,P|417:86|473:79,1,85.4999977169037,8|0,0:2|0:0,0:0:0:0:
395,233,58860,5,2,3:2:0:0:
256,384,59019,1,2,3:2:0:0:
160,211,59177,1,8,0:2:0:0:
270,284,59336,1,2,0:0:0:0:
270,284,59416,1,2,0:0:0:0:
270,284,59495,2,0,P|279:219|286:182,1,85.4999977169037,2|2,3:2|3:2,0:0:0:0:
101,291,59812,2,0,P|45:280|38:237,1,85.4999977169037,8|0,0:2|3:2,0:0:0:0:
96,89,60130,5,2,0:2:0:0:
96,89,60289,1,2,3:2:0:0:
162,151,60447,5,8,0:2:0:0:
162,151,60606,1,0,0:0:0:0:
246,43,60765,5,2,3:2:0:0:
246,43,60924,1,2,3:2:0:0:
318,214,61082,5,8,0:2:0:0:
256,141,61241,1,0,0:0:0:0:
403,70,61400,6,0,P|460:64|508:56,1,85.4999977169037,2|2,3:2|3:2,0:0:0:0:
388,244,61717,2,0,P|331:238|283:230,1,85.4999977169037,8|0,0:2|0:0,0:0:0:0:
440,314,62035,1,2,3:2:0:0:
350,154,62193,1,2,3:2:0:0:
242,344,62352,1,8,0:2:0:0:
338,265,62511,1,0,3:2:0:0:
165,170,62670,6,0,P|154:117|142:68,1,85.4999977169037,2|2,0:0|3:2,0:0:0:0:
208,14,62987,1,8,0:2:0:0:
80,185,63146,1,2,0:0:0:0:
80,185,63225,1,2,0:0:0:0:
80,185,63304,2,0,P|13:178|-37:172,1,85.4999977169037,2|2,3:2|3:2,0:0:0:0:
21,384,63622,6,0,P|43:317|67:283,1,85.4999977169037,8|0,0:2|0:0,0:0:0:0:
94,285,63860,1,0,3:0:0:0:
94,285,63939,5,8,0:0:0:0:
306,334,64098,1,0,3:0:0:0:
294,216,64257,5,8,0:0:0:0:
151,384,64416,1,0,3:0:0:0:
170,183,64574,5,8,0:0:0:0:
257,114,64733,5,0,3:0:0:0:
257,114,64812,1,8,0:0:0:0:
257,114,64892,1,8,0:0:0:0:
106,66,65050,5,0,3:0:0:0:
106,66,65130,1,8,0:0:0:0:
106,66,65209,1,4,3:1:0:0:
105,51,75050,5,8,0:0:0:0:
105,51,75368,6,0,P|174:22|250:31,1,125.999996154785,6|8,3:2|0:0,0:0:0:0:
287,75,75844,1,0,0:0:0:0:
246,178,76003,2,0,P|257:251|262:275,1,62.9999980773926,0|0,3:2|3:2,0:0:0:0:
169,250,76320,2,0,B|174:261|158:224|162:192,1,62.9999980773926,8|0,0:0|0:0,0:0:0:0:
104,325,76638,5,0,3:2:0:0:
104,325,76796,1,0,3:2:0:0:
227,381,76955,2,0,P|308:360|381:349,1,125.999996154785,8|0,0:0|3:2,0:0:0:0:
407,294,77431,1,0,3:2:0:0:
448,370,77590,1,10,0:0:0:0:
448,370,77749,1,0,0:0:0:0:
342,244,77908,6,0,P|269:225|248:222,1,62.9999980773926,2|2,3:2|3:2,0:0:0:0:
449,231,78225,2,0,P|502:178|519:164,1,62.9999980773926,10|0,0:0|0:0,0:0:0:0:
384,166,78543,1,2,3:2:0:0:
384,166,78701,1,2,3:2:0:0:
420,92,78860,1,10,0:0:0:0:
313,124,79019,1,0,0:0:0:0:
342,48,79177,5,2,0:0:0:0:
342,48,79336,1,2,3:2:0:0:
267,13,79495,2,0,P|198:34|173:38,1,62.9999980773926,10|0,0:0|0:0,0:0:0:0:
76,80,79812,2,0,P|45:71|16:60,1,62.9999980773926,2|2,3:2|3:2,0:0:0:0:
125,9,80130,1,10,0:0:0:0:
125,9,80289,1,0,0:0:0:0:
183,151,80447,6,0,B|223:178|252:167|252:167|287:166|341:189,1,125.999996154785,2|8,3:2|0:0,0:0:0:0:
346,244,80923,1,0,0:0:0:0:
421,179,81082,2,0,P|407:117|405:89,1,62.9999980773926,0|0,3:2|3:2,0:0:0:0:
501,162,81400,2,0,P|496:131|488:101,1,62.9999980773926,8|0,0:0|0:0,0:0:0:0:
389,10,81717,5,0,3:2:0:0:
389,10,81876,1,0,3:2:0:0:
321,108,82035,2,0,P|255:93|149:87,1,125.999996154785,8|0,0:0|3:2,0:0:0:0:
147,21,82511,1,0,3:2:0:0:
62,86,82670,1,10,0:0:0:0:
62,86,82828,1,0,0:0:0:0:
140,203,82987,6,0,P|178:185|179:136,1,62.9999980773926,2|2,3:2|3:2,0:0:0:0:
52,203,83304,2,0,P|71:274|73:295,1,62.9999980773926,10|0,0:0|0:0,0:0:0:0:
5,373,83622,1,2,3:2:0:0:
85,359,83781,1,2,3:2:0:0:
157,321,83939,1,10,0:0:0:0:
237,335,84098,1,0,0:0:0:0:
339,381,84257,6,0,P|391:367|427:361,1,62.9999980773926,2|2,3:2|3:2,0:0:0:0:
511,316,84574,2,0,P|481:307|451:301,1,62.9999980773926,10|0,0:0|0:0,0:0:0:0:
356,242,84892,5,2,3:2:0:0:
423,167,85050,1,8,0:0:0:0:
423,167,85130,1,8,0:0:0:0:
423,167,85209,1,8,0:0:0:0:
367,93,85368,5,0,0:0:0:0:
367,93,85447,1,8,0:0:0:0:
367,93,85527,2,0,P|381:35|384:-10,1,85.4999977169037,4|0,3:2|0:0,0:0:0:0:
202,40,85844,5,10,0:0:0:0:
156,116,86003,2,0,B|228:116|228:116|266:86,1,85.4999977169037,2|0,0:0|3:0,0:0:0:0:
127,2,86320,1,0,3:0:0:0:
94,172,86479,2,0,B|110:209|110:209|99:309|99:309|107:342,1,170.999995433807,10|0,0:0|3:0,0:0:0:0:
32,367,86955,1,0,3:0:0:0:
207,285,87114,5,10,0:0:0:0:
197,371,87273,2,0,B|265:347|265:347|275:300,1,85.4999977169037,2|0,0:0|3:0,0:0:0:0:
180,214,87590,1,0,3:0:0:0:
377,329,87749,2,0,P|446:306|450:198,1,170.999995433807,10|0,0:0|3:0,0:0:0:0:
414,146,88225,1,0,3:0:0:0:
201,171,88384,6,0,L|109:181,1,85.4999977169037,10|0,0:0|0:0,0:0:0:0:
117,297,88701,1,0,3:0:0:0:
44,129,88860,1,0,3:0:0:0:
201,171,89019,6,0,L|214:79,1,85.4999977169037,10|2,0:0|0:3,0:0:0:0:
338,154,89336,1,0,3:0:0:0:
155,11,89495,1,0,3:0:0:0:
304,67,89654,6,0,B|374:69|374:69|396:100,1,85.4999977169037,10|0,0:0|0:0,0:0:0:0:
415,242,89971,1,0,3:0:0:0:
455,27,90130,1,0,3:0:0:0:
507,102,90289,6,0,L|489:191,1,85.4999977169037,10|2,0:0|0:3,0:0:0:0:
419,246,90606,1,0,3:0:0:0:
419,246,90765,1,0,3:0:0:0:
314,134,90923,6,0,L|213:147,1,85.4999977169037,10|0,0:0|0:0,0:0:0:0:
71,214,91241,1,0,3:0:0:0:
128,70,91400,1,0,3:0:0:0:
203,230,91559,6,0,B|217:294|217:294|213:323,1,85.4999977169037,10|2,0:0|0:3,0:0:0:0:
67,384,91876,1,0,3:0:0:0:
115,286,92035,1,0,3:0:0:0:
270,382,92193,6,0,L|382:374,1,85.4999977169037,10|0,0:0|0:0,0:0:0:0:
308,221,92511,2,0,L|196:213,1,85.4999977169037,2|0,3:0|3:0,0:0:0:0:
118,67,92828,2,0,B|201:59|201:59|223:76|223:76|314:67,1,170.999995433807,10|0,0:0|3:0,0:0:0:0:
351,6,93304,1,0,3:0:0:0:
451,116,93463,6,0,P|454:174|412:209,1,85.4999977169037,10|0,0:0|0:0,0:0:0:0:
284,260,93781,1,0,3:0:0:0:
284,260,93939,1,0,3:0:0:0:
414,354,94098,2,0,L|519:366,1,85.4999977169037,10|2,0:0|0:3,0:0:0:0:
489,317,94336,1,0,3:0:0:0:
489,317,94416,5,8,0:0:0:0:
343,199,94574,1,0,3:0:0:0:
326,332,94733,5,10,0:0:0:0:
422,156,94891,1,0,3:0:0:0:
415,243,95050,5,8,0:0:0:0:
355,75,95209,1,0,3:0:0:0:
495,112,95368,5,10,0:0:0:0:
495,112,95447,1,8,0:0:0:0:
495,112,95527,2,0,B|493:112|501:114|513:67,1,42.7499988584519,8|8,0:0|0:0,0:0:0:0:
434,53,95685,6,0,P|355:41|235:16,1,170.999995433807,4|4,3:2|3:2,0:0:0:0:
43,275,96320,6,0,B|69:263|69:263|75:263|88:258|89:258|94:265|103:268|112:267|116:264|125:257|138:252|142:250|151:250|151:251,1,110.249996635437,2|0,0:1|0:0,0:0:0:0:
147,250,96955,6,0,P|226:262|346:287,1,170.999995433807,4|4,3:2|3:2,0:0:0:0:
466,127,97590,6,0,B|460:106|460:104|460:98|464:96|467:88|467:88|467:83|467:78|464:67|455:58|455:55|460:49|464:42|462:32|456:25|456:25|457:25|456:21|455:20,1,110.249996635437,2|0,0:1|0:0,0:0:0:0:
455,21,98225,6,0,P|382:15|365:98,1,170.999995433807,4|4,3:2|3:2,0:0:0:0:
18,281,99495,6,0,P|91:274|108:357,1,170.999995433807,4|4,3:2|3:2,0:0:0:0:
16,133,100765,6,0,B|85:120|85:120|106:128|106:128|197:114,1,170.999995433807,4|4,3:2|3:2,0:0:0:0:
315,357,101400,6,0,B|313:338|314:334|314:330|315:328|327:324|337:321|337:321|345:321|349:326|349:333|347:338|349:347|350:349|353:357|355:360|362:360|340:368,1,110.249996635437,2|0,0:1|0:0,0:0:0:0:
342,367,102035,6,0,B|273:354|273:354|252:362|252:362|161:348,1,170.999995433807,4|4,3:2|3:2,0:0:0:0:
23,107,102670,6,0,B|17:147|22:137|23:133|25:132|29:131|37:130|39:130|47:129|47:129|53:130|59:132|64:137|66:143|66:148|66:153|68:159|68:166|68:171|64:178|64:178,1,110.249996635437,2|0,0:1|0:0,0:0:0:0:
66,175,103304,6,0,P|78:258|91:364,1,170.999995433807,4|4,3:2|3:2,0:0:0:0:
170,144,105368,5,0,3:0:0:0:
130,53,105527,2,0,B|150:69|150:69|124:79,6,50.6250019311906,8|0|0|0|0|0|0,0:0|0:0|0:0|0:0|0:0|0:0|0:0,0:0:0:0:
202,14,105844,6,0,L|303:6,1,90,4|0,3:2|0:0,0:0:0:0:
414,135,106162,2,0,L|324:127,1,90,8|0,0:0|0:0,0:0:0:0:
252,197,106479,5,2,3:0:0:0:
377,317,106638,1,2,3:0:0:0:
172,235,106796,2,0,B|149:194|149:194|182:149,1,90,10|0,0:0|3:0,0:0:0:0:
208,128,107035,1,0,0:0:0:0:
208,128,107114,6,0,P|253:116|264:113,3,45,0|0|0|0,3:0|0:0|3:0|0:0,0:0:0:0:
298,24,107431,2,0,P|320:30|342:36,3,45,8|0|0|0,0:0|0:0|0:0|0:0,0:0:0:0:
420,0,107749,1,2,3:2:0:0:
429,29,107828,1,2,0:2:0:0:
436,60,107907,1,2,3:2:0:0:
440,91,107987,1,2,0:2:0:0:
440,123,108066,1,10,0:2:0:0:
431,152,108146,1,2,0:2:0:0:
424,183,108225,1,2,0:2:0:0:
420,214,108305,1,2,0:2:0:0:
420,246,108384,6,0,P|480:261|522:274,1,90,0|0,3:2|3:2,0:0:0:0:
349,369,108701,2,0,P|277:348|291:255,1,180,8|0,0:2|3:2,0:0:0:0:
430,337,109177,1,0,3:2:0:0:
280,243,109336,2,0,P|216:252|173:260,1,90,8|0,0:2|3:2,0:0:0:0:
80,370,109654,5,2,0:2:0:0:
112,184,109812,1,2,3:2:0:0:
18,199,109971,2,0,P|6:141|-3:102,1,90,8|0,0:2|0:0,0:0:0:0:
18,70,110209,1,0,0:0:0:0:
18,70,110289,1,2,3:2:0:0:
124,210,110447,1,2,3:2:0:0:
209,9,110606,1,8,0:2:0:0:
121,94,110765,1,0,0:0:0:0:
237,175,110923,6,0,P|306:163|362:162,1,90,2|2,3:2|3:2,0:0:0:0:
172,346,111241,2,0,P|121:320|112:275,1,90,8|0,0:2|0:0,0:0:0:0:
182,112,111558,5,2,3:2:0:0:
258,308,111717,1,2,3:2:0:0:
344,99,111876,2,0,P|353:40|364:-1,1,90,8|0,0:2|3:2,0:0:0:0:
347,365,112193,5,2,0:0:0:0:
347,365,112352,1,2,3:2:0:0:
246,212,112511,5,8,0:0:0:0:
246,212,112670,1,0,0:0:0:0:
323,132,112828,5,2,3:2:0:0:
256,337,112987,1,2,3:2:0:0:
156,157,113146,2,0,P|97:170|63:179,1,90,8|0,0:2|3:0,0:0:0:0:
46,217,113384,1,0,3:0:0:0:
46,217,113463,5,8,0:0:0:0:
131,32,113622,1,0,3:0:0:0:
244,206,113781,5,8,0:0:0:0:
148,6,113939,1,0,3:0:0:0:
10,240,114098,6,0,B|-13:198|-13:198|23:128,1,90,8|0,0:0|3:0,0:0:0:0:
327,166,114416,2,0,B|350:208|350:208|314:278,1,90,8|0,0:0|3:0,0:0:0:0:
138,254,114733,5,8,2:0:0:0:
279,82,114892,1,8,0:0:0:0:
444,226,115050,1,8,0:0:0:0:
311,354,115209,5,8,0:0:0:0:
311,354,115289,1,8,0:0:0:0:
311,354,115368,1,8,0:0:0:0:
395,365,115527,2,0,P|444:355|459:353,2,45,8|8|8,0:0|0:0|0:0,0:0:0:0:
420,199,115844,1,8,0:0:0:0:
420,199,115923,1,8,0:0:0:0:
420,199,116003,6,0,P|411:133|402:40,1,135.000005149842,4|0,3:2|3:2,0:0:0:0:
185,169,116638,2,0,P|178:237|169:304,1,135.000005149842,0|0,3:2|3:2,0:0:0:0:
41,349,117114,1,0,0:0:0:0:
41,349,117193,1,0,0:0:0:0:
41,349,117273,6,0,P|31:297|26:269,1,67.5000025749208,0|0,3:2|0:0,0:0:0:0:
0,192,117590,2,0,P|10:140|15:112,1,67.5000025749208,0|0,3:2|0:0,0:0:0:0:
40,105,117828,1,0,0:0:0:0:
40,105,117908,2,0,P|83:89|114:94,1,67.5000025749208,0|0,3:2|0:0,0:0:0:0:
184,183,118225,2,0,P|141:199|110:194,1,67.5000025749208,0|0,3:2|0:0,0:0:0:0:
195,365,118543,6,0,B|225:333|252:324|252:324|280:333|328:309,1,135.000005149842,4|0,3:2|3:2,0:0:0:0:
411,368,119019,1,0,0:0:0:0:
411,368,119098,1,0,0:0:0:0:
411,368,119177,2,0,P|444:370|478:373,1,67.5000025749208,2|0,3:2|0:0,0:0:0:0:
311,295,119494,1,0,3:2:0:0:
365,210,119654,1,0,0:0:0:0:
365,210,119733,1,0,0:0:0:0:
365,210,119812,6,0,P|425:201|447:196,1,67.5000025749208,0|0,3:2|0:0,0:0:0:0:
266,116,120130,2,0,P|299:122|332:126,1,67.5000025749208,0|0,3:2|0:0,0:0:0:0:
370,103,120368,1,0,0:0:0:0:
370,103,120447,1,0,3:2:0:0:
298,31,120606,1,0,0:0:0:0:
178,121,120765,1,0,3:2:0:0:
85,36,120923,1,0,0:0:0:0:
37,173,121082,6,0,P|53:241|66:330,1,135.000005149842,4|0,3:2|3:2,0:0:0:0:
133,358,121558,1,0,0:0:0:0:
133,358,121638,1,0,0:0:0:0:
133,358,121717,1,0,3:2:0:0:
210,285,121876,2,0,P|252:284|273:281,2,33.7500012874604,0|0|0,0:0|0:0|3:2,0:0:0:0:
282,357,122193,2,0,P|298:357|315:357,2,33.7500012874604,0|0|0,0:0|0:0|3:2,0:0:0:0:
376,244,122511,5,0,0:0:0:0:
376,244,122590,1,0,0:0:0:0:
376,244,122670,1,0,3:2:0:0:
446,326,122828,1,0,0:0:0:0:
446,326,122908,1,0,0:0:0:0:
446,326,122987,1,0,3:2:0:0:
498,224,123146,2,0,L|508:180,2,33.7500012874604,0|0|0,0:0|0:0|3:2,0:0:0:0:
436,104,123463,1,0,0:0:0:0:
436,104,123543,1,0,0:0:0:0:
436,104,123622,6,0,P|403:59|326:54,1,135.000005149842,4|0,3:2|3:2,0:0:0:0:
256,103,124098,1,0,0:0:0:0:
212,26,124257,2,0,P|146:13|126:11,1,67.5000025749208,0|0,3:2|0:0,0:0:0:0:
105,118,124574,2,0,P|78:86|45:56,1,67.5000025749208,0|0,3:2|0:0,0:0:0:0:
21,46,124812,1,0,0:0:0:0:
21,46,124892,5,2,3:2:0:0:
4,131,125050,1,0,0:0:0:0:
57,209,125209,1,2,3:2:0:0:
10,291,125368,1,0,0:0:0:0:
163,214,125527,5,2,3:2:0:0:
163,214,125685,1,0,0:0:0:0:
226,335,125844,5,2,3:2:0:0:
179,191,126003,1,2,3:2:0:0:
