osu file format v14

[General]
AudioFilename: audio.mp3
AudioLeadIn: 0
PreviewTime: 144091
Countdown: 0
SampleSet: Soft
StackLeniency: 0.7
Mode: 0
LetterboxInBreaks: 0
WidescreenStoryboard: 1

[Editor]
Bookmarks: 142698,142805,142912,143019,143127,143234,143341,143448,143555,143662,143769,143877,143984,144091,144198,144305,144412,144519,144627,144734,144841,144948,145055,145162,145269,145377,145484,145591,145698,145805,145912,146019,146127,146234,146341,146448,146555,146662,146769,146877,146984,147091,147198,147305,147412,147519,147627,147734,147841,147948,148055,148162,148269,148377,148484,148591,148698,148805,148912,149019,149127,149234,149341,149448,149555,163269
DistanceSpacing: 0.66
BeatDivisor: 5
GridSize: 8
TimelineZoom: 2.2

[Metadata]
Title:Ni**as in Paris
TitleUnicode:Ni**as in Paris
Artist:Jay-Z & Kanye West
ArtistUnicode:Jay-Z & Kanye West
Creator:Myahkey
Version:Insane
Source:
Tags:1103 fellas watch the throne no equal jayz yeezy hip hop hip-hop rap english hit-boy mike dean anthony kilhoffer blades of glory will ferrell puff daddy victory niggas
BeatmapID:3166835
BeatmapSetID:1547973

[Difficulty]
HPDrainRate:5.5
CircleSize:3.8
OverallDifficulty:7
ApproachRate:8.4
SliderMultiplier:1.9
SliderTickRate:1

[Events]
//Background and Video events
0,0,"288027.jpg",0,0
//Break Periods
2,89765,90589
2,93193,94018
2,96622,97447
2,100050,100875
2,142708,148875
//Storyboard Layer 0 (Background)
//Storyboard Layer 1 (Fail)
//Storyboard Layer 2 (Pass)
//Storyboard Layer 3 (Foreground)
//Storyboard Layer 4 (Overlay)
//Storyboard Sound Samples

[TimingPoints]
2137,428.571428571429,4,2,1,50,1,0
5565,-133.333333333333,4,2,1,60,0,0
16708,-133.333333333333,4,2,1,65,0,0
17565,-133.333333333333,4,2,1,70,0,0
18422,-133.333333333333,4,2,1,75,0,0
19279,-133.333333333333,4,2,1,70,0,0
20887,-133.333333333333,4,2,1,5,0,0
20994,-133.333333333333,4,2,1,70,0,0
22601,-133.333333333333,4,2,1,5,0,0
22708,-133.333333333333,4,2,1,70,0,0
31279,-133.333333333333,4,2,1,75,0,0
32994,-100,4,2,1,80,0,0
33851,-133.333333333333,4,2,2,80,0,0
34279,-100,4,2,2,80,0,0
34601,-100,4,2,2,5,0,0
34708,-133.333333333333,4,2,2,80,0,0
35137,-100,4,2,2,80,0,0
35458,-100,4,2,2,5,0,0
35565,-100,4,2,2,80,0,0
36422,-100,4,2,1,80,0,0
37279,-100,4,2,2,80,0,0
38029,-100,4,2,2,5,0,0
38137,-133.333333333333,4,2,2,80,0,0
38565,-100,4,2,2,80,0,0
38887,-100,4,2,2,5,0,0
38994,-100,4,2,2,80,0,0
40708,-133.333333333333,4,2,2,80,0,0
41137,-100,4,2,2,80,0,0
42315,-100,4,2,2,5,0,0
42422,-100,4,2,2,80,0,0
44887,-100,4,2,2,5,0,0
44994,-133.333333333333,4,2,2,80,0,0
45851,-100,4,2,2,80,0,0
46708,-100,4,2,1,80,0,0
47351,-133.333333333333,4,2,1,80,0,0
47565,-133.333333333333,4,2,2,80,0,0
47994,-100,4,2,2,80,0,0
48315,-100,4,2,2,5,0,0
48422,-100,4,2,2,80,0,0
51744,-100,4,2,2,5,0,0
51851,-133.333333333333,4,2,2,80,0,0
52279,-100,4,2,2,80,0,0
52601,-100,4,2,2,5,0,0
52708,-100,4,2,2,80,0,0
53565,-100,4,2,1,80,0,0
53994,-133.333333333333,4,2,1,80,0,0
54422,-133.333333333333,4,2,2,80,0,0
54851,-100,4,2,2,80,0,0
55172,-100,4,2,2,5,0,0
55279,-133.333333333333,4,2,2,80,0,0
55708,-100,4,2,2,80,0,0
56137,-100,4,2,2,80,0,0
58601,-100,4,2,2,5,0,0
58708,-133.333333333333,4,2,2,80,0,0
59137,-100,4,2,2,80,0,0
60422,-133.333333333333,4,2,1,70,0,0
72422,-133.333333333333,4,2,1,75,0,0
74137,-100,4,2,1,80,0,0
74994,-100,4,2,2,80,0,0
75744,-100,4,2,2,5,0,0
75851,-133.333333333333,4,2,2,80,0,0
76494,-80,4,2,2,80,0,0
77565,-100,4,2,2,80,0,0
78208,-80,4,2,2,80,0,0
79279,-100,4,2,2,80,0,0
80137,-80,4,2,2,80,0,0
80994,-100,4,2,1,80,0,0
81851,-100,4,2,2,80,0,0
82601,-100,4,2,2,5,0,0
82708,-133.333333333333,4,2,2,80,0,0
83351,-80,4,2,2,80,0,0
84422,-100,4,2,2,80,0,0
85065,-80,4,2,2,80,0,0
86137,-100,4,2,2,80,0,0
86994,-100,4,2,2,45,0,0
87851,-133.333333333333,4,2,2,75,0,0
88601,-133.333333333333,4,2,2,5,0,0
88708,-133.333333333333,4,2,2,75,0,0
89994,-133.333333333333,4,2,2,65,0,0
91279,-133.333333333333,4,2,2,75,0,0
93422,-133.333333333333,4,2,2,65,0,0
94708,-133.333333333333,4,2,2,75,0,0
96851,-133.333333333333,4,2,2,65,0,0
98137,-133.333333333333,4,2,2,75,0,0
100279,-133.333333333333,4,2,2,65,0,0
101565,-133.333333333333,4,2,1,70,0,0
103279,-133.333333333333,4,2,1,45,0,0
104137,-133.333333333333,4,2,1,70,0,0
106708,-133.333333333333,4,2,1,45,0,0
107565,-133.333333333333,4,2,1,70,0,0
110137,-133.333333333333,4,2,1,45,0,0
110994,-133.333333333333,4,2,1,70,0,0
112708,-133.333333333333,4,2,1,75,0,0
115279,-100,4,2,1,80,0,0
115708,-133.333333333333,4,2,1,80,0,0
116137,-133.333333333333,4,2,2,80,0,0
116565,-100,4,2,2,80,0,0
116887,-100,4,2,2,5,0,0
116994,-100,4,2,2,80,0,0
119137,-100,4,2,2,80,0,0
119779,-100,4,2,2,80,0,0
120315,-100,4,2,2,5,0,0
120422,-100,4,2,2,80,0,0
122565,-133.333333333333,4,2,2,80,0,0
123422,-100,4,2,2,80,0,0
123744,-100,4,2,2,5,0,0
123851,-100,4,2,2,80,0,0
124601,-100,4,2,2,5,0,0
124708,-100,4,2,2,80,0,0
135851,-100,4,2,2,85,0,0
149565,-100,4,2,2,70,0,0
156422,-100,4,2,2,75,0,0
159851,-100,4,2,2,60,0,0
163279,-500,4,2,3,90,0,0
164029,-500,4,2,3,5,0,0
164137,-71.4285714285714,4,2,3,90,0,1
164458,-71.4285714285714,4,2,3,5,0,0
164565,-500,4,2,3,90,0,0
165315,-500,4,2,3,5,0,0
165422,-500,4,2,3,90,0,0
165743,-500,4,2,3,5,0,0
165851,-71.4285714285714,4,2,3,90,0,1
166494,-71.4285714285714,4,2,3,90,0,0
166708,-500,4,2,3,90,0,0
167243,-500,4,2,3,5,0,0
167351,-500,4,2,3,90,0,0
167565,-71.4285714285714,4,2,3,90,0,1
167887,-71.4285714285714,4,2,3,5,0,0
167994,-500,4,2,3,90,0,0
168744,-500,4,2,3,5,0,0
168851,-500,4,2,3,90,0,0
169172,-500,4,2,3,5,0,0
169279,-71.4285714285714,4,2,3,90,0,1
169708,-71.4285714285714,4,2,3,90,0,0
170137,-500,4,2,3,90,0,0
170887,-500,4,2,3,5,0,0
170994,-71.4285714285714,4,2,3,90,0,1
171315,-71.4285714285714,4,2,3,5,0,0
171422,-500,4,2,3,90,0,0
172172,-500,4,2,3,5,0,0
172279,-500,4,2,3,90,0,0
172600,-500,4,2,3,5,0,0
172708,-71.4285714285714,4,2,3,90,0,1
173351,-71.4285714285714,4,2,3,90,0,0
173565,-500,4,2,3,90,0,0
174100,-500,4,2,3,5,0,0
174208,-500,4,2,3,90,0,0
174422,-71.4285714285714,4,2,3,90,0,1
174744,-71.4285714285714,4,2,3,5,0,0
174851,-500,4,2,3,90,0,0
175601,-500,4,2,3,5,0,0
175708,-500,4,2,3,90,0,0
176029,-500,4,2,3,5,0,0
176137,-71.4285714285714,4,2,3,90,0,1
176565,-71.4285714285714,4,2,3,90,0,0
176994,-500,4,2,3,90,0,0
177851,-71.4285714285714,4,2,3,90,0,1
178172,-71.4285714285714,4,2,3,5,0,1
178279,-500,4,2,3,90,0,0
179565,-71.4285714285714,4,2,3,90,0,1
180208,-71.4285714285714,4,2,3,90,0,0
180422,-500,4,2,3,90,0,0
181279,-71.4285714285714,4,2,3,90,0,1
181601,-71.4285714285714,4,2,3,5,0,1
181708,-500,4,2,3,90,0,0
182994,-71.4285714285714,4,2,3,90,0,1
183422,-71.4285714285714,4,2,3,90,0,0
183851,-500,4,2,3,90,0,0
184708,-71.4285714285714,4,2,3,90,0,1
185029,-71.4285714285714,4,2,3,5,0,1
185137,-500,4,2,3,90,0,0
186422,-71.4285714285714,4,2,3,90,0,1
186744,-71.4285714285714,4,2,3,5,0,1
186851,-100,4,2,3,90,0,0
187279,-500,4,2,3,90,0,0
188137,-71.4285714285714,4,2,3,90,0,1
188458,-71.4285714285714,4,2,3,5,0,1
188565,-500,4,2,3,90,0,0
189422,-500,4,2,3,90,0,0
189851,-71.4285714285714,4,2,3,90,0,1
190279,-71.4285714285714,4,2,3,90,0,0
190708,-500,4,2,3,90,0,0
191565,-71.4285714285714,4,2,3,90,0,1
191887,-71.4285714285714,4,2,3,5,0,1
191994,-500,4,2,3,90,0,0
193279,-71.4285714285714,4,2,3,90,0,1
193922,-71.4285714285714,4,2,3,90,0,0
194137,-500,4,2,3,90,0,0
194994,-71.4285714285714,4,2,3,90,0,1
195315,-71.4285714285714,4,2,3,5,0,1
195422,-71.4285714285714,4,2,3,90,0,0
195851,-500,4,2,3,90,0,0
196708,-71.4285714285714,4,2,3,90,0,1
197137,-71.4285714285714,4,2,3,90,0,0
197565,-500,4,2,3,90,0,0
198422,-71.4285714285714,4,2,3,90,0,1
198744,-71.4285714285714,4,2,3,5,0,1
198851,-71.4285714285714,4,2,3,90,0,0
199279,-250,4,2,3,90,0,0
200137,-71.4285714285714,4,2,3,90,0,1
200779,-71.4285714285714,4,2,3,90,0,0
200994,-500,4,2,3,90,0,0
201851,-71.4285714285714,4,2,3,90,0,1
202172,-71.4285714285714,4,2,3,5,0,1
202279,-71.4285714285714,4,2,3,90,0,0
203565,-71.4285714285714,4,2,3,90,0,1
204208,-71.4285714285714,4,2,3,90,0,0
204422,-500,4,2,3,90,0,0
205279,-71.4285714285714,4,2,3,90,0,1
205601,-71.4285714285714,4,2,3,5,0,1
205708,-71.4285714285714,4,2,3,90,0,0
206137,-500,4,2,3,90,0,0
206994,-71.4285714285714,4,2,3,90,0,1
207637,-71.4285714285714,4,2,3,90,0,0
207851,-500,4,2,3,90,0,0
208708,-71.4285714285714,4,2,3,90,0,1
209029,-71.4285714285714,4,2,3,5,0,1
209137,-71.4285714285714,4,2,3,90,0,0
210422,-71.4285714285714,4,2,3,90,0,1
210637,-71.4285714285714,4,2,3,90,0,0
212137,-71.4285714285714,4,2,3,90,0,1
212458,-71.4285714285714,4,2,3,90,0,0
213851,-71.4285714285714,4,2,3,90,0,1
214494,-71.4285714285714,4,2,3,90,0,0
215565,-71.4285714285714,4,2,3,90,0,1
215887,-71.4285714285714,4,2,3,90,0,0
217279,-71.4285714285714,4,2,3,90,0,1
217922,-71.4285714285714,4,2,3,90,0,0

[Colours]
Combo1 : 243,213,110
Combo2 : 128,0,255
Combo3 : 238,183,83
Combo4 : 69,42,164

[HitObjects]
151,238,2137,5,8,0:0:0:0:
137,203,2994,5,8,0:0:0:0:
433,264,3851,5,8,0:0:0:0:
409,296,4708,5,8,0:0:0:0:
462,139,5565,6,0,P|417:156|370:167,1,71.2500027179719,10|2,0:0|0:0,0:0:0:0:
327,117,5994,1,8,0:0:0:0:
48,229,6422,6,0,P|91:243|149:255,1,71.2500027179719,10|2,0:0|0:0,0:0:0:0:
182,200,6851,1,8,0:0:0:0:
467,305,7279,5,10,0:0:0:0:
438,315,7494,1,2,0:0:0:0:
409,327,7708,1,8,0:0:0:0:
237,99,8137,5,10,0:0:0:0:
263,192,8351,1,2,0:0:0:0:
290,283,8565,1,10,0:0:0:0:
345,40,8994,6,0,P|333:86|325:141,1,71.2500027179719,10|2,0:0|0:0,0:0:0:0:
382,170,9422,1,8,0:0:0:0:
166,0,9851,6,0,P|178:46|187:99,1,71.2500027179719,10|2,0:0|0:0,0:0:0:0:
131,131,10279,1,8,0:0:0:0:
407,110,10708,5,10,0:0:0:0:
376,101,10923,1,2,0:0:0:0:
346,92,11137,1,8,0:0:0:0:
137,277,11565,5,10,0:0:0:0:
228,250,11779,1,2,0:0:0:0:
321,224,11993,1,10,0:0:0:0:
49,300,12422,6,0,P|39:256|5:219,1,71.2500027179719,10|2,0:0|0:0,0:0:0:0:
45,161,12851,1,8,0:0:0:0:
256,338,13279,6,0,P|273:300|314:263,1,71.2500027179719,10|2,0:0|0:0,0:0:0:0:
284,201,13708,1,8,0:0:0:0:
132,380,14137,5,10,0:0:0:0:
140,351,14351,1,2,0:0:0:0:
148,321,14565,1,8,0:0:0:0:
423,245,14994,5,10,0:0:0:0:
255,194,15208,1,2,0:0:0:0:
112,141,15422,1,10,0:0:0:0:
446,22,15851,5,10,0:0:0:0:
457,49,16065,1,2,0:0:0:0:
426,45,16279,1,8,0:0:0:0:
347,114,16708,5,10,0:0:0:0:
340,139,16922,1,2,0:0:0:0:
363,135,17137,1,8,0:0:0:0:
449,247,17565,5,10,0:0:0:0:
457,266,17779,1,2,0:0:0:0:
439,261,17994,1,8,0:0:0:0:
233,214,18422,5,10,0:0:0:0:
233,205,18637,1,2,0:0:0:0:
233,214,18851,1,10,0:0:0:0:
30,39,19279,6,0,P|64:44|106:53,1,71.2500027179719,10|2,0:0|0:0,0:0:0:0:
255,74,19708,1,8,0:0:0:0:
174,142,19922,5,0,0:0:0:0:
166,169,20029,1,0,0:0:0:0:
160,197,20137,1,10,0:0:0:0:
155,225,20244,1,0,0:0:0:0:
150,253,20351,2,0,P|173:247|205:242,1,35.625001358986,2|0,0:0|0:0,0:0:0:0:
251,301,20565,2,0,P|302:308|358:322,1,106.875004076958,8|0,0:0|0:0,0:0:0:0:
368,343,20994,5,10,0:0:0:0:
489,373,21208,1,2,0:0:0:0:
512,253,21422,1,8,0:0:0:0:
512,253,21637,1,0,0:0:0:0:
387,234,21851,5,10,0:0:0:0:
381,210,21958,1,0,0:0:0:0:
376,181,22065,1,2,0:0:0:0:
370,153,22172,1,0,0:0:0:0:
364,125,22279,2,0,P|373:73|392:12,1,106.875004076958,10|0,0:0|0:0,0:0:0:0:
414,17,22708,5,10,0:0:0:0:
501,78,22922,1,2,0:0:0:0:
484,183,23137,1,8,0:0:0:0:
381,210,23351,1,0,0:0:0:0:
381,210,23565,2,0,L|393:263,1,35.625001358986,10|0,0:0|0:0,0:0:0:0:
313,279,23779,2,0,L|306:326,1,35.625001358986,2|0,0:0|0:0,0:0:0:0:
232,364,23994,1,8,0:0:0:0:
76,298,24208,5,0,0:0:0:0:
76,298,24315,1,0,0:0:0:0:
76,298,24422,2,0,P|110:302|167:315,2,71.2500027179719,10|2|8,0:0|0:0|0:0,0:0:0:0:
17,207,25065,5,0,0:0:0:0:
17,207,25172,1,0,0:0:0:0:
17,207,25279,1,10,0:0:0:0:
81,110,25494,1,2,0:0:0:0:
81,110,25708,2,0,P|116:100|162:90,1,71.2500027179719,10|0,0:0|0:0,0:0:0:0:
309,183,26137,6,0,P|274:176|224:170,2,71.2500027179719,10|2|8,0:0|0:0|0:0,0:0:0:0:
395,275,26779,1,0,0:0:0:0:
416,152,26994,1,10,0:0:0:0:
441,26,27208,1,2,0:0:0:0:
494,108,27422,1,8,0:0:0:0:
494,108,27851,2,0,P|458:113|418:124,1,71.2500027179719,10|2,0:0|0:0,0:0:0:0:
293,83,28279,2,0,P|255:87|214:96,1,71.2500027179719,8|0,0:0|0:0,0:0:0:0:
138,164,28708,5,10,0:0:0:0:
233,201,28922,1,2,0:0:0:0:
223,94,29137,1,10,0:0:0:0:
290,330,29565,6,0,P|255:322|197:315,1,71.2500027179719,10|2,0:0|0:0,0:0:0:0:
141,373,29994,1,8,0:0:0:0:
141,373,30422,1,10,0:0:0:0:
53,313,30637,1,2,0:0:0:0:
53,313,30744,1,0,0:0:0:0:
53,313,30851,1,8,0:0:0:0:
143,247,31065,5,0,0:0:0:0:
143,247,31172,1,0,0:0:0:0:
143,247,31279,2,0,P|151:208|158:162,1,71.2500027179719,10|2,0:0|0:0,0:0:0:0:
130,147,31601,1,0,0:0:0:0:
42,83,31815,2,0,L|56:36,1,35.625001358986,0|2,0:0|0:0,0:0:0:0:
201,47,32137,5,10,0:0:0:0:
337,59,32351,1,2,0:0:0:0:
478,75,32565,1,10,0:0:0:0:
246,349,32994,6,0,P|257:301|265:232,1,95,10|2,1:2|0:2,0:0:0:0:
237,178,33422,1,8,0:0:0:0:
80,226,33637,1,0,0:0:0:0:
80,226,33851,2,0,L|90:274,2,35.625001358986,10|0|2,0:2|0:0|0:2,0:0:0:0:
0,233,34279,2,0,P|66:203|105:111,1,142.5,0|0,1:0|0:0,0:0:0:0:
122,163,34708,6,0,P|131:121|113:72,1,71.2500027179719,2|2,0:2|0:2,0:0:0:0:
230,326,35137,2,0,P|241:254|194:182,1,142.5,0|0,1:0|0:0,0:0:0:0:
237,196,35565,5,10,0:2:0:0:
361,235,35779,1,2,0:2:0:0:
492,280,35994,1,2,0:2:0:0:
503,277,36422,6,0,P|455:293|408:345,1,95,10|2,1:2|0:2,0:0:0:0:
499,369,36851,1,8,0:0:0:0:
256,314,37065,1,0,1:0:0:0:
256,314,37279,2,0,P|292:293|352:284,1,95,10|2,0:2|0:2,0:0:0:0:
129,375,37708,2,0,P|114:302|46:256,1,142.5,0|0,1:0|0:0,0:0:0:0:
60,222,38137,6,0,P|86:233|103:244,2,35.625001358986,2|0|2,0:2|0:0|0:2,0:0:0:0:
211,86,38565,2,0,L|73:40,1,142.5,0|0,1:0|0:0,0:0:0:0:
101,28,38994,5,10,0:2:0:0:
221,103,39208,1,2,0:2:0:0:
345,172,39422,1,2,0:2:0:0:
366,154,39851,6,0,P|382:109|426:68,1,95,2|2,1:2|0:2,0:0:0:0:
446,63,40601,1,0,0:0:0:0:
446,63,40708,2,0,L|348:48,1,71.2500027179719,10|2,0:2|0:2,0:0:0:0:
488,280,41137,2,0,P|472:235|428:194,1,95,0|0,1:0|0:0,0:0:0:0:
432,209,41458,1,0,0:0:0:0:
424,218,41565,5,2,0:2:0:0:
165,348,41994,2,0,P|205:303|284:288,1,142.5,0|0,1:0|0:0,0:0:0:0:
303,313,42422,5,10,0:2:0:0:
270,174,42637,1,2,0:2:0:0:
234,31,42851,1,2,0:2:0:0:
254,36,43279,6,0,P|218:65|158:83,1,95,2|2,1:2|0:2,0:0:0:0:
94,104,43708,1,0,0:0:0:0:
315,184,43922,2,0,P|278:153|234:138,1,95,0|10,1:0|0:2,0:0:0:0:
161,174,44351,1,2,0:2:0:0:
5,7,44565,2,0,P|23:81|25:179,1,142.5,0|0,1:0|0:0,0:0:0:0:
44,191,44994,2,0,P|64:162|70:127,2,71.2500027179719,2|2|0,0:2|0:2|1:0,0:0:0:0:
55,222,45851,5,10,0:2:0:0:
200,247,46065,1,2,0:2:0:0:
355,271,46279,1,2,0:2:0:0:
371,258,46708,6,0,L|392:333,1,47.5,10|0,1:2|0:0,0:0:0:0:
297,288,46922,2,0,L|311:344,1,47.5,2|0,0:2|0:0,0:0:0:0:
218,313,47137,1,8,0:0:0:0:
106,291,47351,1,0,0:0:0:0:
106,291,47458,1,0,0:0:0:0:
106,291,47565,2,0,L|149:225,1,71.2500027179719,10|2,0:2|0:2,0:0:0:0:
93,60,47994,2,0,P|76:130|0:154,1,142.5,0|0,1:0|0:0,0:0:0:0:
41,179,48422,5,2,0:2:0:0:
144,231,48637,1,2,0:2:0:0:
209,26,48851,2,0,L|224:150,1,95,0|0,1:0|0:0,0:0:0:0:
244,137,49172,1,0,0:0:0:0:
244,137,49279,5,10,0:2:0:0:
366,183,49494,1,2,0:2:0:0:
509,234,49708,1,2,0:2:0:0:
509,234,50137,5,2,1:2:0:0:
430,147,50351,1,2,0:2:0:0:
430,147,50458,1,0,0:0:0:0:
430,147,50565,1,0,0:0:0:0:
323,263,50779,2,0,P|306:221|258:183,1,95,0|10,1:0|0:2,0:0:0:0:
207,283,51208,1,2,0:2:0:0:
392,373,51422,2,0,L|415:226,1,142.5,0|0,1:0|0:0,0:0:0:0:
452,217,51851,6,0,L|444:269,2,35.625001358986,2|0|2,0:2|0:0|0:2,0:0:0:0:
234,264,52279,2,0,L|82:306,1,142.5,0|0,1:0|0:0,0:0:0:0:
114,317,52708,5,10,0:2:0:0:
142,168,52922,1,2,0:2:0:0:
168,21,53137,1,2,0:2:0:0:
49,59,53351,1,0,0:0:0:0:
49,59,53565,6,0,L|119:50,1,47.5,10|0,1:2|0:0,0:0:0:0:
189,97,53779,2,0,L|252:90,1,47.5,2|0,0:2|0:0,0:0:0:0:
334,29,53994,1,8,0:2:0:0:
408,77,54208,1,0,0:0:0:0:
374,218,54422,2,0,L|360:142,1,71.2500027179719,10|2,0:2|0:2,0:0:0:0:
256,384,54851,2,0,P|240:313|160:285,1,142.5,0|0,1:0|0:0,0:0:0:0:
208,255,55279,6,0,L|253:277,2,35.625001358986,2|0|2,0:2|0:0|0:2,0:0:0:0:
0,363,55708,2,0,P|10:289|32:215,1,142.5,0|0,1:0|0:0,0:0:0:0:
1,194,56137,5,10,0:2:0:0:
173,261,56351,1,2,0:2:0:0:
360,331,56565,1,2,0:2:0:0:
343,351,56994,6,0,P|346:305|365:244,1,95,2|2,1:2|0:2,0:0:0:0:
429,193,57422,1,0,0:0:0:0:
258,163,57637,2,0,P|304:145|369:141,1,95,0|10,1:0|0:2,0:0:0:0:
436,187,58065,1,2,0:2:0:0:
271,29,58279,2,0,P|340:40|429:72,1,142.5,0|0,1:0|0:0,0:0:0:0:
437,36,58708,6,0,L|389:10,2,35.625001358986,2|0|2,0:2|0:0|0:2,0:0:0:0:
258,163,59137,2,0,P|212:181|147:185,1,95,0|0,1:0|0:0,0:0:0:0:
118,27,59565,5,10,0:2:0:0:
147,195,59779,1,2,0:2:0:0:
168,375,59994,1,2,0:2:0:0:
83,339,60208,1,0,0:0:0:0:
161,286,60422,6,0,L|254:305,1,71.2500027179719,10|2,0:0|0:0,0:0:0:0:
295,240,60851,1,8,0:0:0:0:
300,213,61279,5,10,0:0:0:0:
305,184,61708,1,8,0:0:0:0:
403,147,62137,2,0,L|394:192,4,35.625001358986,10|0|2|0|8,0:0|0:0|0:0|0:0|0:0,0:0:0:0:
247,92,62994,5,10,0:0:0:0:
293,178,63208,1,2,0:0:0:0:
344,260,63422,1,10,0:0:0:0:
336,287,63851,6,0,B|294:292|318:307|256:310,1,71.2500027179719,10|2,0:0|0:0,0:0:0:0:
198,261,64279,1,8,0:0:0:0:
512,121,64708,6,0,B|470:116|494:101|433:94,1,71.2500027179719,10|2,0:0|0:0,0:0:0:0:
374,144,65136,1,8,0:0:0:0:
80,76,65565,6,0,B|122:81|98:96|160:99,1,71.2500027179719,10|2,0:0|0:0,0:0:0:0:
203,176,65994,1,8,0:0:0:0:
230,23,66208,1,0,0:0:0:0:
234,27,66315,1,0,0:0:0:0:
238,31,66422,5,10,0:0:0:0:
200,163,66637,1,2,0:0:0:0:
162,294,66851,1,10,0:0:0:0:
257,247,67065,1,0,0:0:0:0:
66,344,67279,6,0,L|46:248,1,71.2500027179719,10|2,0:0|0:0,0:0:0:0:
109,199,67708,1,8,0:0:0:0:
23,60,67922,1,0,0:0:0:0:
101,19,68137,1,10,0:0:0:0:
213,69,68351,2,0,L|293:33,1,71.2500027179719,2|8,0:0|0:0,0:0:0:0:
236,80,68994,6,0,L|156:44,1,71.2500027179719,10|2,0:0|0:0,0:0:0:0:
101,103,69422,1,8,0:0:0:0:
157,169,69637,1,0,0:0:0:0:
241,165,69851,5,10,0:0:0:0:
115,246,70065,1,2,0:0:0:0:
0,309,70279,1,10,0:0:0:0:
23,336,70708,6,0,B|65:341|41:356|103:359,1,71.2500027179719,10|2,0:0|0:0,0:0:0:0:
158,293,71137,1,8,0:0:0:0:
512,210,71565,6,0,B|470:215|494:230|432:233,1,71.2500027179719,10|2,0:0|0:0,0:0:0:0:
375,171,71994,1,8,0:0:0:0:
144,52,72422,5,10,0:0:0:0:
132,36,72529,1,0,0:0:0:0:
123,21,72637,1,2,0:0:0:0:
114,10,72744,1,0,0:0:0:0:
107,0,72851,1,8,0:0:0:0:
303,324,73279,5,10,0:0:0:0:
335,184,73494,1,2,0:0:0:0:
377,37,73708,1,10,0:0:0:0:
391,55,74137,6,0,P|416:41|458:34,1,47.5,10|0,1:2|0:0,0:0:0:0:
508,137,74351,2,0,P|485:126|453:122,1,47.5,2|0,0:2|0:0,0:0:0:0:
499,231,74565,1,8,0:0:0:0:
512,217,74779,5,0,0:0:0:0:
483,235,74887,1,0,0:0:0:0:
450,241,74994,1,10,0:2:0:0:
418,231,75101,1,0,0:0:0:0:
391,210,75208,1,2,0:2:0:0:
359,200,75315,1,0,0:0:0:0:
326,205,75422,2,0,P|256:260|234:345,1,142.5,0|0,1:0|0:0,0:0:0:0:
211,295,75851,6,0,L|219:258,1,35.625001358986,2|0,0:2|0:0,0:0:0:0:
142,358,76065,2,0,L|128:308,1,35.625001358986,2|0,0:2|0:0,0:0:0:0:
58,285,76279,1,0,1:0:0:0:
41,261,76494,6,0,P|50:229|76:196,1,59.375
16,130,76708,2,0,P|36:106|73:87,1,59.375,10|0,0:2|0:0,0:0:0:0:
123,18,76922,2,0,P|151:5|210:2,1,59.375,2|0,0:2|0:0,0:0:0:0:
313,1,77137,1,2,0:2:0:0:
330,13,77565,6,0,L|315:124,1,95,2|2,1:2|0:2,0:0:0:0:
303,125,78208,2,0,P|277:107|242:98,1,59.375,0|0,1:0|0:0,0:0:0:0:
207,167,78422,2,0,P|178:157|138:158,1,59.375,10|0,0:2|0:0,0:0:0:0:
127,250,78637,2,0,P|97:249|50:272,1,59.375,2|0,0:2|0:0,0:0:0:0:
36,358,78851,1,0,1:0:0:0:
53,342,79279,6,0,L|159:357,1,95,2|2,0:2|0:2,0:0:0:0:
260,278,79708,1,0,1:0:0:0:
247,265,80137,6,0,L|162:251,1,59.375,10|0,0:2|0:0,0:0:0:0:
351,213,80351,2,0,L|385:147,1,59.375,2|0,0:2|0:0,0:0:0:0:
347,326,80565,2,0,L|376:378,1,59.375,2|0,0:2|0:0,0:0:0:0:
450,263,80779,1,0,0:0:0:0:
470,243,80994,6,0,P|491:229|525:221,1,47.5,10|0,1:2|0:0,0:0:0:0:
373,138,81208,2,0,P|352:124|318:116,1,47.5,2|0,0:2|0:0,0:0:0:0:
494,32,81422,1,8,0:2:0:0:
496,53,81637,5,0,0:0:0:0:
465,34,81744,1,0,0:0:0:0:
430,42,81851,1,10,0:2:0:0:
407,69,81958,1,0,0:0:0:0:
398,103,82065,1,2,0:2:0:0:
376,131,82172,1,0,0:0:0:0:
342,141,82279,2,0,P|286:135|248:50,1,142.5,0|0,1:0|0:0,0:0:0:0:
211,42,82708,6,0,L|215:98,1,35.625001358986,2|0,0:2|0:0,0:0:0:0:
125,21,82922,2,0,L|130:72,1,35.625001358986,2|0,0:2|0:0,0:0:0:0:
36,0,83137,1,0,1:0:0:0:
47,0,83351,6,0,P|43:32|26:59,1,59.375
132,75,83565,2,0,P|116:103|91:122,1,59.375,10|0,0:2|0:0,0:0:0:0:
180,185,83779,2,0,P|154:204|122:210,1,59.375,2|0,0:2|0:0,0:0:0:0:
164,298,83994,1,2,0:2:0:0:
186,309,84422,6,0,L|294:267,1,95,2|2,1:2|0:2,0:0:0:0:
304,282,85065,6,0,P|328:303|338:346,1,59.375,0|0,1:0|0:0,0:0:0:0:
382,200,85279,2,0,P|397:227|392:271,1,59.375,10|0,0:2|0:0,0:0:0:0:
494,235,85494,2,0,P|498:266|478:305,1,59.375,2|0,0:2|0:0,0:0:0:0:
423,345,85708,1,0,1:0:0:0:
419,329,86137,6,0,L|381:213,1,95,2|2,0:2|0:2,0:0:0:0:
319,183,86565,1,0,1:0:0:0:
255,366,86994,5,0,0:2:0:0:
255,366,87208,1,0,0:2:0:0:
255,366,87422,1,0,0:2:0:0:
321,0,87851,5,2,1:2:0:0:
379,66,88065,1,2,0:2:0:0:
379,66,88279,2,0,L|503:84,1,106.875004076958
512,118,88708,6,0,L|419:106,1,71.2500027179719,10|2,0:2|0:2,0:0:0:0:
378,167,89137,2,0,L|298:158,1,71.2500027179719,0|0,1:0|0:0,0:0:0:0:
240,212,89565,1,2,0:2:0:0:
196,59,91279,5,2,1:2:0:0:
138,125,91493,2,0,L|57:137,1,71.2500027179719,2|0,0:2|0:0,0:0:0:0:
9,226,91922,1,0,1:0:0:0:
9,226,92136,6,0,L|102:214,1,71.2500027179719,10|2,0:2|0:2,0:0:0:0:
144,266,92565,2,0,L|224:257,1,71.2500027179719,0|0,1:0|0:0,0:0:0:0:
289,300,92993,1,2,0:2:0:0:
193,384,94708,5,2,1:2:0:0:
203,358,94922,1,2,0:2:0:0:
152,289,95137,2,0,L|128:210,1,71.2500027179719
187,158,95565,2,0,L|166:67,1,71.2500027179719,10|2,0:2|0:2,0:0:0:0:
226,27,95994,1,0,1:0:0:0:
244,21,96208,1,0,0:0:0:0:
311,84,96422,1,2,0:2:0:0:
512,251,98137,5,2,1:2:0:0:
477,179,98351,2,0,L|402:165,1,71.2500027179719,2|0,0:2|0:0,0:0:0:0:
331,215,98779,1,0,1:0:0:0:
331,215,98994,2,0,L|244:196,1,71.2500027179719,10|2,0:2|0:2,0:0:0:0:
223,124,99422,2,0,L|142:105,2,71.2500027179719,0|0|2,1:0|0:0|0:2,0:0:0:0:
269,370,101565,5,10,0:0:0:0:
209,307,101779,1,2,0:0:0:0:
44,358,101994,1,8,0:0:0:0:
64,338,102422,6,0,P|69:299|55:266,1,71.2500027179719,10|2,0:0|0:0,0:0:0:0:
0,213,102851,1,8,0:0:0:0:
79,323,103279,6,0,P|84:287|65:255,1,71.2500027179719,10|2,0:0|0:0,0:0:0:0:
14,196,103708,1,8,0:0:0:0:
33,176,104137,5,10,0:0:0:0:
181,192,104351,1,2,0:0:0:0:
334,208,104565,1,10,0:0:0:0:
286,107,104779,1,0,0:0:0:0:
267,287,104994,5,10,0:0:0:0:
368,212,105208,1,2,0:0:0:0:
501,310,105422,1,8,0:0:0:0:
483,288,105851,6,0,P|491:249|529:222,1,71.2500027179719,10|2,0:0|0:0,0:0:0:0:
451,123,106279,2,0,L|458:84,2,35.625001358986,8|0|0,0:0|0:0|0:0,0:0:0:0:
470,268,106708,6,0,P|478:229|516:202,1,71.2500027179719,10|2,0:0|0:0,0:0:0:0:
443,107,107136,2,0,L|450:68,2,35.625001358986,8|0|0,0:0|0:0|0:0,0:0:0:0:
483,42,107565,5,10,0:0:0:0:
338,52,107779,1,2,0:0:0:0:
190,62,107994,1,10,0:0:0:0:
269,3,108208,1,0,0:0:0:0:
231,138,108422,5,10,0:0:0:0:
165,64,108637,1,2,0:0:0:0:
25,146,108851,1,8,0:0:0:0:
82,215,109065,1,0,0:0:0:0:
28,287,109279,5,10,0:0:0:0:
94,347,109494,1,2,0:0:0:0:
173,303,109708,2,0,L|256:311,1,71.2500027179719,8|0,0:0|0:0,0:0:0:0:
13,300,110137,5,10,0:0:0:0:
79,360,110352,1,2,0:0:0:0:
158,316,110566,2,0,L|241:324,1,71.2500027179719,8|0,0:0|0:0,0:0:0:0:
243,306,110994,5,10,0:0:0:0:
266,170,111208,1,2,0:0:0:0:
292,23,111422,1,10,0:0:0:0:
269,1,111851,5,10,0:0:0:0:
335,104,112065,1,2,0:0:0:0:
510,32,112279,1,8,0:0:0:0:
491,16,112708,5,10,0:0:0:0:
382,8,112922,1,2,0:0:0:0:
370,34,113029,1,0,0:0:0:0:
368,62,113137,1,8,0:0:0:0:
373,89,113244,1,0,0:0:0:0:
384,115,113351,1,0,0:0:0:0:
402,136,113458,1,0,0:0:0:0:
426,152,113565,2,0,L|486:173,1,35.625001358986,10|0,0:0|0:0,0:0:0:0:
512,243,113779,5,2,0:0:0:0:
512,243,113887,1,0,0:0:0:0:
512,243,113994,2,0,L|463:258,1,35.625001358986,8|0,0:0|0:0,0:0:0:0:
480,342,114208,2,0,L|530:320,1,35.625001358986
395,275,114422,5,10,0:0:0:0:
203,307,114637,1,2,0:0:0:0:
24,339,114851,1,10,0:0:0:0:
6,324,115279,6,0,P|12:279|50:246,1,95,2|2,1:2|0:2,0:0:0:0:
29,164,115708,2,0,L|117:120,1,71.2500027179719
257,194,116137,1,10,0:2:0:0:
342,243,116351,1,2,0:2:0:0:
439,200,116565,2,0,L|413:45,1,142.5,0|0,1:0|0:0,0:0:0:0:
444,31,116994,5,2,0:2:0:0:
389,108,117208,1,2,0:2:0:0:
177,143,117422,1,0,1:0:0:0:
126,226,117637,1,0,0:0:0:0:
252,357,117851,5,10,0:2:0:0:
271,213,118065,1,2,0:2:0:0:
279,75,118279,1,2,0:2:0:0:
262,55,118708,6,0,P|207:57|167:83,1,95,2|2,1:2|0:0,0:0:0:0:
85,144,119137,1,0,0:0:0:0:
0,10,119351,2,0,P|55:12|97:37,1,95,0|10,1:0|0:0,0:0:0:0:
156,99,119779,1,2,0:2:0:0:
218,277,119994,2,0,L|233:125,1,142.5,0|0,1:0|0:0,0:0:0:0:
254,115,120422,5,2,0:2:0:0:
325,186,120637,1,2,0:2:0:0:
512,140,120851,1,0,1:0:0:0:
500,153,121279,5,10,0:2:0:0:
329,143,121493,1,2,0:2:0:0:
159,130,121707,1,2,0:2:0:0:
136,151,122137,6,0,P|171:185|181:248,1,95,2|2,1:2|0:2,0:0:0:0:
89,295,122565,2,0,L|103:215,1,71.2500027179719
311,294,122994,1,10,0:2:0:0:
239,358,123208,1,2,0:2:0:0:
60,275,123422,2,0,L|87:114,1,142.5,0|0,1:0|0:0,0:0:0:0:
58,114,123851,5,2,0:2:0:0:
130,52,124065,1,2,0:2:0:0:
221,266,124279,2,0,L|194:105,1,142.5,0|0,1:0|0:0,0:0:0:0:
175,133,124708,5,10,0:2:0:0:
340,176,124922,1,2,0:2:0:0:
509,213,125137,1,2,0:2:0:0:
482,195,125565,6,0,P|456:147|450:84,1,95,2|2,1:2|0:2,0:0:0:0:
392,16,125994,1,0,0:0:0:0:
347,204,126208,2,0,L|374:90,1,95,0|10,1:0|0:2,0:0:0:0:
389,24,126637,1,2,0:2:0:0:
238,132,126851,2,0,P|280:97|309:41,1,95,0|0,1:0|0:0,0:0:0:0:
18,228,128779,5,0,0:0:0:0:
41,219,128994,2,0,P|66:183|71:127,1,95,2|2,1:2|0:2,0:0:0:0:
18,73,129422,1,0,0:0:0:0:
164,22,129637,1,0,0:0:0:0:
157,49,129851,1,2,0:2:0:0:
164,84,130065,1,2,0:2:0:0:
269,155,130279,6,0,P|303:122|377:111,1,95,0|0,1:0|0:0,0:0:0:0:
435,153,130708,1,2,0:2:0:0:
430,182,130922,1,2,0:2:0:0:
277,136,131137,2,0,P|298:96|293:19,1,95,0|0,1:0|0:0,0:0:0:0:
280,23,131565,5,2,0:2:0:0:
300,135,131779,1,2,0:2:0:0:
319,266,131994,1,2,0:2:0:0:
336,280,132422,6,0,P|377:301|448:303,1,95,2|2,1:2|0:2,0:0:0:0:
495,249,132851,1,0,0:0:0:0:
319,266,133065,2,0,P|278:245|207:243,1,95,0|2,1:0|0:2,0:0:0:0:
166,306,133494,1,2,0:2:0:0:
301,167,133708,6,0,L|419:147,1,95,0|0,1:0|0:0,0:0:0:0:
465,84,134137,1,2,0:2:0:0:
472,56,134351,1,2,0:2:0:0:
259,92,134565,2,0,L|141:72,1,95,0|0,1:0|0:0,0:0:0:0:
143,34,134994,5,2,0:2:0:0:
127,191,135208,1,2,0:2:0:0:
106,349,135422,1,2,0:2:0:0:
95,321,135637,1,0,0:0:0:0:
163,268,135851,6,0,P|208:250|292:245,1,95,2|2,1:2|0:2,0:0:0:0:
356,280,136279,1,0,0:0:0:0:
432,210,136494,1,0,0:0:0:0:
443,174,136708,1,2,0:2:0:0:
426,138,136922,1,2,0:2:0:0:
237,114,137137,6,0,L|105:93,1,95,0|0,1:0|0:0,0:0:0:0:
94,26,137565,1,2,0:2:0:0:
94,26,137672,1,0,0:0:0:0:
94,26,137779,1,2,0:2:0:0:
284,178,137994,2,0,P|314:134|310:82,1,95,0|0,1:0|0:0,0:0:0:0:
297,74,138422,5,2,0:2:0:0:
266,224,138637,1,2,0:2:0:0:
231,380,138851,1,2,0:2:0:0:
254,348,139065,1,0,0:0:0:0:
109,229,139279,6,0,P|146:201|223:199,1,95,2|2,1:2|0:2,0:0:0:0:
266,224,139708,1,0,0:0:0:0:
339,84,139922,2,0,P|344:130|307:197,1,95,0|2,1:0|0:2,0:0:0:0:
266,224,140351,1,2,0:2:0:0:
357,354,140565,2,0,P|314:335|274:270,1,95,0|0,1:0|0:0,0:0:0:0:
419,261,140994,5,2,0:2:0:0:
411,283,141208,1,2,0:2:0:0:
339,134,141422,2,0,P|379:108|443:99,1,95,0|0,1:0|0:0,0:0:0:0:
459,113,141851,5,2,0:2:0:0:
232,161,142065,1,2,0:2:0:0:
12,201,142279,1,2,0:2:0:0:
158,350,149565,5,10,0:0:0:0:
106,269,149779,1,2,0:0:0:0:
18,225,149994,1,8,0:0:0:0:
31,204,150208,5,0,0:0:0:0:
44,199,150315,1,0,0:0:0:0:
57,195,150422,1,10,0:0:0:0:
70,191,150529,1,0,0:0:0:0:
83,187,150637,1,2,0:0:0:0:
96,182,150744,1,0,0:0:0:0:
109,178,150851,1,8,0:0:0:0:
225,223,151279,5,10,0:0:0:0:
269,105,151708,1,8,0:0:0:0:
152,57,152137,1,10,0:0:0:0:
114,176,152565,1,10,0:0:0:0:
152,57,152994,5,10,0:0:0:0:
269,105,153422,1,8,0:0:0:0:
226,223,153851,1,10,0:0:0:0:
112,175,154279,1,8,0:0:0:0:
237,248,154708,5,10,0:0:0:0:
296,92,155137,1,8,0:0:0:0:
142,25,155565,1,10,0:0:0:0:
77,191,155994,1,10,0:0:0:0:
85,203,156208,1,0,0:0:0:0:
95,215,156422,5,10,0:0:0:0:
179,153,156637,1,2,0:0:0:0:
277,188,156851,1,8,0:0:0:0:
290,206,157065,5,0,0:0:0:0:
295,219,157172,1,0,0:0:0:0:
299,232,157279,1,10,0:0:0:0:
303,244,157386,1,0,0:0:0:0:
307,258,157494,1,2,0:0:0:0:
312,271,157601,1,0,0:0:0:0:
316,284,157708,1,8,0:0:0:0:
461,240,158137,5,10,0:0:0:0:
408,99,158565,1,8,0:0:0:0:
265,148,158994,1,10,0:0:0:0:
318,288,159422,1,10,0:0:0:0:
256,192,159851,12,2,162851,0:0:0:0:
469,11,163279,6,0,L|455:83,1,66.5,4|0,1:3|0:0,0:0:0:0:
512,133,164137,6,0,B|487:128|487:128|483:133|483:133|415:119|415:119|411:112|411:112|407:107|407:107|342:92|342:92|333:95|333:95|299:90,1,199.499993911743,8|0,0:3|0:0,0:0:0:0:
382,149,164565,6,0,L|394:216,1,66.5,4|0,1:3|0:0,0:0:0:0:
326,256,165422,2,0,L|333:290,1,28.5,4|0,1:3|0:0,0:0:0:0:
395,335,165851,6,0,B|356:326|356:326|346:333|346:333|289:318|289:318|283:308|283:308|201:282|201:282|195:272|195:272|131:254|131:254|109:265|109:265|19:239|19:239,1,398.999987823487,8|0,0:3|1:3,0:0:0:0:
124,140,166708,6,0,L|144:95,1,47.5,4|0,1:3|0:0,0:0:0:0:
177,19,167351,1,4,1:3:0:0:
211,155,167565,6,0,B|179:218|179:218|136:224|136:224|100:305,1,199.499993911743,8|0,0:3|0:0,0:0:0:0:
167,253,167994,6,0,L|235:245,1,66.5,4|0,1:3|0:0,0:0:0:0:
288,304,168851,2,0,L|316:299,1,28.5,4|0,1:3|0:0,0:0:0:0:
382,352,169279,6,0,B|377:325|377:325|381:312|381:312|369:254|369:254|359:243|359:243|352:200,2,132.999995941162,8|0|0,0:3|0:3|1:3,0:0:0:0:
473,286,169922,1,0,1:3:0:0:
443,168,170137,6,0,L|429:102,1,66.5,4|0,1:3|0:0,0:0:0:0:
488,51,170994,6,0,B|461:54|461:54|448:48|448:48|390:59|390:59|382:67|382:67|374:75|374:75|280:92,1,199.499993911743,8|0,0:3|0:0,0:0:0:0:
237,40,171422,6,0,L|165:52,1,66.5,4|0,1:3|0:0,0:0:0:0:
117,118,172279,2,0,L|83:123,1,28.5,4|0,1:3|0:0,0:0:0:0:
171,50,172708,6,0,B|174:68|174:68|190:82|190:82|202:150|202:150|174:173|174:173|184:224|184:224|212:233|212:233|227:310|227:310|215:325|215:325|118:297,1,398.999987823487,8|0,0:3|1:3,0:0:0:0:
25,342,173565,6,0,L|70:355,1,47.5,4|0,1:3|0:0,0:0:0:0:
142,305,174208,1,4,1:3:0:0:
320,383,174422,6,0,B|315:348|315:348|320:337|320:337|305:242|305:242|296:233|296:233|287:176,1,199.499993911743,8|0,0:3|0:0,0:0:0:0:
273,272,174851,2,0,L|206:251,1,66.5,4|0,1:3|0:0,0:0:0:0:
134,296,175708,2,0,L|102:288,1,28.5,4|0,1:3|0:0,0:0:0:0:
62,212,176137,6,0,B|125:201|125:201|109:113,2,132.999995941162,8|0|0,0:3|0:3|1:3,0:0:0:0:
135,293,176779,5,0,1:3:0:0:
200,161,176994,6,0,L|196:134,1,19,6|0,1:3|0:3,0:0:0:0:
286,101,177422,2,0,L|284:78,1,19,0|0,0:3|0:3,0:0:0:0:
316,201,177851,6,0,B|352:210|352:210|361:222|361:222|457:250|457:250|471:244|471:244|533:259,1,199.499993911743,8|0,0:3|0:0,0:0:0:0:
445,194,178279,6,0,L|453:169,1,19,4|0,1:3|0:3,0:0:0:0:
382,102,178708,2,0,L|390:77,1,19,0|0,0:3|0:3,0:0:0:0:
481,49,179137,1,4,1:3:0:0:
320,17,179351,1,0,0:3:0:0:
320,17,179458,1,0,0:0:0:0:
320,17,179565,6,0,B|323:50|323:50|296:122|296:122|353:173|353:173|360:233|360:233|348:268|348:268|338:293|338:293|330:203,1,398.999987823487,8|0,0:3|1:0,0:0:0:0:
233,139,180422,6,0,L|260:134,1,19,6|0,1:3|0:3,0:0:0:0:
191,211,180851,1,0,0:3:0:0:
26,172,181065,2,0,L|14:175,1,9.5,4|0,1:3|0:0,0:0:0:0:
82,225,181279,6,0,B|77:183|77:183|83:177|83:177|76:128|76:128|69:121|69:121|61:114|61:114|54:55|54:55|46:48|46:48|43:19,1,199.499993911743,8|0,0:3|0:0,0:0:0:0:
103,95,181708,6,0,L|130:100,1,19,4|0,1:3|0:3,0:0:0:0:
203,162,182137,2,0,L|226:166,1,19,0|0,0:3|0:3,0:0:0:0:
295,122,182565,1,4,1:3:0:0:
110,192,182779,1,0,0:3:0:0:
110,192,182887,1,0,0:0:0:0:
110,192,182994,6,0,B|90:260|90:260|114:345,2,132.999995941162,8|0|0,0:3|0:3|1:3,0:0:0:0:
193,260,183637,1,0,1:3:0:0:
325,234,183851,6,0,L|291:228,2,28.5,6|0|0,1:3|0:0|0:3,0:0:0:0:
471,363,184708,6,0,B|393:348|393:348|339:357|339:357|258:340,1,199.499993911743,8|0,0:3|0:0,0:0:0:0:
351,318,185137,5,4,1:3:0:0:
370,214,185351,1,0,0:3:0:0:
370,214,185458,1,0,0:0:0:0:
370,214,185565,2,0,L|404:208,1,28.5,0|0,0:3|0:0,0:0:0:0:
473,193,185994,1,4,1:3:0:0:
452,305,186208,1,0,0:3:0:0:
318,126,186422,6,0,B|326:181|326:181|321:192|321:192|331:251|331:251|340:258|340:258|353:334,1,199.499993911743,8|0,0:3|0:0,0:0:0:0:
296,245,186851,6,0,L|286:188,1,47.5,0|0,1:3|0:0,0:0:0:0:
212,261,187065,2,0,L|202:202,1,47.5,0|0,1:3|0:0,0:0:0:0:
124,275,187279,2,0,L|93:267,2,28.5,6|0|4,1:3|0:0|1:3,0:0:0:0:
0,153,188137,6,0,B|88:143|88:143|106:135|106:135|213:121,1,199.499993911743,8|0,0:3|0:0,0:0:0:0:
127,84,188565,6,0,L|132:65,1,19,4|0,1:3|0:3,0:0:0:0:
239,24,188994,2,0,L|229:53,1,28.5,2|0,0:3|0:0,0:0:0:0:
280,111,189422,1,4,1:3:0:0:
456,177,189637,1,0,0:3:0:0:
456,177,189744,1,0,0:0:0:0:
456,177,189851,6,0,B|387:189|387:189|320:174,2,132.999995941162,10|0|0,0:3|0:3|1:3,0:0:0:0:
440,67,190494,1,0,1:3:0:0:
383,312,190708,6,0,L|352:304,2,28.5,6|0|0,1:3|0:0|0:3,0:0:0:0:
202,273,191565,6,0,B|84:290|84:290|62:331|62:331|114:323,1,199.499993911743,8|0,0:3|0:0,0:0:0:0:
111,250,191994,6,0,L|131:248,1,19,4|0,1:3|0:3,0:0:0:0:
203,174,192422,2,0,L|223:171,1,19,0|0,0:3|0:3,0:0:0:0:
321,155,192851,1,4,1:3:0:0:
238,350,193065,1,0,0:3:0:0:
238,350,193172,1,0,0:0:0:0:
238,350,193279,6,0,B|223:263|223:263|339:291|339:291|351:303|351:303|439:324|439:324|456:319|456:319|538:338,1,398.999987823487,8|0,0:3|1:3,0:0:0:0:
402,289,194137,6,0,L|409:258,2,28.5,6|0|4,1:3|0:0|1:3,0:0:0:0:
443,71,194994,6,0,B|360:84|360:84|335:105|335:105|230:123,1,199.499993911743,8|0,0:3|0:0,0:0:0:0:
316,68,195422,5,4,1:3:0:0:
225,45,195637,1,0,0:3:0:0:
284,192,195851,2,0,L|277:213,1,19,0|0,0:3|0:3,0:0:0:0:
185,161,196279,2,0,L|189:179,1,19,4|0,1:3|0:3,0:0:0:0:
12,278,196708,6,0,B|53:269|53:269|103:269|103:269|148:258,2,132.999995941162,8|0|0,0:3|0:3|1:3,0:0:0:0:
96,384,197351,1,0,1:3:0:0:
69,135,197565,6,0,L|73:117,1,19,6|0,1:3|0:3,0:0:0:0:
150,154,197994,2,0,L|154:136,1,19,0|0,0:3|0:3,0:0:0:0:
0,90,198422,6,0,B|83:77|83:77|108:56|108:56|213:38,1,199.499993911743,8|0,0:3|0:0,0:0:0:0:
113,21,198851,5,4,1:3:0:0:
215,38,199065,1,0,0:3:0:0:
291,116,199279,2,0,L|247:124,1,38,0|0,0:3|0:3,0:0:0:0:
283,208,199708,2,0,L|239:216,1,38,4|0,1:3|0:3,0:0:0:0:
462,247,200137,6,0,B|397:257|397:257|397:261|397:261|395:257|395:257|350:263|350:263|337:281|337:281|214:303|214:303|202:289|202:289|80:309|80:309,1,398.999987823487,8|0,0:3|1:3,0:0:0:0:
237,333,200994,6,0,L|258:329,1,19,6|0,1:3|0:3,0:0:0:0:
354,365,201422,1,0,0:3:0:0:
454,347,201637,1,4,1:3:0:0:
508,145,201851,6,0,B|453:137|453:137|442:142|442:142|383:132|383:132|376:123|376:123|300:110,1,199.499993911743,8|0,0:3|0:0,0:0:0:0:
392,78,202279,5,4,1:3:0:0:
294,13,202494,1,0,0:3:0:0:
298,17,202601,1,0,0:0:0:0:
302,21,202708,1,2,0:3:0:0:
269,191,202922,1,0,0:3:0:0:
110,158,203137,1,4,1:3:0:0:
141,0,203351,1,0,0:3:0:0:
302,29,203565,5,10,0:3:0:0:
225,372,204422,6,0,L|222:351,1,19,6|0,1:3|0:3,0:0:0:0:
127,317,204851,2,0,L|123:295,1,19,0|0,0:3|0:3,0:0:0:0:
188,64,205279,6,0,B|192:101|192:101|201:122|201:122|206:161|206:161|210:161|210:161|206:163|206:163|210:198|210:198|206:222|206:222|211:271,1,199.499993911743,8|0,0:3|0:0,0:0:0:0:
266,201,205708,5,4,1:3:0:0:
292,105,205922,1,0,0:3:0:0:
399,177,206137,2,0,L|361:184,1,38,0|4,0:3|1:3,0:0:0:0:
1,251,206994,6,0,B|62:263|62:263|89:254|89:254|100:270|100:270|112:286|112:286|258:314|258:314|278:305|278:305|297:295|297:295|312:311|312:311|374:323,1,398.999987823487,8|0,0:3|1:3,0:0:0:0:
250,260,207851,6,0,L|245:232,2,28.5,6|0|4,1:3|0:0|1:3,0:0:0:0:
374,145,208708,6,0,B|239:168|239:168|221:181|221:181|157:191,1,199.499993911743,8|0,0:3|0:0,0:0:0:0:
246,232,209137,5,4,1:3:0:0:
291,59,209351,1,0,0:3:0:0:
110,22,209565,1,0,0:3:0:0:
114,26,209672,1,0,0:0:0:0:
118,30,209779,1,0,0:3:0:0:
67,215,209994,21,4,1:3:0:0:
12,142,210208,1,0,0:3:0:0:
127,283,210422,5,8,0:3:0:0:
172,195,210637,1,0,0:3:0:0:
93,367,210851,5,0,1:3:0:0:
250,306,211065,1,0,1:3:0:0:
99,68,211279,21,4,1:3:0:0:
493,118,212137,5,8,0:3:0:0:
378,106,212565,5,4,1:3:0:0:
378,106,213422,1,4,1:3:0:0:
330,383,213851,5,8,0:3:0:0:
330,383,214708,5,4,1:3:0:0:
351,287,215351,1,4,1:3:0:0:
284,76,215565,5,8,0:3:0:0:
187,66,215994,5,4,1:3:0:0:
187,66,216851,1,4,1:3:0:0:
40,249,217279,5,8,0:3:0:0:
